VERSION	0.00.00	1.04.00
FES_MODE	0
BPM_DEF	180.000	180.000	180.000	180.000
MET_DEF	4	4
RESOLUTION	384
CLK_DEF	384
COMPATIBLE_CODE	MA2

BPM	0	0	180.000
MET	0	0	4	4

EXTAP	2	0	0
EXTAP	2	96	1
EXTAP	2	192	2
NMTAP	2	240	7
NMTAP	2	264	0
BRTAP	2	288	1
BRTAP	2	288	6
NMTAP	3	0	5
NMTAP	3	48	5
NMTAP	3	96	3
NMTAP	3	144	4
NMSTR	3	192	5
NMSI_	3	192	5	96	48	7
NMTAP	3	240	5
NMTAP	3	288	3
NMTAP	3	336	2
NMTAP	4	0	1
NMTAP	4	48	1
NMTAP	4	96	7
NMTAP	4	144	0
NMSTR	4	192	1
NMSI_	4	192	1	96	48	3
NMTAP	4	240	1
NMTAP	4	288	7
NMTAP	4	336	6
NMTAP	5	0	5
NMTAP	5	48	5
NMTAP	5	96	3
NMTAP	5	96	6
NMTAP	5	144	7
NMTAP	5	192	2
NMTAP	5	240	2
NMTAP	5	288	1
NMTAP	5	288	4
NMTAP	5	336	0
NMSTR	6	0	6
NMSI_	6	0	6	96	48	3
NMTAP	6	48	6
NMSTR	6	96	2
NMSCL	6	96	2	96	96	5
NMTAP	6	144	2
BRTAP	6	192	4
NMTAP	7	0	4
NMTAP	7	48	4
NMSTR	7	96	2
NMSI_	7	96	2	96	48	4
NMTAP	7	144	2
NMTAP	7	192	7
NMTAP	7	240	6
NMTAP	7	288	5
NMTAP	7	336	0
NMTAP	8	0	1
NMTAP	8	48	2
NMSTR	8	96	5
NMSI_	8	96	5	96	48	3
NMTAP	8	144	5
NMTAP	8	192	2
NMTAP	8	240	1
NMTAP	8	288	0
NMTAP	8	336	7
NMTAP	9	0	1
NMTAP	9	0	6
NMTAP	9	48	5
NMTAP	9	96	2
NMTAP	9	96	4
NMTAP	9	144	3
NMTAP	9	192	4
NMTAP	9	192	6
NMTAP	9	240	5
NMTAP	9	288	3
NMTAP	9	336	3
NMTHO	10	0	0	144	C	0	M1
EXTAP	10	144	0
EXTAP	10	192	0
BRTAP	10	288	1
BRTAP	10	288	7
NMHLD	11	0	6	96
NMTAP	11	48	7
NMTAP	11	96	0
NMTAP	11	144	1
NMHLD	11	192	2	96
NMTAP	11	240	3
NMTAP	11	288	4
NMTAP	11	336	5
NMHLD	12	0	4	48
NMHLD	12	0	6	48
NMHLD	12	96	2	48
NMHLD	12	96	3	48
NMTAP	12	192	0
NMTAP	12	192	1
NMTAP	12	240	0
NMTAP	12	240	1
NMTAP	12	336	2
NMHLD	12	336	7	192
NMTTP	13	48	5	B	0	M1
NMTTP	13	48	5	E	0	M1
NMTTP	13	48	6	E	0	M1
NMTTP	13	144	3	B	0	M1
NMTTP	13	144	3	E	0	M1
NMTTP	13	144	4	E	0	M1
NMSTR	13	240	1
NMSCR	13	240	1	96	48	4
EXTAP	13	336	0
EXTAP	13	336	1
EXTAP	14	96	4
EXTAP	14	96	6
NMHLD	14	144	4	48
NMHLD	14	144	6	48
NMTAP	14	240	5
NMTAP	14	264	3
BRTAP	14	288	7
NMSTR	15	0	2
NMSCR	15	0	2	96	48	4
NMTAP	15	48	2
NMTAP	15	96	4
NMTAP	15	144	5
NMHLD	15	192	6	96
NMTAP	15	240	3
NMHLD	15	288	2	96
NMTAP	15	336	5
NMSTR	16	0	6
NMSCL	16	0	6	96	48	3
NMTAP	16	48	6
NMTAP	16	96	2
NMTAP	16	144	1
NMHLD	16	192	0	96
NMTAP	16	240	3
NMHLD	16	288	4	96
NMTAP	16	336	1
NMTAP	17	0	0
NMTAP	17	48	0
NMTAP	17	96	1
NMTAP	17	96	3
NMTAP	17	144	2
NMTAP	17	192	3
NMTAP	17	192	4
NMTAP	17	240	5
NMTAP	17	288	4
NMSTR	17	288	6
NMSCR	17	288	6	96	192	4
NMTTP	18	0	0	C	0	M1
NMSTR	18	192	0
NMSI_	18	192	0	96	48	4
BRTAP	18	288	0
EXTAP	19	0	3
EXHLD	19	0	5	384
NMTAP	19	288	4
NMHLD	20	0	4	384
NMTAP	20	288	3
NMHLD	21	0	3	384
NMSTR	21	288	2
NMSUR	21	288	2	96	240	4
NMHLD	23	0	6	384
NMTTP	23	288	5	E	0	M1
NMHLD	24	0	4	384
NMTTP	24	288	4	E	0	M1
NMHLD	25	0	3	384
NMTTP	25	288	3	E	0	M1
NMTHO	26	0	0	384	C	0	M1
EXTAP	27	0	7
NMTAP	27	96	7
NMTAP	27	192	6
NMTAP	27	288	4
NMTAP	27	288	5
NMTAP	28	0	3
NMTAP	28	96	3
NMTAP	28	96	4
NMHLD	28	192	5	72
NMTAP	28	264	4
NMTAP	28	336	3
NMTAP	28	336	6
NMTAP	29	0	3
NMTAP	29	0	6
NMTAP	29	96	3
NMTAP	29	192	2
NMTAP	29	192	4
NMTAP	29	288	1
NMTAP	30	0	1
NMTAP	30	0	3
NMTAP	30	96	1
NMTAP	30	96	4
NMHLD	30	192	2	72
NMTAP	30	264	3
NMTAP	30	336	2
NMTAP	30	336	4
NMTAP	31	0	2
EXTAP	31	0	4
NMTAP	31	48	5
NMTAP	31	96	5
NMTAP	31	144	5
NMTAP	31	192	3
NMTAP	31	240	4
NMTAP	31	288	2
NMTAP	31	336	2
EXTAP	32	0	2
NMTAP	32	0	4
NMTAP	32	48	1
NMTAP	32	96	1
NMTAP	32	144	1
NMTAP	32	192	3
NMTAP	32	240	2
NMTAP	32	288	4
NMTAP	32	336	4
NMTAP	33	0	3
NMTAP	33	24	4
NMTAP	33	48	3
NMTAP	33	72	4
NMTAP	33	96	3
NMTAP	33	120	4
NMTAP	33	144	3
NMTAP	33	168	4
NMTAP	33	192	2
NMTAP	33	216	5
NMTAP	33	240	2
NMTAP	33	264	5
NMTAP	33	288	1
NMTAP	33	312	6
NMTAP	33	336	1
NMTAP	33	360	6
EXTAP	34	0	0
EXTAP	34	96	1
EXTAP	34	192	2
NMTAP	34	240	7
NMTAP	34	264	0
BRTAP	34	288	1
BRTAP	34	288	6
NMSTR	35	0	6
NMSI_	35	0	6	96	48	4
NMSTR	35	48	7
NMSI_	35	48	7	96	48	3
NMSTR	35	96	6
NMSI_	35	96	6	96	48	2
NMSTR	35	144	7
NMSCR	35	144	7	96	48	2
NMTAP	35	192	6
NMSTR	35	240	7
BRSCL	35	240	7	96	48	4
NMTAP	35	336	3
NMTAP	35	336	7
NMTAP	36	48	0
NMTAP	36	48	1
NMTAP	36	96	2
NMTAP	36	96	7
NMTAP	36	144	3
NMTAP	36	144	6
NMSTR	36	192	4
NMSI_	36	192	4	96	48	0
NMSTR	36	240	5
NMSI_	36	240	5	96	48	7
NMTAP	36	288	4
NMTAP	36	336	5
NMHLD	37	0	1	96
NMTAP	37	96	0
NMSTR	37	144	2
NMSI_	37	144	2	96	48	7
NMSTR	37	144	7
NMSI_	37	144	7	96	48	3
NMTAP	37	240	2
NMTAP	37	240	7
EXSTR	37	336	1
BRSCR	37	336	1	96	96	5
EXTAP	37	336	4
NMTAP	38	48	0
NMTAP	38	96	7
NMHLD	38	144	6	96
NMTAP	38	240	4
NMTAP	38	288	3
NMTAP	38	312	5
NMTAP	38	336	3
NMTAP	38	360	5
NMSTR	39	0	2
NMSI_	39	0	2	96	48	0
NMSTR	39	48	6
NMSUL	39	48	6	96	48	2
NMTAP	39	96	2
NMTAP	39	144	6
NMSTR	39	240	0
NMSI_	39	240	0	96	48	4
NMSTR	39	240	3
NMSI_	39	240	3	96	48	7
EXTAP	39	336	0
EXTAP	39	336	3
NMSTR	40	48	6
NMSI_	40	48	6	96	48	3
NMTAP	40	96	4
NMTAP	40	144	6
NMSTR	40	240	1
NMSI_	40	240	1	96	48	5
NMTAP	40	288	3
NMTAP	40	336	1
NMSTR	41	48	6
NMSI_	41	48	6	96	48	2
NMTAP	41	96	4
NMTAP	41	144	6
NMSTR	41	240	0
NMSI_	41	240	0	96	48	4
NMTAP	41	288	3
NMTAP	41	336	0
NMTAP	42	48	2
NMTAP	42	48	6
NMTAP	42	96	1
NMTAP	42	112	0
NMTAP	42	128	1
NMTAP	42	144	0
BRTAP	42	192	2
BRTAP	42	192	6
NMTAP	42	288	0
NMTAP	42	312	7
NMTAP	42	336	0
NMTAP	42	360	7
NMSTR	43	0	1
NMSI_	43	0	1	96	48	3
NMSTR	43	48	0
NMSI_	43	48	0	96	48	4
NMSTR	43	96	1
NMSI_	43	96	1	96	48	5
NMSTR	43	144	0
NMSCL	43	144	0	96	48	5
NMTAP	43	192	1
NMSTR	43	240	0
BRSCR	43	240	0	96	48	3
NMTAP	43	336	0
NMTAP	43	336	4
NMTAP	44	48	6
NMTAP	44	48	7
NMTAP	44	96	0
NMTAP	44	96	5
NMTAP	44	144	1
NMTAP	44	144	4
NMSTR	44	192	3
NMSI_	44	192	3	96	48	7
NMSTR	44	240	2
NMSI_	44	240	2	96	48	0
NMTAP	44	288	3
NMTAP	44	336	2
NMHLD	45	0	6	96
NMTAP	45	96	7
NMSTR	45	144	0
NMSI_	45	144	0	96	48	4
NMSTR	45	144	5
NMSI_	45	144	5	96	48	0
NMTAP	45	240	0
NMTAP	45	240	5
EXTAP	45	336	2
EXSTR	45	336	6
BRSCL	45	336	6	96	96	2
NMTAP	46	48	7
NMTAP	46	96	0
NMHLD	46	144	1	96
NMTAP	46	240	3
NMTAP	46	288	2
NMTAP	46	312	4
NMTAP	46	336	2
NMTAP	46	360	4
NMSTR	47	0	1
NMSI_	47	0	1	96	48	7
NMSTR	47	48	6
NMSUL	47	48	6	96	48	2
NMTAP	47	96	1
NMTAP	47	144	6
NMSTR	47	240	0
NMSI_	47	240	0	96	48	3
NMSI_	47	240	0	96	48	5
EXTAP	47	336	0
NMSTR	48	48	6
NMSCL	48	48	6	96	48	3
NMTAP	48	96	0
NMTAP	48	144	6
NMSTR	48	240	1
BRSCR	48	240	1	96	48	4
NMTAP	48	288	3
BRTAP	48	336	1
NMSTR	49	48	6
BRSI_	49	48	6	96	48	2
NMTAP	49	96	7
BRTAP	49	144	6
NMSTR	49	240	1
BRSI_	49	240	1	96	48	5
NMTAP	49	288	0
BRTAP	49	336	1
NMTAP	50	48	7
NMTAP	50	72	0
NMSTR	50	96	7
NMSF_	50	96	7	96	48	3
NMTAP	50	144	1
NMTAP	50	144	6
BRTAP	50	192	7
BRTAP	50	288	1
BRTAP	50	288	5
NMSTR	51	0	6
NMSLL	51	0	6	96	96	0
NMTAP	51	48	6
NMTAP	51	96	3
NMTAP	51	144	2
NMSTR	51	192	1
NMSLR	51	192	1	96	96	7
NMTAP	51	240	1
NMTAP	51	288	4
NMTAP	51	336	5
NMTAP	52	0	6
NMTAP	52	48	6
NMTAP	52	96	0
NMTAP	52	96	5
NMTAP	52	144	1
NMTAP	52	144	4
NMTAP	52	192	2
EXSTR	52	192	3
NMSCR	52	192	3	96	96	7
NMTAP	52	288	1
NMTAP	52	336	2
NMSTR	53	0	4
NMSCL	53	0	4	96	96	0
NMTAP	53	96	6
NMTAP	53	144	5
NMSTR	53	192	3
NMSCR	53	192	3	96	96	7
NMTTP	53	288	0	C	0	M1
NMTAP	54	0	1
NMTAP	54	48	1
NMTAP	54	96	0
NMTAP	54	96	2
NMTAP	54	144	3
NMTAP	54	144	7
NMTAP	54	192	4
NMHLD	54	192	6	96
NMTAP	54	288	4
NMTAP	54	312	3
NMTAP	54	336	2
NMTAP	54	360	1
NMSTR	55	0	5
NMSLR	55	0	5	96	96	3
NMTAP	55	48	5
NMTAP	55	96	7
NMTAP	55	144	0
NMSTR	55	192	1
NMSLR	55	192	1	96	96	7
NMTAP	55	240	1
NMTAP	55	288	4
NMTAP	55	336	5
NMSTR	56	0	6
BRSCL	56	0	6	96	48	4
NMSTR	56	96	0
NMSCR	56	96	0	96	48	2
NMTAP	56	144	0
NMSTR	56	192	7
NMSCL	56	192	7	96	48	5
NMTAP	56	240	7
NMTAP	56	288	4
NMTAP	56	336	3
NMTAP	57	0	2
NMTAP	57	48	3
NMTAP	57	96	1
NMTAP	57	96	4
NMTAP	57	144	0
NMTAP	57	192	7
NMTAP	57	240	6
NMTAP	57	288	4
NMTAP	57	288	5
NMTAP	57	336	3
NMSTR	58	0	2
NMSI_	58	0	2	96	48	7
NMSTR	58	0	6
NMSI_	58	0	6	96	48	3
NMTAP	58	48	1
NMTAP	58	48	5
NMTAP	58	96	2
NMTAP	58	96	6
BRTAP	58	192	0
BRTAP	58	192	4
NMTAP	58	288	1
NMTAP	58	312	3
NMTAP	58	336	1
NMTAP	58	360	3
NMTAP	59	0	2
NMTAP	59	48	2
NMTAP	59	96	2
NMTAP	59	96	7
NMTAP	59	144	2
NMTAP	59	192	2
NMTAP	59	192	6
NMTAP	59	240	6
NMTAP	59	288	4
NMTAP	59	288	6
NMTAP	59	336	6
NMHLD	60	0	2	96
NMTAP	60	0	6
NMTTP	60	48	6	E	0	M1
NMTTP	60	64	5	B	0	M1
NMTTP	60	80	4	B	0	M1
NMTTP	60	96	4	E	0	M1
NMTAP	60	144	0
NMTAP	60	192	0
NMTAP	60	288	1
NMTAP	60	288	7
NMTAP	60	336	2
NMTAP	60	336	6
NMTAP	61	0	3
NMSTR	61	0	5
NMSCL	61	0	5	96	48	3
NMSTR	61	96	1
NMSUR	61	96	1	96	48	5
NMTAP	61	96	5
NMTAP	61	192	1
NMSTR	61	192	6
NMSUL	61	192	6	96	48	2
NMSTR	61	288	0
NMSCR	61	288	0	96	192	7
NMTAP	61	288	6
BRTAP	62	0	0
NMTTP	62	0	0	C	1	M1
EXTAP	62	288	0
EXTAP	62	288	1
EXHLD	63	0	1	96
NMTTP	63	0	2	B	0	M1
NMTTP	63	0	3	B	0	M1
NMTTP	63	0	3	E	1	M1
NMTTP	63	192	4	B	0	M1
NMTTP	63	192	5	B	0	M1
NMTTP	63	192	5	E	1	M1
EXHLD	63	192	6	96
BXTAP	64	0	0
BXTAP	64	0	1
NMTAP	64	48	2
BXTAP	64	96	6
BXTAP	64	96	7
NMTAP	64	144	5
BXTAP	64	192	0
BXTAP	64	192	7
NMTAP	64	288	1
NMTAP	64	288	6
NMTAP	64	336	1
NMTAP	64	336	6
NMTAP	65	0	7
NMTAP	65	24	0
NMTAP	65	48	7
NMTAP	65	72	0
NMTAP	65	96	7
NMTAP	65	120	0
NMTAP	65	144	7
NMTAP	65	168	0
NMTAP	65	192	6
NMTAP	65	216	1
NMTAP	65	240	6
NMTAP	65	264	1
NMSTR	65	288	5
NMSI_	65	288	5	96	48	7
NMTAP	65	312	2
NMTAP	65	336	5
NMTAP	65	360	2
EXTAP	66	0	5
CNSI_	66	48	7	0	48	1
CNSI_	66	96	1	0	48	3
BXSTR	66	192	4
BRSF_	66	192	4	96	48	0
NMTTP	67	0	0	C	1	M1
NMTTP	67	0	1	B	0	M1
NMTTP	67	0	2	B	0	M1
NMTTP	67	0	2	E	0	M1
NMTTP	67	0	6	B	0	M1
NMTTP	67	0	7	B	0	M1
NMTTP	67	0	7	E	0	M1
NMHLD	71	0	4	384
NMTTP	71	288	4	E	0	M1
NMTTP	71	288	5	E	0	M1
NMHLD	72	0	3	384
NMTTP	72	288	3	E	0	M1
NMTTP	72	288	4	E	0	M1
NMHLD	73	0	5	384
NMTTP	73	288	5	E	0	M1
NMTTP	73	288	6	E	0	M1
NMHLD	74	0	1	192
NMTTP	74	192	0	C	0	M1
BXTAP	74	288	0
BXSTR	74	288	7
NMSI_	74	288	7	96	48	3
EXTAP	75	0	2
NMTAP	75	96	2
NMTAP	75	192	2
NMTAP	75	288	4
EXTAP	75	336	3
EXTAP	75	336	5
EXTAP	76	0	3
EXTAP	76	0	5
NMTAP	76	96	6
NMTAP	76	192	6
NMSTR	76	288	6
NMSI_	76	288	6	96	48	4
NMTAP	76	336	4
EXTAP	77	0	3
NMTAP	77	96	1
NMSTR	77	192	1
NMSI_	77	192	1	96	48	3
NMTAP	77	192	3
NMTAP	77	288	4
EXTAP	77	336	4
EXTAP	78	48	4
EXTAP	78	48	6
EXTAP	78	144	0
EXTAP	78	144	7
EXTAP	78	192	0
EXTAP	78	192	7
EXTAP	78	288	1
EXTAP	78	288	3
EXSTR	79	0	2
NMSCR	79	0	2	96	48	4
NMTAP	79	0	4
NMTTP	79	96	3	B	0	M1
EXSTR	79	192	6
NMSCR	79	192	6	96	48	0
NMTTP	79	288	7	B	0	M1
EXHLD	80	0	2	48
EXHLD	80	96	2	48
EXHLD	80	96	3	48
EXTAP	80	192	1
NMSTR	80	192	4
NMSLR	80	192	4	96	96	0
NMSTR	80	288	0
NMSCR	80	288	0	96	96	4
NMSTR	81	0	4
NMSCR	81	0	4	96	96	0
NMSTR	81	96	0
NMSCR	81	96	0	96	96	4
NMSTR	81	192	4
NMSCR	81	192	4	96	96	0
NMSTR	81	288	0
NMSI_	81	288	0	96	48	2
NMTTP	82	0	0	C	1	M1
CNSI_	82	48	2	0	72	4
CNSI_	82	120	4	0	72	6
NMTAP	82	288	0
NMTAP	82	288	7
NMTAP	83	0	0
NMTAP	83	96	1
NMTAP	83	192	2
NMTAP	83	240	7
NMTAP	83	264	0
BRTAP	83	288	1
BRTAP	83	288	6
NMTAP	84	0	3
NMTAP	84	0	4
NMTAP	84	48	2
NMTAP	84	72	3
NMSTR	84	96	1
NMSI_	84	96	1	96	48	7
NMTAP	84	144	7
NMSTR	84	192	1
NMSI_	84	192	1	96	48	4
NMTAP	84	240	3
NMTAP	84	288	1
NMTAP	84	336	5
NMTAP	85	0	5
NMTAP	85	24	4
NMTAP	85	48	6
NMTAP	85	96	0
NMTAP	85	96	7
NMTAP	85	144	1
NMSTR	85	192	2
NMSI_	85	192	2	96	48	7
NMSTR	85	240	3
NMSI_	85	240	3	96	48	6
NMTAP	85	288	2
NMTAP	85	336	3
NMTAP	86	0	0
NMTAP	86	48	1
NMTAP	86	48	7
NMTAP	86	96	2
NMTAP	86	96	6
NMTAP	86	144	5
NMTAP	86	168	3
NMHLD	86	192	4	48
NMTAP	86	240	2
NMTAP	86	264	3
NMSTR	86	288	0
NMSI_	86	288	0	96	24	6
NMTAP	86	336	5
NMSTR	87	0	0
NMSI_	87	0	0	96	24	2
CNSCL	87	24	6	0	24	5
NMTAP	87	48	3
NMTAP	87	96	0
CNSCR	87	120	2	0	24	3
NMTAP	87	144	4
NMTAP	87	192	6
NMTAP	87	240	0
NMTAP	87	240	7
NMTAP	87	288	0
NMTAP	87	288	7
NMTAP	87	312	6
NMTAP	87	336	5
NMTAP	87	360	4
NMTAP	88	0	2
NMTAP	88	0	3
NMTAP	88	48	1
NMTAP	88	72	0
NMSTR	88	96	2
NMSI_	88	96	2	96	48	7
NMTAP	88	144	7
NMSTR	88	192	2
NMSI_	88	192	2	96	48	4
NMTAP	88	240	4
NMTAP	88	288	2
NMTAP	88	336	6
NMTAP	89	0	6
NMTAP	89	24	4
NMTAP	89	48	5
NMTAP	89	96	3
NMTAP	89	96	4
NMTAP	89	144	2
NMTAP	89	144	3
NMTAP	89	192	1
NMTAP	89	192	4
NMTAP	89	240	0
NMSTR	89	240	5
NMSI_	89	240	5	96	48	2
NMTAP	89	288	6
NMTAP	89	288	7
BRTAP	89	336	5
NMTAP	90	0	0
NMSTR	90	48	1
NMSI_	90	48	1	96	48	4
NMTAP	90	96	2
NMTAP	90	96	7
BRTAP	90	144	1
NMTAP	90	192	7
NMSTR	90	240	6
NMSI_	90	240	6	96	48	3
NMTAP	90	288	0
NMTAP	90	288	5
BRTAP	90	336	6
NMTAP	91	0	1
NMTAP	91	48	1
NMTAP	91	96	0
NMTAP	91	96	1
NMTAP	91	112	2
NMTAP	91	128	3
NMTAP	91	144	4
EXSTR	91	192	6
NMSI_	91	192	6	96	48	2
EXSTR	91	192	7
NMSI_	91	192	7	96	48	3
BRTAP	91	288	6
BRTAP	91	288	7
EXTAP	92	0	0
EXTAP	92	0	1
NMTAP	92	48	2
NMTAP	92	72	3
NMSTR	92	96	1
NMSI_	92	96	1	96	48	7
NMTAP	92	144	7
NMSTR	92	192	1
NMSCR	92	192	1	96	48	4
NMTAP	92	240	3
NMTAP	92	288	1
NMTAP	92	336	5
NMTAP	93	0	5
NMTAP	93	24	4
NMTAP	93	48	6
NMTAP	93	96	0
NMTAP	93	96	7
NMTAP	93	144	1
NMSTR	93	192	2
NMSI_	93	192	2	96	48	7
NMSTR	93	240	3
NMSI_	93	240	3	96	48	6
NMTAP	93	288	2
NMTAP	93	336	3
NMTAP	94	0	0
NMTAP	94	48	1
NMTAP	94	48	7
NMTAP	94	96	2
NMTAP	94	96	6
NMTAP	94	144	5
NMTAP	94	168	3
NMHLD	94	192	4	48
NMTAP	94	240	2
NMTAP	94	264	3
NMSTR	94	288	0
NMSI_	94	288	0	96	24	6
NMTAP	94	336	5
NMSTR	95	0	0
NMSI_	95	0	0	96	24	2
CNSCL	95	24	6	0	24	5
NMTAP	95	48	3
NMTAP	95	96	0
CNSCR	95	120	2	0	24	3
NMTAP	95	144	5
BRTAP	95	192	1
BRTAP	95	192	7
NMTAP	95	288	5
NMTAP	95	312	4
NMTAP	95	336	6
NMTAP	95	360	3
BRTAP	96	0	7
NMTAP	96	48	1
NMTAP	96	72	0
NMTAP	96	96	2
NMTAP	96	144	6
NMTAP	96	168	7
NMTAP	96	192	5
NMSTR	96	240	3
BRSF_	96	240	3	96	48	7
NMTAP	96	288	2
NMTAP	96	288	4
BXTAP	96	336	3
EXTAP	97	48	0
EXTAP	97	48	6
EXTAP	97	64	1
EXTAP	97	64	5
EXTAP	97	80	2
EXTAP	97	80	4
EXTAP	97	96	3
BRTAP	97	144	0
BRTAP	97	144	6
NMSTR	97	240	5
NMSI_	97	240	5	96	48	3
NMTAP	97	288	3
NMTAP	97	336	2
BRTAP	97	336	5
NMSTR	98	48	1
NMSI_	98	48	1	96	48	5
NMTAP	98	96	4
BRTAP	98	144	1
NMTAP	98	144	5
NMSTR	98	240	7
NMSI_	98	240	7	96	48	3
NMTAP	98	288	3
NMTAP	98	336	2
BRTAP	98	336	7
NMTAP	99	48	1
NMTAP	99	48	5
NMTAP	99	96	6
NMTAP	99	112	7
NMTAP	99	128	6
NMTAP	99	144	7
BRTAP	99	192	1
BRTAP	99	192	5
NMSTR	99	240	1
NMSI_	99	240	1	96	48	6
NMSTR	99	240	5
BRSI_	99	240	5	96	48	2
BRTAP	99	336	1
BRTAP	99	336	5
NMSTR	100	48	0
BRSCR	100	48	0	96	48	3
NMSTR	100	48	4
NMSCR	100	48	4	96	48	7
BRTAP	100	144	0
BRTAP	100	144	4
NMSTR	100	240	4
BRSF_	100	240	4	96	48	0
BRTAP	100	336	4
EXTAP	101	48	1
EXTAP	101	48	7
EXTAP	101	96	1
EXTAP	101	96	7
NMTAP	101	112	2
NMTAP	101	112	6
NMTAP	101	128	3
NMTAP	101	128	5
NMTAP	101	144	4
EXSTR	101	192	2
NMSI_	101	192	2	96	48	7
EXSTR	101	192	6
NMSI_	101	192	6	96	48	3
BRTAP	101	288	2
BRTAP	101	288	6
NMTTP	101	289	0	C	1	M1

T_REC_TAP	459
T_REC_BRK	44
T_REC_XTP	53
T_REC_BXX	8
T_REC_HLD	32
T_REC_XHO	6
T_REC_BHO	0
T_REC_BXH	0
T_REC_STR	96
T_REC_BST	0
T_REC_XST	9
T_REC_XBS	2
T_REC_TTP	40
T_REC_THO	2
T_REC_SLD	95
T_REC_BSL	13
T_REC_ALL	859
T_NUM_TAP	657
T_NUM_BRK	67
T_NUM_HLD	40
T_NUM_SLD	95
T_NUM_ALL	859
T_JUDGE_TAP	711
T_JUDGE_HLD	134
T_JUDGE_SLD	108
T_JUDGE_ALL	953
TTM_EACHPAIRS	133
TTM_SCR_TAP	328500
TTM_SCR_BRK	174200
TTM_SCR_HLD	40000
TTM_SCR_SLD	142500
TTM_SCR_ALL	685200
TTM_SCR_S	658150
TTM_SCR_SS	678500
TTM_RAT_ACV	10098

