VERSION	0.00.00	1.04.00
FES_MODE	0
BPM_DEF	180.000	180.000	180.000	180.000
MET_DEF	4	4
RESOLUTION	384
CLK_DEF	384
COMPATIBLE_CODE	MA2

BPM	0	0	180.000
MET	0	0	4	4

NMSTR	2	0	0
NMSSL	2	0	0	96	120	4
BXTAP	2	288	2
BXTAP	2	288	6
NMTAP	3	0	4
NMTAP	3	96	3
NMTAP	3	96	4
NMTAP	3	192	4
NMTAP	3	288	2
NMTAP	3	288	4
NMTAP	4	0	1
NMHLD	4	0	5	192
NMTAP	4	96	4
NMTAP	4	192	3
NMTAP	4	288	4
NMTAP	4	288	6
NMTAP	5	0	3
NMTAP	5	96	3
NMTAP	5	96	4
NMTAP	5	192	3
NMTAP	5	288	3
NMTAP	5	288	5
NMHLD	6	0	2	192
NMTAP	6	0	6
NMTAP	6	96	3
NMTAP	6	192	4
NMTAP	6	288	1
NMTAP	6	288	3
NMTAP	7	0	5
NMTAP	7	96	4
NMTAP	7	96	5
NMTAP	7	192	2
NMTAP	7	288	2
NMTAP	7	288	3
NMTAP	8	0	1
NMHLD	8	0	4	192
NMTAP	8	96	2
NMTAP	8	192	3
NMTAP	8	288	1
NMTAP	8	288	6
NMTAP	9	0	2
NMTAP	9	96	2
NMTAP	9	96	3
NMTAP	9	192	5
NMSTR	9	288	4
NMSXR	9	288	4	96	216	0
NMTAP	9	288	5
EXTAP	10	288	2
EXTAP	10	288	6
NMTAP	11	0	7
NMTAP	11	96	4
NMTAP	11	96	5
NMTAP	11	192	6
NMTAP	11	288	3
NMTAP	11	288	4
NMTAP	12	0	1
NMTAP	12	96	2
NMTAP	12	96	3
NMTAP	12	192	0
NMTAP	12	288	0
NMTAP	12	288	7
NMTAP	13	0	4
NMTAP	13	0	6
NMTAP	13	96	1
NMTAP	13	96	3
NMTAP	13	192	3
NMTAP	13	192	4
EXSTR	13	288	1
NMSXL	13	288	1	96	192	0
EXSTR	13	288	6
NMSXR	13	288	6	96	192	7
EXTAP	13	336	1
EXTAP	13	336	6
EXTAP	14	288	0
EXTAP	14	288	7
NMTAP	15	0	4
NMTAP	15	0	6
NMTAP	15	96	4
NMTAP	15	96	5
NMTAP	15	192	2
NMTAP	15	192	3
NMTAP	15	288	1
NMTAP	15	288	3
NMTAP	16	0	0
NMTAP	16	0	4
NMTAP	16	96	2
NMTAP	16	96	3
NMTAP	16	192	4
NMTAP	16	192	5
NMTAP	16	288	3
NMTAP	16	288	7
NMTAP	17	0	6
NMTAP	17	48	6
NMTAP	17	96	4
NMTAP	17	144	4
NMTAP	17	192	3
NMTAP	17	240	3
NMTAP	17	288	1
NMTAP	17	336	1
NMSTR	18	0	7
NMSI_	18	0	7	96	48	3
NMTAP	18	48	7
EXTAP	18	192	2
BRTAP	18	288	0
BRTAP	18	288	4
NMHLD	19	0	5	384
NMHLD	20	0	4	384
NMTAP	21	0	3
NMTAP	21	192	4
NMSTR	22	0	5
NMSUL	22	0	5	96	240	3
NMHLD	23	0	2	384
NMHLD	24	0	3	384
NMTAP	25	0	4
NMTAP	25	192	3
NMSTR	26	0	2
NMSXR	26	0	2	96	288	4
EXTAP	27	0	6
NMTAP	27	96	5
NMTAP	27	192	5
NMTAP	27	288	5
NMTAP	28	0	3
NMTAP	28	96	3
NMHLD	28	192	2	72
NMHLD	28	264	3	72
NMTAP	28	336	1
EXTAP	29	0	1
NMTAP	29	96	2
NMTAP	29	192	2
NMTAP	29	288	2
NMTAP	30	0	4
NMTAP	30	96	4
NMHLD	30	192	5	72
NMHLD	30	264	4	72
NMTAP	30	336	6
EXTAP	31	0	6
NMTAP	31	96	4
NMTAP	31	96	5
NMTAP	31	192	2
NMTAP	31	192	3
NMTAP	31	288	0
NMTAP	31	288	1
EXHLD	32	0	6	48
EXHLD	32	0	7	48
NMHLD	32	96	0	48
NMHLD	32	96	1	48
NMHLD	32	192	2	48
NMHLD	32	192	3	48
NMHLD	32	288	4	48
NMHLD	32	288	5	48
NMTTP	33	0	7	E	0	M1
NMTTP	33	48	6	E	0	M1
NMTTP	33	96	5	E	0	M1
NMTTP	33	144	4	E	0	M1
NMTTP	33	192	3	E	0	M1
NMTTP	33	240	2	E	0	M1
NMTTP	33	288	1	E	0	M1
NMTTP	33	336	0	E	0	M1
NMTTP	34	0	0	C	1	M1
BRTAP	34	288	3
BRTAP	34	288	4
EXHLD	35	0	6	96
NMTAP	35	96	7
NMTAP	35	144	0
NMTAP	35	144	6
NMTAP	35	240	2
NMTAP	35	240	3
NMTAP	35	336	4
NMTAP	35	336	6
NMSTR	36	48	6
NMSCL	36	48	6	96	72	3
NMSTR	36	48	7
NMSCR	36	48	7	96	72	2
NMTAP	36	288	1
NMTAP	36	288	5
NMHLD	37	0	0	96
NMHLD	37	0	6	96
NMTAP	37	144	0
NMTAP	37	144	6
NMTAP	37	240	2
NMTAP	37	240	3
NMTAP	37	336	4
NMTAP	37	336	6
NMSTR	38	48	0
NMSCR	38	48	0	96	144	6
NMTAP	38	48	7
EXTAP	39	0	1
EXTAP	39	0	7
NMTAP	39	96	4
NMTAP	39	96	5
NMTAP	39	144	4
NMTAP	39	144	5
NMTAP	39	240	1
NMTAP	39	240	3
NMHLD	39	336	0	96
NMTAP	40	48	7
NMTAP	40	96	7
NMTAP	40	144	0
NMTAP	40	144	6
NMSTR	40	240	2
NMSI_	40	240	2	96	48	4
NMTAP	40	336	5
NMSTR	41	48	6
NMSI_	41	48	6	96	48	2
NMTAP	41	144	1
NMSTR	41	240	0
NMSI_	41	240	0	96	48	4
NMTAP	41	336	7
NMTAP	42	48	6
NMTAP	42	96	6
NMTAP	42	144	7
NMTAP	42	192	0
NMTAP	42	192	5
NMTAP	42	288	2
NMTAP	42	288	3
EXHLD	43	0	1	96
NMTAP	43	96	0
NMTAP	43	144	1
NMTAP	43	144	7
NMTAP	43	240	4
NMTAP	43	240	5
NMTAP	43	336	1
NMTAP	43	336	3
NMSTR	44	48	0
NMSCL	44	48	0	96	72	5
NMSTR	44	48	1
NMSCR	44	48	1	96	72	4
NMTAP	44	288	2
NMTAP	44	288	6
NMHLD	45	0	1	96
NMHLD	45	0	7	96
NMTAP	45	144	1
NMTAP	45	144	7
NMTAP	45	240	4
NMTAP	45	240	5
NMTAP	45	336	1
NMTAP	45	336	3
NMTAP	46	48	0
NMSTR	46	48	7
NMSCL	46	48	7	96	144	1
EXTAP	47	0	0
EXTAP	47	0	6
NMTAP	47	96	2
NMTAP	47	96	3
NMTAP	47	144	2
NMTAP	47	144	3
NMTAP	47	240	4
NMTAP	47	240	6
NMHLD	47	336	7	96
NMTAP	48	48	0
NMTAP	48	96	0
NMTAP	48	144	1
NMTAP	48	144	7
NMSTR	48	240	5
NMSI_	48	240	5	96	48	3
BXTAP	48	336	2
NMSTR	49	48	1
NMSI_	49	48	1	96	48	5
BXTAP	49	144	6
NMSTR	49	240	7
NMSI_	49	240	7	96	48	3
BXTAP	49	336	0
NMTAP	50	48	2
NMTAP	50	96	2
NMTAP	50	144	4
NMSTR	50	192	0
BRSI_	50	192	0	96	48	4
NMTAP	51	0	5
NMTAP	51	48	4
NMTAP	51	96	6
NMTAP	51	192	2
NMTAP	51	240	3
NMTAP	51	288	1
NMTAP	52	0	7
NMTAP	52	48	7
NMTAP	52	96	0
NMTAP	52	144	0
NMSTR	52	192	6
NMSCL	52	192	6	96	48	3
NMTAP	52	288	2
NMHLD	53	0	2	96
NMTAP	53	96	3
NMHLD	53	192	5	96
NMTAP	53	288	4
NMTAP	54	0	6
NMTAP	54	48	6
NMTAP	54	96	0
NMTAP	54	144	0
NMSTR	54	192	7
NMSI_	54	192	7	96	48	3
NMTAP	55	0	2
NMTAP	55	48	3
NMTAP	55	96	1
NMTAP	55	192	0
NMTAP	55	240	0
NMTAP	55	288	7
NMTAP	55	336	7
NMSTR	56	0	1
NMSCR	56	0	1	96	48	4
NMTAP	56	96	5
NMHLD	56	192	6	96
NMTAP	56	288	7
NMTAP	57	0	5
NMTAP	57	48	4
NMTAP	57	96	6
NMTAP	57	192	7
NMTAP	57	240	7
NMTAP	57	288	0
NMTAP	57	336	0
NMTAP	58	0	6
NMTAP	58	48	5
NMTAP	58	96	3
NMTAP	58	144	2
EXTAP	58	192	0
EXTAP	58	192	1
NMTAP	58	288	3
NMTAP	58	288	4
NMHLD	59	0	6	48
NMHLD	59	0	7	48
NMHLD	59	96	6	48
NMHLD	59	96	7	48
NMHLD	59	192	4	48
NMHLD	59	192	5	48
NMHLD	59	288	4	48
NMHLD	59	288	5	48
NMHLD	60	0	2	48
NMHLD	60	0	3	48
NMHLD	60	96	2	48
NMHLD	60	96	3	48
NMHLD	60	192	0	48
NMHLD	60	192	1	48
NMHLD	60	288	0	48
NMHLD	60	288	1	48
NMSTR	61	0	6
NMSI_	61	0	6	96	48	3
NMSTR	61	96	1
NMSI_	61	96	1	96	48	5
NMSTR	61	192	7
NMSI_	61	192	7	96	48	3
NMSTR	61	288	0
NMSCR	61	288	0	96	192	7
NMTAP	62	288	3
NMTAP	62	288	4
NMHLD	63	0	0	96
NMSTR	63	0	1
NMSI_	63	0	1	96	48	4
NMSTR	63	192	6
NMSI_	63	192	6	96	48	3
NMHLD	63	192	7	96
NMSTR	64	0	0
NMSCR	64	0	0	96	48	3
NMSTR	64	96	7
NMSCL	64	96	7	96	48	4
BXTAP	64	192	0
EXSTR	65	0	3
NMSI_	65	0	3	96	48	1
EXSTR	65	0	4
NMSI_	65	0	4	96	48	0
EXSTR	65	192	3
NMSI_	65	192	3	96	48	7
EXSTR	65	192	4
NMSI_	65	192	4	96	48	6
EXSTR	66	0	3
NMSXR	66	0	3	96	192	0
EXSTR	66	0	4
NMSXL	66	0	4	96	192	7
NMTTP	67	0	0	C	1	M1
NMTTP	67	0	1	B	0	M1
NMTTP	67	0	2	B	0	M1
NMTTP	67	0	2	E	0	M1
NMTTP	67	0	5	B	0	M1
NMTTP	67	0	6	B	0	M1
NMTTP	67	0	6	E	0	M1
NMHLD	69	0	2	192
NMHLD	69	192	3	192
NMHLD	70	0	4	384
NMHLD	71	0	5	192
NMHLD	71	192	4	192
NMHLD	72	0	3	192
NMTAP	72	192	2
NMTAP	73	0	2
NMTAP	73	96	3
NMTAP	73	192	5
NMTAP	73	288	4
NMTAP	74	0	3
NMTAP	74	96	4
NMTAP	74	192	2
NMTAP	74	192	5
BRTAP	74	288	0
BRTAP	74	288	7
EXTAP	75	0	1
EXTAP	75	0	6
NMTAP	75	96	2
NMTAP	75	192	3
NMTAP	75	288	4
EXTAP	75	336	3
EXTAP	75	336	5
EXTAP	76	0	3
EXTAP	76	0	5
NMTAP	76	96	6
NMTAP	76	192	5
NMTAP	76	288	4
EXTAP	77	0	2
EXTAP	77	0	4
NMTAP	77	96	3
NMTAP	77	192	4
NMTAP	77	288	4
NMTAP	77	288	6
EXTAP	77	336	4
EXTAP	77	336	6
EXTAP	78	48	1
EXTAP	78	48	3
EXTAP	78	144	0
EXTAP	78	144	7
EXTAP	78	192	0
EXTAP	78	192	7
EXTAP	78	288	3
EXTAP	78	288	4
EXSTR	79	0	2
NMSCR	79	0	2	96	48	5
EXSTR	79	192	6
NMSCR	79	192	6	96	48	1
EXHLD	80	0	2	48
EXHLD	80	0	3	48
EXHLD	80	96	4	48
EXHLD	80	96	5	48
EXTAP	80	192	0
EXTAP	80	192	7
NMHLD	81	0	6	96
NMHLD	81	96	4	96
NMHLD	81	192	3	96
NMSTR	81	288	1
NMSCR	81	288	1	96	216	7
NMTAP	82	0	7
NMTAP	83	0	0
NMTAP	83	96	0
NMSTR	83	192	0
BRSI_	83	192	0	96	48	4
EXHLD	84	0	6	96
NMTAP	84	96	7
NMTAP	84	144	0
NMTAP	84	144	6
NMSTR	84	240	2
NMSCL	84	240	2	96	48	7
NMTAP	84	240	3
NMTAP	84	336	6
NMTAP	85	48	5
NMTAP	85	96	5
NMTAP	85	144	4
NMTAP	85	240	2
NMTAP	85	240	6
NMTAP	85	288	2
NMTAP	85	288	6
NMHLD	86	0	1	96
NMHLD	86	0	7	96
NMTAP	86	144	1
NMTAP	86	144	7
NMTAP	86	240	4
NMTAP	86	240	5
NMTAP	86	336	1
NMTAP	86	336	3
NMSTR	87	48	7
NMSCL	87	48	7	96	144	1
NMTAP	87	96	7
NMTAP	87	144	0
EXTAP	88	0	0
EXTAP	88	0	6
NMTAP	88	96	2
NMTAP	88	96	3
NMTAP	88	144	2
NMTAP	88	144	3
NMTAP	88	240	4
NMTAP	88	240	6
NMHLD	88	336	1	96
NMTAP	89	48	0
NMTAP	89	96	0
NMTAP	89	144	1
NMTAP	89	144	7
NMSTR	89	240	5
NMSI_	89	240	5	96	48	3
NMTAP	89	288	5
NMTAP	89	336	2
NMSTR	90	48	1
NMSI_	90	48	1	96	48	5
NMTAP	90	96	1
NMTAP	90	144	6
NMSTR	90	240	7
NMSI_	90	240	7	96	48	3
NMTAP	90	288	7
NMTAP	90	336	0
NMTAP	91	48	1
NMTAP	91	96	1
NMTAP	91	144	0
NMTAP	91	192	2
NMTAP	91	192	7
NMTAP	91	288	4
NMTAP	91	288	5
EXHLD	92	0	1	96
NMTAP	92	96	0
NMTAP	92	144	1
NMTAP	92	144	7
NMTAP	92	240	4
NMSTR	92	240	5
NMSCR	92	240	5	96	48	0
NMTAP	92	336	1
NMTAP	93	48	2
NMTAP	93	96	2
NMTAP	93	144	3
NMTAP	93	240	1
NMTAP	93	240	5
NMTAP	93	288	1
NMTAP	93	288	5
NMHLD	94	0	0	96
NMHLD	94	0	6	96
NMTAP	94	144	0
NMTAP	94	144	6
NMTAP	94	240	2
NMTAP	94	240	3
NMTAP	94	336	4
NMTAP	94	336	6
NMSTR	95	48	0
NMSCR	95	48	0	96	144	6
NMTAP	95	96	0
NMTAP	95	144	7
EXTAP	96	0	1
EXTAP	96	0	7
NMTAP	96	96	4
NMTAP	96	96	5
NMTAP	96	144	4
NMTAP	96	144	5
NMTAP	96	240	1
NMSTR	96	240	3
NMSI_	96	240	3	96	48	7
NMTAP	97	48	0
NMTAP	97	96	0
BRTAP	97	144	1
BRTAP	97	144	7
NMTAP	97	240	4
NMTAP	97	240	5
NMTAP	97	288	4
NMTAP	97	288	5
EXTAP	97	336	3
EXTAP	97	336	6
NMTAP	98	48	2
NMTAP	98	48	3
NMTAP	98	96	2
NMTAP	98	96	3
EXTAP	98	144	1
EXTAP	98	144	4
NMTAP	98	240	0
NMTAP	98	240	7
NMTAP	98	288	0
NMTAP	98	288	7
EXTAP	98	336	1
EXTAP	98	336	6
NMTAP	99	48	2
NMTAP	99	96	2
NMTAP	99	144	4
NMTAP	99	192	3
NMSTR	99	240	5
NMSI_	99	240	5	96	48	3
NMTAP	99	288	5
BXTAP	99	336	2
NMSTR	100	48	1
NMSI_	100	48	1	96	48	5
NMTAP	100	96	1
BXTAP	100	144	6
NMSTR	100	240	7
NMSI_	100	240	7	96	48	3
NMTAP	100	288	7
BXTAP	100	336	0
NMTAP	101	48	2
NMTAP	101	96	2
NMTAP	101	144	4
NMSTR	101	192	3
NMSF_	101	192	3	96	48	7

T_REC_TAP	332
T_REC_BRK	8
T_REC_XTP	46
T_REC_HLD	58
T_REC_XHO	10
T_REC_STR	43
T_REC_BST	0
T_REC_XST	10
T_REC_TTP	16
T_REC_THO	0
T_REC_SLD	53
T_REC_ALL	576
T_NUM_TAP	447
T_NUM_BRK	8
T_NUM_HLD	68
T_NUM_SLD	53
T_NUM_ALL	576
T_JUDGE_TAP	455
T_JUDGE_HLD	154
T_JUDGE_SLD	53
T_JUDGE_ALL	662
TTM_EACHPAIRS	143
TTM_SCR_TAP	223500
TTM_SCR_BRK	20800
TTM_SCR_HLD	68000
TTM_SCR_SLD	79500
TTM_SCR_ALL	391800
TTM_SCR_S	379300
TTM_SCR_SS	391000
TTM_RAT_ACV	10020

