VERSION	0.00.00	1.04.00
FES_MODE	0
BPM_DEF	180.000	180.000	180.000	180.000
MET_DEF	4	4
RESOLUTION	384
CLK_DEF	384
COMPATIBLE_CODE	MA2

BPM	0	0	180.000
MET	0	0	4	4

NMTAP	3	0	1
NMTAP	3	192	1
NMTAP	4	0	2
NMTAP	4	192	2
NMTAP	5	0	3
NMTAP	5	192	3
NMTAP	6	0	4
NMTAP	6	0	5
NMTAP	7	0	6
NMTAP	7	192	6
NMTAP	8	0	5
NMTAP	8	192	5
NMTAP	9	0	4
NMTAP	9	192	4
EXTAP	10	0	2
EXTAP	10	0	3
NMTAP	11	0	1
NMTAP	11	96	1
NMTAP	11	192	1
NMTAP	12	0	2
NMTAP	12	96	2
NMTAP	12	192	2
NMTAP	13	0	3
NMTAP	13	0	4
NMTAP	13	96	3
NMTAP	13	96	4
NMHLD	13	192	3	144
NMHLD	13	192	4	144
EXTAP	14	144	3
EXTAP	14	144	4
NMTAP	15	0	5
NMTAP	15	96	5
NMTAP	15	192	5
NMTAP	16	0	4
NMTAP	16	96	4
NMTAP	16	192	4
NMTAP	17	0	3
NMTAP	17	96	3
NMTAP	17	192	3
NMTAP	18	0	2
NMTAP	18	96	2
NMTAP	18	192	2
NMHLD	19	0	1	192
NMHLD	19	192	0	192
NMHLD	20	0	7	192
NMTAP	20	192	6
NMHLD	21	0	6	192
NMHLD	21	192	7	192
NMHLD	22	0	0	192
NMTAP	22	192	1
NMHLD	23	0	1	192
NMHLD	23	192	2	192
NMHLD	24	0	3	192
NMTAP	24	192	4
NMHLD	25	0	6	192
NMHLD	25	192	5	192
NMHLD	26	0	4	192
NMTAP	26	192	3
NMTTP	27	0	1	B	0	L1
NMTTP	27	96	2	B	0	L1
NMTTP	27	192	3	B	0	L1
NMTTP	28	0	6	B	0	L1
NMTTP	28	96	5	B	0	L1
NMTTP	28	192	4	B	0	L1
NMTTP	29	0	0	B	0	L1
NMTTP	29	96	1	B	0	L1
NMTTP	29	192	2	B	0	L1
NMTTP	30	0	7	B	0	L1
NMTTP	30	96	6	B	0	L1
NMTTP	30	192	5	B	0	L1
NMTTP	31	0	1	B	0	L1
NMTTP	31	96	2	B	0	L1
NMTTP	31	192	3	B	0	L1
NMTTP	31	288	4	B	0	L1
NMTTP	32	0	5	B	0	L1
NMTTP	32	96	6	B	0	L1
NMTTP	32	192	0	B	0	L1
NMTTP	32	192	7	B	0	L1
NMTTP	33	0	2	B	0	L1
NMTTP	33	96	3	B	0	L1
NMTTP	33	192	4	B	0	L1
NMTTP	33	288	5	B	0	L1
NMTTP	34	0	0	C	1	L1
NMTAP	35	0	1
NMTAP	35	96	1
NMTAP	35	192	2
NMTAP	35	288	2
NMTAP	36	0	3
NMTAP	36	96	3
NMTAP	36	192	4
NMTAP	36	192	5
NMTAP	37	0	6
NMTAP	37	96	6
NMTAP	37	192	5
NMTAP	37	288	5
NMTAP	38	0	4
NMTAP	38	96	4
NMTAP	38	192	2
NMTAP	38	192	3
NMTAP	39	0	2
NMTAP	39	96	2
NMTAP	39	192	1
NMTAP	39	288	1
NMTAP	40	0	0
NMTAP	40	0	1
NMTAP	40	96	0
NMTAP	40	96	1
NMHLD	40	192	0	144
NMHLD	40	192	1	144
EXTAP	41	144	0
EXTAP	41	144	1
EXSTR	41	336	0
NMSI_	41	336	0	96	144	5
EXSTR	41	336	1
NMSI_	41	336	1	96	144	4
NMTAP	43	0	6
NMTAP	43	96	6
NMTAP	43	192	7
NMTAP	43	288	7
NMTAP	44	0	0
NMTAP	44	96	0
NMTAP	44	192	0
NMTAP	44	192	1
NMTAP	45	0	2
NMTAP	45	96	2
NMTAP	45	192	1
NMTAP	45	288	1
NMTAP	46	0	0
NMTAP	46	96	0
NMTAP	46	192	6
NMTAP	46	192	7
NMTAP	47	0	5
NMTAP	47	96	5
NMTAP	47	192	6
NMTAP	47	288	6
NMTAP	48	0	6
NMTAP	48	0	7
NMTAP	48	96	6
NMTAP	48	96	7
NMHLD	48	192	6	144
NMHLD	48	192	7	144
EXTAP	49	144	6
EXTAP	49	144	7
EXSTR	49	336	6
NMSI_	49	336	6	96	144	3
EXSTR	49	336	7
NMSI_	49	336	7	96	144	2
NMTAP	51	0	1
NMTAP	51	96	1
NMTAP	51	192	1
NMTAP	51	288	0
NMTAP	51	288	1
NMTAP	52	0	2
NMTAP	52	96	2
NMTAP	52	192	2
NMTAP	52	288	2
NMTAP	52	288	3
NMTAP	53	0	4
NMTAP	53	96	4
NMTAP	53	192	4
NMTAP	53	288	4
NMTAP	53	288	5
NMTAP	54	0	6
NMTAP	54	96	6
NMTAP	54	192	0
NMTAP	54	192	7
NMTAP	55	0	6
NMTAP	55	96	6
NMTAP	55	192	6
NMTAP	55	288	6
NMTAP	55	288	7
NMTAP	56	0	5
NMTAP	56	96	5
NMTAP	56	192	5
NMTAP	56	288	4
NMTAP	56	288	5
NMTAP	57	0	3
NMTAP	57	96	3
NMTAP	57	192	3
NMTAP	57	288	2
NMTAP	57	288	3
NMTAP	58	0	1
NMTAP	58	96	1
NMTAP	58	192	0
NMTAP	58	192	7
NMTAP	59	0	0
NMTAP	59	96	1
NMTAP	59	192	2
NMTAP	59	288	3
NMTAP	60	0	4
NMTAP	60	96	5
NMTAP	60	192	6
NMTAP	60	192	7
NMTAP	61	0	7
NMTAP	61	96	6
NMTAP	61	192	5
NMTAP	61	288	4
NMTAP	62	0	3
NMTAP	62	96	2
NMTAP	62	192	0
NMTAP	62	192	1
NMTAP	63	0	2
NMTAP	63	0	3
NMTAP	63	192	4
NMTAP	63	192	5
NMTAP	64	0	6
NMTAP	64	0	7
NMTAP	64	96	6
NMTAP	64	96	7
NMTAP	64	192	6
NMTAP	64	192	7
NMTAP	65	0	4
NMTAP	65	0	5
NMTAP	65	192	2
NMTAP	65	192	3
BRTAP	66	0	0
BRTAP	66	0	1
NMSTR	67	0	1
NMSCR	67	0	1	96	192	4
NMSTR	68	0	5
NMSI_	68	0	5	96	192	2
NMSTR	69	0	1
NMSCR	69	0	1	96	192	4
NMTAP	70	0	5
NMTAP	70	192	4
NMTAP	70	192	5
NMSTR	71	0	6
NMSCL	71	0	6	96	192	3
NMSTR	72	0	2
NMSI_	72	0	2	96	192	5
NMSTR	73	0	6
NMSCL	73	0	6	96	192	3
NMTAP	74	0	2
NMTAP	74	192	2
NMTAP	74	192	3
NMTTP	75	0	0	B	0	L1
NMTTP	75	96	1	B	0	L1
NMTTP	75	192	2	B	0	L1
NMTTP	75	192	3	B	0	L1
NMTTP	76	0	7	B	0	L1
NMTTP	76	96	6	B	0	L1
NMTTP	76	192	4	B	0	L1
NMTTP	76	192	5	B	0	L1
NMTTP	77	0	1	B	0	L1
NMTTP	77	96	2	B	0	L1
NMTTP	77	192	3	B	0	L1
NMTTP	77	288	4	B	0	L1
NMTTP	78	0	5	B	0	L1
NMTTP	78	96	6	B	0	L1
NMTTP	78	192	0	B	0	L1
NMTTP	78	192	7	B	0	L1
NMTTP	79	0	2	B	0	L1
NMTTP	79	0	3	B	0	L1
NMTTP	79	192	4	B	0	L1
NMTTP	79	192	5	B	0	L1
NMTTP	80	0	6	B	0	L1
NMTTP	80	0	7	B	0	L1
NMTTP	80	192	0	B	0	L1
NMTTP	80	192	1	B	0	L1
NMTTP	81	0	2	B	0	L1
NMTTP	81	96	3	B	0	L1
NMTTP	81	192	4	B	0	L1
NMTTP	81	288	5	B	0	L1
NMTHO	82	0	0	384	C	1	L1
NMTAP	84	0	1
NMTAP	84	96	1
NMTAP	84	192	2
NMTAP	84	192	3
NMTAP	84	288	2
NMTAP	84	288	3
NMTAP	85	0	4
NMTAP	85	96	4
NMTAP	85	192	4
NMTAP	85	192	5
NMTAP	86	0	6
NMTAP	86	96	6
NMTAP	86	192	4
NMTAP	86	192	5
NMTAP	86	288	4
NMTAP	86	288	5
NMTAP	87	0	3
NMTAP	87	96	3
NMTAP	87	192	2
NMTAP	87	192	3
NMTAP	88	0	2
NMTAP	88	96	2
NMTAP	88	192	1
NMTAP	88	288	1
NMTAP	89	0	0
NMTAP	89	0	7
NMTAP	89	96	0
NMTAP	89	96	7
NMHLD	89	192	0	144
NMHLD	89	192	7	144
EXTAP	90	144	0
EXTAP	90	144	7
EXSTR	90	336	0
NMSI_	90	336	0	96	144	3
EXSTR	90	336	7
NMSI_	90	336	7	96	144	4
NMTAP	92	0	5
NMTAP	92	96	5
NMTAP	92	192	6
NMTAP	92	192	7
NMTAP	92	288	6
NMTAP	92	288	7
NMTAP	93	0	0
NMTAP	93	96	0
NMTAP	93	192	0
NMTAP	93	192	1
NMTAP	94	0	2
NMTAP	94	96	2
NMTAP	94	192	0
NMTAP	94	192	1
NMTAP	94	288	0
NMTAP	94	288	1
NMTAP	95	0	7
NMTAP	95	96	7
NMTAP	95	192	6
NMTAP	95	192	7
NMTAP	96	0	5
NMTAP	96	96	5
NMTAP	96	192	6
NMTAP	96	288	6
NMTAP	97	0	6
NMTAP	97	0	7
NMTAP	97	96	6
NMTAP	97	96	7
NMHLD	97	192	6	144
NMHLD	97	192	7	144
EXTAP	98	144	6
EXTAP	98	144	7
EXSTR	98	336	6
NMSI_	98	336	6	96	144	3
EXSTR	98	336	7
NMSI_	98	336	7	96	144	2
EXTAP	99	336	0
EXTAP	99	336	1
EXTAP	100	144	0
EXTAP	100	144	1
EXSTR	100	336	0
NMSI_	100	336	0	96	144	5
EXSTR	100	336	1
NMSI_	100	336	1	96	144	4

T_REC_TAP	218
T_REC_BRK	2
T_REC_XTP	16
T_REC_BXX	0
T_REC_HLD	22
T_REC_XHO	0
T_REC_BHO	0
T_REC_BXH	0
T_REC_STR	6
T_REC_BST	0
T_REC_XST	10
T_REC_XBS	0
T_REC_TTP	53
T_REC_THO	1
T_REC_SLD	16
T_REC_BSL	0
T_REC_ALL	344
T_NUM_TAP	303
T_NUM_BRK	2
T_NUM_HLD	23
T_NUM_SLD	16
T_NUM_ALL	344
T_JUDGE_TAP	305
T_JUDGE_HLD	86
T_JUDGE_SLD	16
T_JUDGE_ALL	407
TTM_EACHPAIRS	65
TTM_SCR_TAP	151500
TTM_SCR_BRK	5200
TTM_SCR_HLD	23000
TTM_SCR_SLD	24000
TTM_SCR_ALL	203700
TTM_SCR_S	197400
TTM_SCR_SS	203500
TTM_RAT_ACV	10009

