VERSION	0.00.00	1.04.00
FES_MODE	0
BPM_DEF	115.000	115.000	115.000	115.000
MET_DEF	4	4
RESOLUTION	384
CLK_DEF	384
COMPATIBLE_CODE	MA2

BPM	0	0	115.000
MET	0	0	4	4

NMHLD	4	0	3	288
NMHLD	4	0	4	288
NMTAP	5	0	2
NMSTR	5	0	3
NMSCL	5	0	3	96	48	1
NMSTR	5	192	4
NMSCR	5	192	4	96	48	6
NMTAP	5	192	5
NMTAP	6	0	2
NMSTR	6	0	3
NMSCL	6	0	3	96	48	1
NMTAP	6	192	3
NMTAP	6	192	4
NMTAP	6	288	3
NMTAP	6	288	4
NMSTR	7	0	4
NMSCR	7	0	4	96	48	6
NMTAP	7	0	5
NMTAP	7	192	2
NMSTR	7	192	3
NMSCL	7	192	3	96	48	1
NMSTR	8	0	4
NMSCR	8	0	4	96	48	6
NMTAP	8	0	5
NMTAP	8	192	3
NMTAP	8	192	4
NMTAP	8	288	3
NMTAP	8	288	4
NMTAP	9	0	2
NMSTR	9	0	3
NMSCL	9	0	3	96	48	1
NMSTR	9	192	4
NMSCR	9	192	4	96	48	6
NMTAP	9	192	5
NMTAP	10	0	2
NMSTR	10	0	3
NMSCL	10	0	3	96	48	1
NMTAP	10	192	3
NMTAP	10	192	4
NMTAP	10	288	3
NMTAP	10	288	4
NMSTR	11	0	4
NMSCR	11	0	4	96	48	6
NMTAP	11	0	5
NMTAP	11	192	2
NMTAP	11	192	4
NMSTR	11	288	1
NMSCR	11	288	1	96	96	4
NMSTR	11	288	5
NMSCR	11	288	5	96	96	0
NMSTR	12	288	1
NMSCR	12	288	1	96	48	4
NMSTR	12	288	4
NMSCR	12	288	4	96	48	7
NMTAP	13	0	1
NMTAP	13	0	4
NMSTR	13	96	3
NMSCL	13	96	3	96	48	0
NMSTR	13	96	6
NMSCL	13	96	6	96	48	3
NMTAP	13	192	3
NMTAP	13	192	6
NMTAP	13	288	1
NMSTR	13	288	4
NMSI_	13	288	4	96	48	7
NMTAP	14	0	3
NMSTR	14	0	4
NMSI_	14	0	4	96	48	1
NMSTR	14	96	4
NMSI_	14	96	4	96	48	7
NMTAP	14	96	5
NMTAP	14	192	3
NMTAP	14	192	4
NMSTR	14	288	3
NMSCL	14	288	3	96	48	0
NMSTR	14	288	6
NMSCL	14	288	6	96	48	3
NMTAP	15	0	3
NMTAP	15	0	6
NMSTR	15	96	1
NMSCR	15	96	1	96	48	4
NMSTR	15	96	4
NMSCR	15	96	4	96	48	7
NMTAP	15	192	1
NMSTR	15	192	4
NMSI_	15	192	4	96	48	0
NMSTR	15	288	3
NMSI_	15	288	3	96	48	7
NMTAP	15	288	4
NMTAP	16	0	3
NMSTR	16	0	4
BRSXL	16	0	4	96	96	5
BRSXR	16	0	4	96	96	3
NMSTR	16	288	3
NMSCL	16	288	3	96	48	0
NMSTR	16	288	6
NMSCL	16	288	6	96	48	3
NMTAP	17	0	3
NMTAP	17	0	6
NMSTR	17	96	1
NMSCR	17	96	1	96	48	4
NMSTR	17	96	4
NMSCR	17	96	4	96	48	7
NMTAP	17	192	1
NMTAP	17	192	4
NMSTR	17	288	3
NMSI_	17	288	3	96	48	0
NMTAP	17	288	6
NMSTR	18	0	3
NMSI_	18	0	3	96	48	6
NMTAP	18	0	4
NMTAP	18	96	2
NMSTR	18	96	3
NMSI_	18	96	3	96	48	0
NMTAP	18	192	3
NMTAP	18	192	4
NMSTR	18	288	1
NMSCR	18	288	1	96	48	4
NMSTR	18	288	4
NMSCR	18	288	4	96	48	7
NMTAP	19	0	1
NMTAP	19	0	4
NMSTR	19	96	3
NMSCL	19	96	3	96	48	0
NMSTR	19	96	6
NMSCL	19	96	6	96	48	3
NMTAP	19	192	3
NMTAP	19	192	6
NMSTR	19	288	1
NMSI_	19	288	1	96	48	3
NMSTR	19	288	4
NMSI_	19	288	4	96	48	0
NMTAP	20	0	1
NMTAP	20	0	4
NMSTR	20	96	3
NMSI_	20	96	3	96	48	7
NMSTR	20	96	6
NMSI_	20	96	6	96	48	4
NMTAP	20	192	3
NMTAP	20	192	6
NMSTR	20	288	1
NMSCR	20	288	1	96	288	7
NMTAP	20	288	4
NMTTP	21	0	0	B	0	M1
NMTTP	21	0	0	C	1	M1
NMTTP	21	0	7	B	0	M1
CNSUR	21	288	7	0	192	0
NMTAP	22	288	3
NMSTR	22	288	6
NMSCL	22	288	6	96	288	0
CNSUL	23	288	0	0	192	7
NMTAP	24	288	3
NMSTR	24	288	5
NMSI_	24	288	5	96	96	2
CNSCL	25	96	2	0	96	6
NMSTR	25	288	2
NMSI_	25	288	2	96	96	5
NMTAP	25	288	4
CNSCR	26	96	5	0	96	1
NMTAP	26	288	3
NMSTR	26	288	5
NMSI_	26	288	5	96	96	0
CNSUR	27	96	0	0	96	4
NMSTR	27	288	2
NMSI_	27	288	2	96	96	7
NMTAP	27	288	4
CNSUL	28	96	7	0	96	3
NMTAP	28	288	2
NMSTR	28	288	3
NMSI_	28	288	3	96	48	1
NMTAP	29	0	3
NMTAP	29	0	5
NMSTR	29	96	3
NMSI_	29	96	3	96	48	5
NMTAP	29	96	4
NMTAP	29	192	1
NMTAP	29	192	3
NMTAP	29	288	2
NMSTR	29	288	3
NMSI_	29	288	3	96	48	1
NMTAP	30	0	3
NMTAP	30	0	5
NMTAP	30	96	2
NMSTR	30	96	4
NMSCR	30	96	4	96	48	6
NMTAP	30	192	3
NMTAP	30	192	4
NMSTR	30	288	4
NMSI_	30	288	4	96	48	6
NMTAP	30	288	5
NMTAP	31	0	2
NMTAP	31	0	4
NMTAP	31	96	3
NMSTR	31	96	4
NMSI_	31	96	4	96	48	2
NMTAP	31	192	4
NMTAP	31	192	6
NMSTR	31	288	4
NMSI_	31	288	4	96	48	6
NMTAP	31	288	5
NMTAP	32	0	2
NMTAP	32	0	4
NMSTR	32	96	3
NMSCL	32	96	3	96	48	1
NMTAP	32	96	5
NMTAP	32	192	3
NMTAP	32	192	4
NMTAP	32	288	2
NMSTR	32	288	3
NMSI_	32	288	3	96	48	1
NMTAP	33	0	3
NMTAP	33	0	5
NMSTR	33	96	3
NMSI_	33	96	3	96	48	5
NMTAP	33	96	4
NMTAP	33	192	1
NMTAP	33	192	3
NMTAP	33	288	2
NMSTR	33	288	3
NMSI_	33	288	3	96	48	1
NMTAP	34	0	3
NMTAP	34	0	5
NMTAP	34	96	2
NMSTR	34	96	4
NMSCR	34	96	4	96	48	6
NMTAP	34	192	3
NMTAP	34	192	4
NMSTR	34	288	4
NMSI_	34	288	4	96	48	6
NMTAP	34	288	5
NMTAP	35	0	2
NMTAP	35	0	4
NMTAP	35	96	3
NMTAP	35	96	4
NMSTR	35	192	3
NMSI_	35	192	3	96	48	5
NMTAP	35	192	4
NMTAP	35	288	1
NMSTR	35	288	3
NMSI_	35	288	3	96	48	1
NMSTR	36	0	3
NMSI_	36	0	3	96	48	6
NMTAP	36	0	5
NMTAP	36	96	1
NMSTR	36	96	3
NMSI_	36	96	3	96	48	0
NMTAP	36	192	3
NMTAP	36	192	6
BRSTR	36	288	0
NMSCR	36	288	0	96	48	3
BRTAP	36	288	6
NMTAP	37	0	0
NMSTR	37	0	5
NMSCR	37	0	5	96	48	0
NMSTR	37	96	2
NMSI_	37	96	2	96	48	5
NMTAP	37	96	5
NMTAP	37	192	2
NMTAP	37	192	7
NMSTR	37	288	6
NMSCL	37	288	6	96	48	4
NMSTR	37	288	7
NMSUL	37	288	7	96	48	3
NMSTR	38	0	6
NMSUR	38	0	6	96	48	2
NMSTR	38	0	7
NMSCR	38	0	7	96	48	1
NMSTR	38	96	6
NMSCL	38	96	6	96	48	4
NMSTR	38	96	7
NMSUL	38	96	7	96	48	3
NMTAP	38	192	6
NMTAP	38	192	7
NMTAP	38	288	0
NMSTR	38	288	1
NMSCR	38	288	1	96	48	4
NMTAP	39	0	1
NMSTR	39	0	6
NMSCR	39	0	6	96	48	1
NMSTR	39	96	3
NMSCR	39	96	3	96	48	6
NMTAP	39	96	6
NMTAP	39	192	0
NMSTR	39	192	3
NMSI_	39	192	3	96	48	0
NMTAP	39	288	3
NMSTR	39	288	4
NMSI_	39	288	4	96	48	7
NMSTR	40	0	3
BRSV_	40	0	3	96	48	2
BRSV_	40	0	3	96	48	4
NMTAP	40	0	4
CNSI_	40	144	2	0	48	0
CNSI_	40	144	4	0	48	6
NMTAP	40	288	1
NMSTR	40	288	7
NMSCL	40	288	7	96	48	4
NMSTR	41	0	2
NMSCL	41	0	2	96	48	7
NMTAP	41	0	7
NMTAP	41	96	2
NMSTR	41	96	5
NMSI_	41	96	5	96	48	2
NMTAP	41	192	0
NMTAP	41	192	5
NMSTR	41	288	0
NMSUR	41	288	0	96	48	4
NMSTR	41	288	1
NMSCR	41	288	1	96	48	3
NMSTR	42	0	0
NMSCL	42	0	0	96	48	6
NMSTR	42	0	1
NMSUL	42	0	1	96	48	5
NMSTR	42	96	0
NMSUR	42	96	0	96	48	4
NMSTR	42	96	1
NMSCR	42	96	1	96	48	3
NMTAP	42	192	0
NMTAP	42	192	1
NMSTR	42	288	6
NMSCL	42	288	6	96	48	3
NMTAP	42	288	7
NMSTR	43	0	1
NMSCL	43	0	1	96	48	6
NMTAP	43	0	6
NMTAP	43	96	1
NMSTR	43	96	4
NMSCL	43	96	4	96	48	1
NMTAP	43	192	4
NMTAP	43	192	7
NMSTR	43	288	1
NMSCR	43	288	1	96	48	4
NMSTR	43	288	5
NMSCR	43	288	5	96	48	0
NMTAP	44	0	1
NMTAP	44	0	5
NMSTR	44	96	3
NMSCL	44	96	3	96	48	0
NMSTR	44	96	7
NMSCL	44	96	7	96	48	4
NMTAP	44	192	3
NMTAP	44	192	7
NMTAP	44	288	1
NMTAP	44	288	5
NMSTR	45	0	2
NMSI_	45	0	2	96	48	4
NMHLD	45	0	3	96
NMSTR	45	192	2
NMSI_	45	192	2	96	48	4
NMHLD	45	192	3	96
NMSTR	46	0	2
NMSI_	46	0	2	96	48	4
NMHLD	46	0	3	288
CNSI_	46	144	4	0	48	1
NMHLD	47	0	4	96
NMSTR	47	0	5
NMSI_	47	0	5	96	48	3
NMHLD	47	192	4	96
NMHLD	47	192	5	96
NMHLD	48	0	4	288
NMSTR	48	0	5
NMSCL	48	0	5	96	144	0
NMSTR	49	0	2
NMSI_	49	0	2	96	48	4
NMHLD	49	0	3	96
NMSTR	49	192	2
NMSI_	49	192	2	96	48	4
NMHLD	49	192	3	96
NMSTR	50	0	2
NMSI_	50	0	2	96	48	4
NMHLD	50	0	3	288
CNSI_	50	144	4	0	48	1
NMHLD	51	0	4	96
NMSTR	51	0	5
NMSI_	51	0	5	96	48	3
NMHLD	51	192	4	96
NMHLD	51	192	5	96
NMTTP	52	0	3	A	0	M1
NMTTP	52	0	4	E	0	M1
NMTTP	52	0	4	A	0	M1
NMTTP	52	96	0	C	0	M1
NMTTP	52	96	2	B	0	M1
NMTTP	52	96	2	A	0	M1
NMTTP	52	96	5	B	0	M1
NMTTP	52	96	5	A	0	M1
NMTTP	52	192	0	A	0	M1
NMTTP	52	192	0	D	1	M1
NMTTP	52	192	7	A	0	M1
BRSTR	52	288	1
NMSCR	52	288	1	96	48	3
BRSTR	52	288	6
NMSCL	52	288	6	96	48	4
NMSTR	53	0	1
NMSI_	53	0	1	96	48	5
NMTAP	53	0	6
NMTAP	53	96	1
NMSTR	53	96	7
NMSCL	53	96	7	96	48	4
NMTAP	53	192	3
NMSTR	53	192	7
NMSCR	53	192	7	96	48	2
NMSTR	53	288	4
NMSXL	53	288	4	96	48	6
NMTAP	53	288	7
NMTAP	54	0	1
NMSTR	54	0	4
NMSXR	54	0	4	96	48	2
NMTAP	54	96	4
NMSTR	54	96	6
NMSCL	54	96	6	96	48	3
NMTAP	54	192	0
NMTAP	54	192	6
NMSTR	54	288	1
NMSCR	54	288	1	96	48	3
NMTAP	54	288	4
NMTAP	55	0	1
NMSTR	55	0	7
NMSI_	55	0	7	96	48	3
NMSTR	55	96	0
NMSXL	55	96	0	96	48	2
NMTAP	55	96	7
NMSTR	55	192	0
NMSXR	55	192	0	96	48	6
NMTAP	55	192	4
NMTAP	55	288	0
NMSTR	55	288	3
NMSCL	55	288	3	96	48	0
NMTAP	56	0	3
NMSTR	56	0	7
BRSI_	56	0	7	96	48	1
BRSI_	56	0	7	96	48	5
CNSV_	56	144	1	0	48	3
CNSV_	56	144	5	0	48	3
NMSTR	56	288	1
NMSCR	56	288	1	96	48	3
NMSTR	56	288	6
NMSCL	56	288	6	96	48	4
NMSTR	57	0	1
NMSI_	57	0	1	96	48	5
NMTAP	57	0	6
NMTAP	57	96	1
NMSTR	57	96	7
NMSCL	57	96	7	96	48	4
NMTAP	57	192	3
NMSTR	57	192	7
NMSCR	57	192	7	96	48	2
NMSTR	57	288	4
NMSXL	57	288	4	96	48	6
NMTAP	57	288	7
NMTAP	58	0	1
NMSTR	58	0	4
NMSXR	58	0	4	96	48	2
NMTAP	58	96	4
NMSTR	58	96	6
NMSCL	58	96	6	96	48	3
NMTAP	58	192	0
NMTAP	58	192	6
NMSTR	58	288	1
NMSCR	58	288	1	96	48	4
NMSTR	58	288	4
NMSI_	58	288	4	96	48	7
NMTAP	59	0	1
NMTAP	59	0	4
NMSTR	59	96	3
NMSI_	59	96	3	96	48	0
NMSTR	59	96	6
NMSCL	59	96	6	96	48	3
NMTAP	59	192	3
NMTAP	59	192	6
NMSTR	59	288	1
NMSV_	59	288	1	96	48	3
NMSTR	59	288	4
NMSV_	59	288	4	96	48	2
NMTAP	60	0	1
NMSTR	60	0	4
NMSI_	60	0	4	96	48	7
NMSTR	60	96	1
NMSV_	60	96	1	96	48	3
NMSTR	60	96	4
NMSV_	60	96	4	96	48	2
NMTAP	60	192	1
NMTAP	60	192	4
NMSTR	60	288	1
NMSCR	60	288	1	96	48	3
NMSTR	60	288	6
NMSCL	60	288	6	96	48	4
BRTAP	61	0	1
BRSTR	61	0	6
NMSCR	61	0	6	96	48	0
NMSTR	61	96	4
NMSI_	61	96	4	96	48	7
NMTAP	61	96	6
NMSTR	61	192	3
NMSI_	61	192	3	96	48	0
NMTAP	61	192	4
NMSTR	61	288	2
NMSI_	61	288	2	96	48	4
NMTAP	61	288	3
NMSTR	62	0	2
NMSI_	62	0	2	96	48	0
NMTAP	62	0	7
NMTAP	62	96	2
NMSTR	62	96	6
NMSI_	62	96	6	96	48	4
NMTAP	62	192	0
NMSTR	62	192	6
NMSI_	62	192	6	96	48	0
NMSTR	62	288	3
NMSXR	62	288	3	96	48	1
NMTAP	62	288	6
NMSTR	63	0	3
NMSXL	63	0	3	96	48	5
NMTAP	63	0	7
NMTAP	63	96	2
NMSTR	63	96	3
NMSI_	63	96	3	96	48	7
NMSTR	63	192	3
NMSF_	63	192	3	96	48	7
NMTAP	63	192	4
NMSTR	64	0	0
BRSI_	64	0	0	96	72	3
NMSTR	64	0	6
BRSI_	64	0	6	96	48	3
CNSXL	64	144	3	0	48	5
CNSXR	64	168	3	0	24	1
NMSTR	64	288	1
NMSCR	64	288	1	96	48	3
NMSTR	64	288	5
NMSCL	64	288	5	96	48	3
NMSTR	65	0	1
NMSCL	65	0	1	96	48	7
NMTAP	65	0	5
NMTAP	65	96	1
NMSTR	65	96	3
NMSI_	65	96	3	96	48	0
NMTAP	65	192	3
NMSTR	65	192	4
NMSI_	65	192	4	96	48	7
NMTAP	65	288	4
NMSTR	65	288	5
NMSI_	65	288	5	96	48	3
NMTAP	66	0	0
NMSTR	66	0	5
NMSI_	66	0	5	96	48	7
NMSTR	66	96	1
NMSI_	66	96	1	96	48	3
NMTAP	66	96	5
NMSTR	66	192	1
NMSI_	66	192	1	96	48	7
NMTAP	66	192	7
NMTAP	66	288	1
NMSTR	66	288	4
NMSV_	66	288	4	96	48	7
NMSTR	67	0	3
NMSCL	67	0	3	96	48	0
NMTAP	67	0	4
NMTAP	67	96	3
NMSTR	67	96	7
NMSCL	67	96	7	96	48	4
NMSTR	67	192	0
NMSV_	67	192	0	96	48	3
NMTAP	67	192	7
NMSTR	67	288	0
NMSCL	67	288	0	96	48	5
NMTAP	67	288	6
NMSTR	68	0	0
NMSCR	68	0	0	96	48	3
NMTAP	68	0	2
NMTAP	68	96	0
NMSTR	68	96	7
NMSCL	68	96	7	96	48	4
NMTAP	68	192	1
NMSTR	68	192	7
NMSCR	68	192	7	96	48	2
NMSTR	68	288	5
NMSUL	68	288	5	96	288	2
NMTAP	68	288	7

T_REC_TAP	193
T_REC_BRK	2
T_REC_XTP	0
T_REC_BXX	0
T_REC_HLD	15
T_REC_XHO	0
T_REC_BHO	0
T_REC_BXH	0
T_REC_STR	164
T_REC_BST	4
T_REC_XST	0
T_REC_XBS	0
T_REC_TTP	14
T_REC_THO	0
T_REC_SLD	163
T_REC_BSL	8
T_REC_ALL	563
T_NUM_TAP	371
T_NUM_BRK	14
T_NUM_HLD	15
T_NUM_SLD	163
T_NUM_ALL	563
T_JUDGE_TAP	377
T_JUDGE_HLD	100
T_JUDGE_SLD	171
T_JUDGE_ALL	648
TTM_EACHPAIRS	189
TTM_SCR_TAP	185500
TTM_SCR_BRK	36400
TTM_SCR_HLD	15000
TTM_SCR_SLD	244500
TTM_SCR_ALL	481400
TTM_SCR_S	465600
TTM_SCR_SS	480000
TTM_RAT_ACV	10029

