VERSION	0.00.00	1.04.00
FES_MODE	0
BPM_DEF	115.000	115.000	115.000	115.000
MET_DEF	4	4
RESOLUTION	384
CLK_DEF	384
COMPATIBLE_CODE	MA2

BPM	0	0	115.000
MET	0	0	4	4

NMSTR	4	0	0
NMSUL	4	0	0	96	144	3
NMSTR	4	0	7
NMSUR	4	0	7	96	144	4
EXTAP	4	288	3
EXTAP	4	288	4
BXTAP	5	0	1
BXTAP	5	0	6
NMTAP	5	96	3
NMTAP	5	144	2
NMTAP	5	144	4
NMTAP	5	240	3
NMTAP	5	240	5
NMTAP	5	336	2
NMTAP	5	336	4
NMTAP	6	48	0
NMTAP	6	48	1
NMTAP	6	144	4
NMTAP	6	144	6
NMTAP	6	240	2
NMTAP	6	240	3
EXTAP	6	336	4
EXTAP	6	336	5
EXTAP	7	0	4
EXTAP	7	0	5
NMTAP	7	96	3
NMTAP	7	144	2
NMTAP	7	144	4
NMTAP	7	240	3
NMTAP	7	240	5
NMTAP	7	336	2
NMTAP	7	336	4
NMTAP	8	48	0
NMTAP	8	48	1
NMTAP	8	144	4
NMTAP	8	144	6
NMTAP	8	240	2
NMTAP	8	240	3
EXTAP	8	336	0
EXTAP	8	336	6
EXTAP	9	0	0
EXTAP	9	0	6
NMTAP	9	96	4
NMTAP	9	144	3
NMTAP	9	144	5
NMTAP	9	240	2
NMTAP	9	240	4
NMTAP	9	336	3
NMTAP	9	336	5
NMTAP	10	48	6
NMTAP	10	48	7
NMTAP	10	144	1
NMTAP	10	144	3
NMTAP	10	240	4
NMTAP	10	240	5
EXTAP	10	336	2
EXTAP	10	336	3
EXTAP	11	0	2
EXTAP	11	0	3
NMTAP	11	96	4
NMTAP	11	144	3
NMTAP	11	144	5
NMTAP	11	240	1
NMTAP	11	240	7
NMTAP	11	336	2
NMTAP	11	336	5
NMSTR	12	0	2
NMSUL	12	0	2	96	96	5
NMTAP	12	0	5
BRTAP	12	288	3
BRTAP	12	288	4
EXTAP	13	0	1
EXTAP	13	0	6
NMTAP	13	96	2
NMTAP	13	96	3
NMTAP	13	144	4
NMTAP	13	192	3
NMHLD	13	192	5	96
NMTAP	13	288	7
NMSTR	14	0	6
NMSI_	14	0	6	96	48	3
NMHLD	14	0	7	96
NMHLD	14	192	0	96
NMSTR	14	192	1
NMSI_	14	192	1	96	48	4
NMTAP	15	0	3
NMTAP	15	0	5
NMTAP	15	96	6
NMTAP	15	96	7
NMTAP	15	144	0
NMHLD	15	192	1	96
NMTAP	15	192	7
NMTAP	15	288	3
NMTAP	16	0	2
NMTAP	16	0	4
NMSTR	16	96	1
NMSCL	16	96	1	96	48	7
NMSTR	16	96	5
NMSCL	16	96	5	96	48	3
EXTAP	16	288	0
NMTAP	17	0	1
NMTAP	17	0	6
NMTAP	17	96	2
NMTAP	17	96	3
NMTAP	17	144	4
NMTAP	17	192	3
NMHLD	17	192	5	96
NMTAP	17	288	7
NMSTR	18	0	6
NMSI_	18	0	6	96	48	3
NMHLD	18	0	7	96
NMHLD	18	192	0	96
NMSTR	18	192	1
NMSI_	18	192	1	96	48	4
NMHLD	19	0	5	96
NMHLD	19	96	4	96
NMTAP	19	192	3
NMTAP	19	240	2
NMTAP	19	288	1
NMHLD	19	288	3	96
NMTAP	20	0	4
NMTAP	20	48	5
NMHLD	20	96	4	96
NMTAP	20	96	6
NMTAP	20	192	7
BRTAP	20	288	0
BRTAP	20	288	6
NMSTR	21	0	2
NMSUR	21	0	2	96	288	4
NMTTP	22	0	5	B	0	M1
NMTTP	22	96	6	E	0	M1
NMTTP	22	192	3	B	0	M1
NMTTP	22	192	6	A	0	M1
NMSTR	23	0	5
NMSUL	23	0	5	96	288	3
NMTTP	24	0	2	B	0	M1
NMTTP	24	96	2	E	0	M1
NMTTP	24	192	1	A	0	M1
NMTTP	24	192	4	B	0	M1
NMSTR	25	0	2
NMSXR	25	0	2	96	288	3
NMTTP	26	0	5	B	0	M1
NMTTP	26	96	6	B	0	M1
NMTTP	26	192	4	A	0	M1
NMTTP	26	192	7	A	0	M1
NMSTR	27	0	5
NMSXL	27	0	5	96	288	4
NMTTP	28	0	2	B	0	M1
NMTTP	28	96	1	B	0	M1
NMTTP	28	192	0	A	0	M1
NMTTP	28	192	3	A	0	M1
NMHLD	29	0	5	768
NMSTR	29	96	4
NMSI_	29	96	4	96	48	6
NMTAP	29	288	4
NMSTR	30	96	4
NMSI_	30	96	4	96	48	6
NMTAP	30	288	4
NMHLD	31	0	2	768
NMSTR	31	96	3
NMSI_	31	96	3	96	48	1
NMTAP	31	288	3
NMSTR	32	96	3
NMSI_	32	96	3	96	48	1
NMTAP	32	288	3
NMHLD	33	0	5	768
NMSTR	33	96	4
NMSI_	33	96	4	96	48	6
NMTAP	33	288	4
NMSTR	34	96	4
NMSI_	34	96	4	96	48	6
NMTAP	34	288	4
NMHLD	35	0	2	96
NMTAP	35	96	3
NMHLD	35	192	5	96
NMTAP	35	288	4
NMHLD	36	0	2	48
NMHLD	36	0	4	32
NMHLD	36	96	3	32
NMHLD	36	96	5	48
NMTAP	36	192	3
NMTAP	36	224	3
NMTAP	36	240	4
BXTAP	36	288	1
BXTAP	36	288	6
EXTAP	37	0	0
EXTAP	37	0	7
NMTAP	37	96	2
NMTAP	37	96	3
NMTAP	37	144	4
NMTAP	37	192	3
NMHLD	37	192	5	96
NMTAP	37	288	7
NMSTR	38	0	6
NMSI_	38	0	6	96	48	3
NMSTR	38	0	7
NMSI_	38	0	7	96	48	3
NMSTR	38	192	0
NMSI_	38	192	0	96	48	4
NMSTR	38	192	1
NMSI_	38	192	1	96	48	4
NMTAP	39	0	3
NMTAP	39	0	5
NMTAP	39	96	6
NMTAP	39	96	7
NMTAP	39	144	0
NMHLD	39	192	1	96
NMTAP	39	192	7
NMTAP	39	288	3
NMTAP	40	0	2
NMTAP	40	0	4
NMSTR	40	96	1
NMSCL	40	96	1	96	48	7
NMSTR	40	96	5
NMSCL	40	96	5	96	48	3
EXTAP	40	288	0
NMTAP	41	0	1
NMTAP	41	0	6
NMTAP	41	96	2
NMTAP	41	96	3
NMTAP	41	144	4
NMTAP	41	192	3
NMHLD	41	192	5	96
NMTAP	41	288	7
NMSTR	42	0	6
NMSI_	42	0	6	96	48	3
NMSTR	42	0	7
NMSI_	42	0	7	96	48	3
NMSTR	42	192	0
NMSI_	42	192	0	96	48	4
NMSTR	42	192	1
NMSI_	42	192	1	96	48	4
NMHLD	43	0	5	96
NMHLD	43	96	4	96
NMTAP	43	192	3
NMTAP	43	240	2
NMTAP	43	288	1
NMHLD	43	288	3	96
NMTAP	44	0	4
NMTAP	44	48	5
NMHLD	44	96	4	96
NMTAP	44	96	6
NMTAP	44	192	7
BRTAP	44	288	0
BRTAP	44	288	6
NMTTP	45	0	1	B	0	M1
NMTTP	45	0	1	E	0	M1
NMTTP	45	96	4	B	0	M1
NMTTP	45	96	6	E	0	M1
NMTTP	45	192	6	B	0	M1
NMTTP	45	192	7	E	0	M1
NMTTP	45	288	2	E	0	M1
NMTTP	45	288	3	B	0	M1
NMTTP	46	0	1	E	0	M1
NMTTP	46	72	0	C	0	M1
NMTTP	46	144	5	E	0	M1
NMTTP	47	0	6	B	0	M1
NMTTP	47	0	7	E	0	M1
NMTTP	47	96	2	E	0	M1
NMTTP	47	96	3	B	0	M1
NMTTP	47	192	1	B	0	M1
NMTTP	47	192	1	E	0	M1
NMSTR	48	0	3
NMSCR	48	0	3	96	192	2
NMHLD	48	0	4	288
NMTTP	49	0	1	B	0	M1
NMTTP	49	0	1	E	0	M1
NMTTP	49	96	4	B	0	M1
NMTTP	49	96	6	E	0	M1
NMTTP	49	192	6	B	0	M1
NMTTP	49	192	7	E	0	M1
NMTTP	49	288	2	E	0	M1
NMTTP	49	288	3	B	0	M1
NMTTP	50	0	1	E	0	M1
NMTTP	50	72	0	C	0	M1
NMTTP	50	144	5	E	0	M1
NMTTP	51	0	6	B	0	M1
NMTTP	51	0	7	E	0	M1
NMTTP	51	96	2	E	0	M1
NMTTP	51	96	3	B	0	M1
NMTTP	51	192	1	B	0	M1
NMTTP	51	192	1	E	0	M1
NMHLD	52	0	3	32
NMHLD	52	0	5	48
NMHLD	52	96	2	48
NMHLD	52	96	4	32
NMTAP	52	192	3
NMTAP	52	224	3
NMTAP	52	240	4
BXTAP	52	288	1
BXTAP	52	288	6
EXTAP	53	0	0
EXTAP	53	0	7
NMTAP	53	48	1
NMTAP	53	96	2
NMTAP	53	96	3
NMTAP	53	144	4
NMTAP	53	192	3
NMHLD	53	192	5	96
NMTAP	53	288	4
NMTAP	54	0	3
NMSTR	54	0	6
NMSI_	54	0	6	96	48	1
NMSTR	54	96	2
NMSCL	54	96	2	96	96	6
NMHLD	54	192	5	96
NMTAP	55	0	3
NMTAP	55	0	4
NMTAP	55	48	2
NMTAP	55	96	0
NMTAP	55	96	1
NMTAP	55	144	7
NMTAP	55	192	0
NMHLD	55	192	6	96
NMTAP	55	288	4
NMTAP	56	0	2
NMTAP	56	0	4
NMTAP	56	48	2
NMTAP	56	48	4
NMSTR	56	96	1
NMSCL	56	96	1	96	48	6
NMSTR	56	96	5
NMSCL	56	96	5	96	48	2
EXTAP	56	288	0
NMTAP	57	0	1
NMTAP	57	0	7
NMTAP	57	48	2
NMTAP	57	96	3
NMTAP	57	96	4
NMTAP	57	144	5
NMTAP	57	192	4
NMHLD	57	192	6	96
NMTAP	57	288	2
NMTAP	58	0	0
NMSTR	58	0	5
NMSI_	58	0	5	96	48	2
NMSTR	58	96	1
NMSCL	58	96	1	96	96	5
NMHLD	58	192	4	96
NMHLD	59	0	2	96
NMHLD	59	96	3	96
NMTAP	59	192	4
NMTAP	59	240	5
NMHLD	59	288	4	96
NMTAP	59	288	6
NMTAP	60	0	3
NMTAP	60	48	2
NMTAP	60	96	1
NMHLD	60	96	3	96
NMTAP	60	192	0
BRTAP	60	288	2
BRTAP	60	288	5
EXTAP	61	0	0
EXTAP	61	0	7
NMTAP	61	48	1
NMTAP	61	96	2
NMTAP	61	96	3
NMTAP	61	144	4
NMTAP	61	192	3
NMHLD	61	192	5	96
NMSTR	61	288	4
NMSI_	61	288	4	96	48	7
NMSTR	62	0	6
NMSI_	62	0	6	96	48	1
NMSTR	62	96	2
NMSCL	62	96	2	96	96	6
NMHLD	62	192	5	96
NMTAP	63	0	3
NMTAP	63	0	4
NMTAP	63	48	2
NMTAP	63	96	0
NMTAP	63	96	1
NMTAP	63	144	7
NMTAP	63	192	0
NMHLD	63	192	6	96
NMTAP	63	288	4
NMTAP	64	0	2
NMTAP	64	0	4
NMTAP	64	48	2
NMTAP	64	48	4
NMSTR	64	96	1
NMSCL	64	96	1	96	48	6
NMSTR	64	96	5
NMSCL	64	96	5	96	48	2
EXTAP	64	288	0
NMTAP	65	0	1
NMTAP	65	0	7
NMTAP	65	48	2
NMTAP	65	96	3
NMTAP	65	96	4
NMTAP	65	144	5
NMTAP	65	192	4
NMHLD	65	192	6	96
NMSTR	65	288	3
NMSI_	65	288	3	96	48	0
NMSTR	66	0	5
NMSI_	66	0	5	96	48	2
NMSTR	66	96	1
NMSCL	66	96	1	96	96	5
NMHLD	66	192	4	96
NMHLD	67	0	2	96
NMHLD	67	96	3	96
NMTAP	67	192	4
NMTAP	67	240	5
NMHLD	67	288	4	96
NMTAP	67	288	6
NMTAP	68	0	3
NMTAP	68	48	2
NMTAP	68	96	1
NMHLD	68	96	3	96
NMTAP	68	192	0
NMTAP	68	240	7
BXSTR	68	288	1
NMSXR	68	288	1	96	288	3
BXSTR	68	288	6
NMSXR	68	288	6	96	288	3

T_REC_TAP	184
T_REC_BRK	8
T_REC_XTP	26
T_REC_BXX	6
T_REC_HLD	50
T_REC_XHO	0
T_REC_BHO	0
T_REC_BXH	0
T_REC_STR	44
T_REC_BST	0
T_REC_XST	0
T_REC_XBS	2
T_REC_TTP	50
T_REC_THO	0
T_REC_SLD	46
T_REC_BSL	0
T_REC_ALL	416
T_NUM_TAP	304
T_NUM_BRK	16
T_NUM_HLD	50
T_NUM_SLD	46
T_NUM_ALL	416
T_JUDGE_TAP	320
T_JUDGE_HLD	276
T_JUDGE_SLD	46
T_JUDGE_ALL	642
TTM_EACHPAIRS	107
TTM_SCR_TAP	152000
TTM_SCR_BRK	41600
TTM_SCR_HLD	50000
TTM_SCR_SLD	69000
TTM_SCR_ALL	312600
TTM_SCR_S	301700
TTM_SCR_SS	311000
TTM_RAT_ACV	10051

