VERSION	0.00.00	1.04.00
FES_MODE	0
BPM_DEF	180.000	180.000	180.000	180.000
MET_DEF	4	4
RESOLUTION	384
CLK_DEF	384
COMPATIBLE_CODE	MA2

BPM	0	0	180.000
MET	0	0	4	4

NMTAP	1	192	3
NMTAP	1	216	4
NMTAP	1	240	3
NMTAP	1	288	2
NMTAP	1	288	5
NMHLD	2	0	1	48
NMHLD	2	0	3	48
NMHLD	2	96	2	48
NMHLD	2	96	3	48
NMHLD	2	192	4	48
NMHLD	2	192	6	48
NMHLD	2	288	4	48
NMHLD	2	288	5	48
NMHLD	3	0	1	48
NMHLD	3	0	3	48
NMHLD	3	96	2	48
NMHLD	3	96	3	48
NMHLD	3	192	4	48
NMHLD	3	192	5	48
NMHLD	3	288	3	48
NMHLD	3	288	6	48
NMTAP	4	0	7
NMSTR	4	48	7
NMSXR	4	48	7	96	192	3
NMTAP	4	144	2
NMTAP	4	192	2
NMSTR	4	288	0
NMSI_	4	288	0	96	48	4
NMSTR	5	0	5
NMSI_	5	0	5	96	48	7
NMSTR	5	96	1
NMSI_	5	96	1	96	48	3
NMTAP	5	192	4
NMTAP	5	288	1
NMTAP	5	288	5
NMSTR	6	0	6
NMSCL	6	0	6	96	48	4
NMTAP	6	48	6
NMTAP	6	96	3
NMTAP	6	144	2
NMSTR	6	192	1
NMSCR	6	192	1	96	48	3
NMTAP	6	240	1
NMTAP	6	288	5
NMTAP	6	336	6
NMSTR	7	0	7
NMSCL	7	0	7	96	48	5
NMTAP	7	48	7
NMTAP	7	96	2
NMTAP	7	144	1
NMSTR	7	192	0
NMSCR	7	192	0	96	48	2
NMTAP	7	240	0
NMSTR	7	288	7
NMSUR	7	288	7	96	144	0
NMTAP	7	336	7
EXTAP	8	0	0
EXTAP	8	192	1
EXTAP	8	192	6
NMSTR	8	288	0
NMSI_	8	288	0	96	48	4
NMSTR	8	288	7
NMSI_	8	288	7	96	48	3
NMSTR	9	0	0
NMSI_	9	0	0	96	48	2
NMSTR	9	0	7
NMSI_	9	0	7	96	48	5
NMSTR	9	96	0
NMSI_	9	96	0	96	48	4
NMSTR	9	96	7
NMSI_	9	96	7	96	48	3
NMTAP	9	192	0
NMTAP	9	192	7
BRTAP	9	288	1
BRTAP	9	288	6
NMSTR	10	0	5
NMSI_	10	0	5	96	48	0
NMTAP	10	48	5
NMSTR	10	96	2
NMSI_	10	96	2	96	48	7
NMTAP	10	144	2
NMTAP	10	192	4
NMTAP	10	240	4
NMSTR	10	288	3
NMSI_	10	288	3	96	48	1
NMTAP	10	336	3
EXTAP	11	0	5
CNSI_	11	48	1	0	48	4
EXTAP	11	48	5
CNSI_	11	96	4	0	48	0
EXTAP	11	96	6
EXTAP	11	144	6
NMTAP	11	192	7
NMTAP	11	240	7
NMTAP	11	288	0
NMTAP	11	288	6
NMSTR	12	0	1
NMSCR	12	0	1	96	48	4
NMTAP	12	48	1
NMSTR	12	96	5
NMSCR	12	96	5	96	48	0
NMTAP	12	144	5
NMTAP	12	192	3
NMTAP	12	240	3
NMSTR	12	288	7
NMSCL	12	288	7	96	48	4
NMTAP	12	336	7
NMTAP	13	0	0
NMTAP	13	48	1
NMTAP	13	96	2
NMTAP	13	144	3
NMTAP	13	192	2
NMTAP	13	192	4
NMTAP	13	240	1
NMTAP	13	240	5
NMTAP	13	288	0
NMTAP	13	288	6
NMSTR	14	0	2
NMSI_	14	0	2	96	48	7
NMTAP	14	48	2
NMSTR	14	96	5
NMSI_	14	96	5	96	48	0
NMTAP	14	144	5
NMTAP	14	192	3
NMTAP	14	240	3
NMSTR	14	288	4
NMSI_	14	288	4	96	48	6
NMTAP	14	336	4
EXTAP	15	0	2
EXTAP	15	48	2
CNSI_	15	48	6	0	48	3
EXTAP	15	96	1
CNSI_	15	96	3	0	48	7
EXTAP	15	144	1
NMTAP	15	192	0
NMTAP	15	240	0
NMTAP	15	288	1
NMTAP	15	288	7
NMTAP	16	0	2
NMTAP	16	24	3
NMTAP	16	72	5
NMTAP	16	96	4
NMTAP	16	144	1
NMTAP	16	168	3
NMTAP	16	216	6
NMTAP	16	240	4
NMSTR	16	288	0
NMSLR	16	288	0	96	96	4
NMTAP	16	312	7
NMTAP	16	336	0
NMTAP	16	360	7
NMTAP	17	0	0
NMSTR	17	96	5
BRSCR	17	96	5	96	96	2
NMTTP	17	192	0	C	1	M1
NMTAP	18	0	0
NMTAP	18	96	2
NMTAP	18	96	6
NMHLD	18	144	2	96
NMTAP	18	144	6
NMTAP	18	240	3
NMTAP	18	336	0
NMTAP	18	336	1
NMTAP	19	48	4
NMTAP	19	48	5
NMSTR	19	144	6
NMSCL	19	144	6	96	48	3
NMSTR	19	144	7
NMSV_	19	144	7	96	48	2
NMTAP	19	336	0
NMTAP	20	0	0
NMTAP	20	96	1
NMTAP	20	96	5
NMTAP	20	144	1
NMHLD	20	144	5	96
NMTAP	20	240	4
NMTAP	20	336	6
NMTAP	20	336	7
NMTAP	21	48	2
NMTAP	21	48	3
NMSTR	21	144	0
NMSV_	21	144	0	96	48	5
NMSTR	21	144	1
NMSCR	21	144	1	96	48	4
NMTAP	21	336	7
NMTAP	22	0	7
NMTAP	22	96	1
NMTAP	22	96	5
NMHLD	22	144	1	96
NMTAP	22	144	5
NMTAP	22	240	3
NMTAP	22	336	4
NMTAP	22	336	6
NMTAP	23	48	4
NMTAP	23	48	6
NMTAP	23	144	1
NMTAP	23	144	3
NMTAP	23	240	0
NMTAP	23	240	7
NMTAP	23	336	1
NMTAP	23	336	6
NMTAP	24	0	1
NMSTR	24	0	6
NMSCL	24	0	6	96	48	3
NMSTR	24	144	1
NMSCL	24	144	1	96	48	6
NMSTR	24	288	4
NMSXL	24	288	4	96	144	3
BXTAP	25	0	0
NMHLD	25	192	2	96
NMTAP	25	288	4
NMTAP	26	0	3
NMTAP	26	48	3
NMTAP	26	144	1
NMHLD	26	144	5	96
NMTAP	26	240	4
NMTAP	26	336	6
NMTAP	26	336	7
NMSTR	27	48	2
NMSCL	27	48	2	96	48	7
NMTAP	27	48	3
NMTAP	27	144	4
NMTAP	27	240	5
NMTAP	27	288	5
NMTAP	28	0	3
NMTAP	28	0	4
NMHLD	28	96	2	96
NMTAP	28	96	5
NMTAP	28	192	3
NMTAP	28	240	3
NMTAP	28	336	0
NMTAP	28	336	1
NMTAP	29	48	4
NMSTR	29	48	5
NMSI_	29	48	5	96	48	0
NMTAP	29	144	2
NMTAP	29	240	1
NMTAP	29	288	1
NMTAP	29	288	3
NMTAP	30	0	0
NMTAP	30	96	2
NMTAP	30	96	6
NMTAP	30	144	2
NMHLD	30	144	6	96
NMSTR	30	240	0
NMSCR	30	240	0	96	96	4
NMSTR	30	336	4
NMSCR	30	336	4	96	96	0
NMSTR	31	48	0
NMSCR	31	48	0	96	96	4
NMSTR	31	144	4
NMSCR	31	144	4	96	96	0
NMSTR	31	240	0
NMSCR	31	240	0	96	192	7
NMTTP	31	336	0	C	1	M1
NMSTR	32	288	0
NMSXL	32	288	0	96	192	3
NMSTR	32	288	7
NMSXR	32	288	7	96	192	4
NMSTR	33	288	6
NMSI_	33	288	6	96	48	2
NMSTR	34	0	1
NMSI_	34	0	1	96	48	3
EXTAP	34	96	4
CNSI_	34	144	3	0	48	0
EXTAP	34	144	4
CNSCL	34	192	0	0	96	5
EXTAP	34	240	3
EXTAP	34	288	3
NMSTR	35	0	4
NMSI_	35	0	4	96	48	1
NMSI_	35	0	4	96	48	7
NMTAP	35	96	4
NMTAP	35	192	0
NMTAP	35	240	0
NMSTR	35	288	1
NMSI_	35	288	1	96	48	5
NMSTR	36	0	6
NMSI_	36	0	6	96	48	4
EXTAP	36	96	3
EXTAP	36	144	3
CNSI_	36	144	4	0	48	7
CNSCR	36	192	7	0	96	2
EXTAP	36	240	4
EXTAP	36	288	4
BXHLD	37	0	2	48
BXHLD	37	0	3	48
BXHLD	37	72	1	48
BXHLD	37	72	4	48
BXTAP	37	144	1
BXTAP	37	144	4
NMTAP	37	240	5
NMSTR	37	288	5
NMSI_	37	288	5	96	48	1
NMSTR	38	0	2
NMSI_	38	0	2	96	48	0
EXTAP	38	96	7
CNSI_	38	144	0	0	48	3
EXTAP	38	144	7
CNSCR	38	192	3	0	96	6
EXTAP	38	240	0
EXTAP	38	288	0
NMHLD	39	0	7	96
NMTAP	39	96	0
NMTAP	39	192	2
NMTAP	39	240	2
NMTAP	39	288	5
NMTAP	39	336	5
NMTAP	40	0	3
NMTAP	40	24	4
NMTAP	40	48	3
NMTAP	40	72	4
NMTAP	40	96	2
NMTAP	40	120	5
NMTAP	40	144	2
NMTAP	40	168	5
NMTAP	40	192	1
NMTAP	40	216	6
NMTAP	40	240	1
NMTAP	40	264	6
NMSTR	40	288	0
NMSI_	40	288	0	96	48	3
NMSI_	40	288	0	96	48	5
NMTAP	40	312	7
NMTAP	40	336	0
NMTAP	40	360	7
NMTAP	41	0	0
BXTAP	41	96	2
BXTAP	41	96	6
NMTAP	41	192	4
NMTAP	41	192	5
NMSTR	41	240	4
BRSUR	41	240	4	96	48	0
NMSTR	41	240	5
BRSCR	41	240	5	96	48	7
NMTAP	41	288	3
NMTAP	41	288	6
CNSCR	42	0	0	0	96	2
CNSUR	42	0	7	0	96	3
NMTAP	42	192	1
NMTAP	42	192	3
NMSTR	42	240	1
NMSI_	42	240	1	96	48	4
NMSTR	42	240	3
NMSI_	42	240	3	96	48	7
EXTAP	42	336	1
EXTAP	42	336	3
NMTAP	43	48	6
NMSTR	43	96	6
NMSCL	43	96	6	96	96	3
NMSTR	43	192	3
NMSCL	43	192	3	96	96	0
NMSTR	43	288	0
NMSCL	43	288	0	96	96	5
NMTAP	44	0	5
NMTAP	44	96	3
NMTAP	44	192	2
NMTAP	44	192	7
NMSTR	44	240	0
NMSI_	44	240	0	96	48	5
NMSTR	44	240	1
NMSI_	44	240	1	96	48	4
NMTAP	44	336	0
NMTAP	44	336	1
NMTAP	45	48	6
NMTAP	45	48	7
NMTAP	45	144	1
NMTAP	45	192	2
NMTAP	45	192	3
NMSTR	45	240	2
BRSCL	45	240	2	96	48	0
NMSTR	45	240	3
BRSUL	45	240	3	96	48	7
NMTAP	45	288	1
NMTAP	45	288	4
CNSUL	46	0	0	0	96	4
CNSCL	46	0	7	0	96	5
NMTAP	46	192	4
NMTAP	46	192	6
NMSTR	46	240	4
NMSI_	46	240	4	96	48	0
NMSTR	46	240	6
NMSI_	46	240	6	96	48	3
EXTAP	46	336	4
EXTAP	46	336	6
NMTAP	47	48	1
NMSTR	47	96	1
NMSCR	47	96	1	96	96	4
NMSTR	47	192	4
NMSCR	47	192	4	96	96	7
NMSTR	47	288	7
NMSCR	47	288	7	96	96	2
NMTAP	48	0	2
NMTAP	48	96	4
NMTAP	48	192	0
NMTAP	48	192	5
NMSTR	48	240	6
NMSI_	48	240	6	96	48	3
NMSTR	48	240	7
NMSI_	48	240	7	96	48	2
NMTAP	48	336	6
NMTAP	48	336	7
NMTAP	49	48	0
NMTAP	49	48	1
NMTAP	49	144	6
NMTAP	49	192	4
NMTAP	49	192	5
NMSTR	49	240	4
BRSCL	49	240	4	96	48	2
NMSTR	49	240	5
BRSUL	49	240	5	96	48	1
NMTAP	49	288	3
NMTAP	49	288	6
CNSCL	50	0	1	0	96	7
CNSUL	50	0	2	0	96	6
NMTAP	50	192	0
NMTAP	50	192	6
NMSTR	50	240	0
NMSCL	50	240	0	96	48	5
NMSTR	50	240	6
NMSI_	50	240	6	96	48	2
EXTAP	50	336	0
EXTAP	50	336	6
NMTAP	51	48	3
NMSTR	51	96	3
NMSXL	51	96	3	96	192	6
NMTAP	51	192	2
NMTAP	51	288	1
NMSTR	52	0	0
NMSUR	52	0	0	96	48	4
NMTAP	52	96	5
NMTAP	52	192	6
NMHLD	52	240	6	96
NMTAP	52	336	0
NMTAP	53	48	2
NMTAP	53	48	4
NMTAP	53	144	5
NMTAP	53	192	5
NMTAP	53	240	3
NMSTR	53	288	1
NMSI_	53	288	1	96	48	5
NMTAP	53	288	7
NMSTR	54	0	6
NMSI_	54	0	6	96	48	2
NMTAP	54	48	6
NMSTR	54	96	0
NMSI_	54	96	0	96	48	4
NMTAP	54	144	0
NMSTR	54	192	7
NMSI_	54	192	7	96	48	3
NMTAP	54	240	7
NMSTR	54	288	1
NMSI_	54	288	1	96	48	5
NMTAP	54	336	1
NMSTR	55	0	6
NMSI_	55	0	6	96	48	3
NMTAP	55	48	6
NMSTR	55	96	2
NMSI_	55	96	2	96	48	7
NMTAP	55	144	2
NMSTR	55	192	5
NMSI_	55	192	5	96	48	2
NMTAP	55	240	5
NMTAP	55	288	0
NMTAP	55	336	0
NMTAP	56	0	0
NMTAP	56	24	1
NMTAP	56	48	2
NMTAP	56	72	3
NMTAP	56	96	4
NMTAP	56	120	5
NMTAP	56	144	6
NMTAP	56	168	7
NMTAP	56	192	0
NMTAP	56	216	1
NMTAP	56	240	2
NMTAP	56	264	3
NMTAP	56	288	4
NMTAP	56	312	5
NMTAP	56	336	6
NMTAP	57	48	0
NMSTR	57	96	0
BRSF_	57	96	0	96	48	4
BXTAP	57	288	2
BXTAP	57	288	6
NMTAP	58	0	5
NMTAP	58	24	4
NMTAP	58	48	5
NMTAP	58	72	4
NMTAP	58	96	6
NMTAP	58	144	6
NMTAP	58	192	2
NMTAP	58	216	3
NMTAP	58	240	2
NMTAP	58	264	3
NMTAP	58	288	1
NMTAP	58	336	1
NMTAP	59	0	5
NMTAP	59	24	4
NMTAP	59	72	3
NMTAP	59	72	6
NMTAP	59	120	3
NMTAP	59	120	6
NMTAP	59	168	2
NMTAP	59	192	3
NMTAP	59	240	1
NMTAP	59	240	4
NMTAP	59	288	1
NMSTR	59	288	4
NMSCR	59	288	4	96	96	0
NMSTR	60	0	0
NMSCR	60	0	0	96	96	4
NMSTR	60	96	4
NMSLR	60	96	4	96	96	0
NMSTR	60	192	0
NMSLR	60	192	0	96	96	4
NMTAP	60	288	4
NMTAP	61	0	0
NMTTP	61	96	0	C	0	M1
NMTTP	61	96	2	B	0	M1
NMTTP	61	96	2	E	0	M1
NMTTP	61	96	5	B	0	M1
NMTTP	61	96	6	E	0	M1
NMTAP	61	192	0
NMTAP	61	192	7
NMTAP	61	240	0
NMTAP	61	240	7
NMTAP	61	288	1
NMTAP	61	288	6
NMTAP	62	0	1
NMTAP	62	24	3
NMTAP	62	48	1
NMTAP	62	72	3
NMTAP	62	96	2
NMTAP	62	120	4
NMTAP	62	144	2
NMTAP	62	168	4
NMTAP	62	192	3
NMTAP	62	216	5
NMTAP	62	240	3
NMTAP	62	264	5
NMTAP	62	288	2
NMTAP	62	336	2
NMTAP	63	0	2
NMTAP	63	24	3
NMTAP	63	72	1
NMTAP	63	72	4
NMTAP	63	120	1
NMTAP	63	120	4
NMTAP	63	168	5
NMTAP	63	192	4
NMTAP	63	240	3
NMTAP	63	240	6
NMTAP	63	288	3
NMTAP	63	288	6
NMTAP	64	0	5
NMTAP	64	24	4
NMTAP	64	72	2
NMTAP	64	96	3
NMTAP	64	144	6
NMTAP	64	168	4
NMTAP	64	216	1
NMTAP	64	240	3
NMSTR	64	288	7
BRSF_	64	288	7	96	48	3
NMTAP	64	312	0
NMTAP	64	336	7
NMTAP	64	360	0
NMTAP	65	0	7
BXTAP	65	96	1
BXTAP	65	96	5
NMTAP	65	192	0
NMTAP	65	192	1
NMSTR	65	240	0
BRSUR	65	240	0	96	48	4
NMSTR	65	240	1
BRSCR	65	240	1	96	48	3
NMTAP	65	288	2
NMTAP	65	288	7
CNSUR	66	0	3	0	96	7
CNSCR	66	0	4	0	96	6
NMTAP	66	192	7
NMTAP	66	216	6
NMTAP	66	240	5
NMTAP	66	264	4
NMTAP	66	288	3
NMTAP	66	312	2
NMTAP	66	336	1
NMTAP	66	360	0
BRSTR	67	0	7
NMSI_	67	0	7	96	48	3
NMSTR	67	96	7
NMSCR	67	96	7	96	48	2
NMSTR	67	192	7
NMSCL	67	192	7	96	48	4
NMTAP	67	288	7
NMTAP	68	0	3
NMTAP	68	48	3
NMTAP	68	96	6
NMTAP	68	144	6
NMTAP	68	192	0
NMTAP	68	240	0
EXTAP	68	288	7
EXTAP	68	312	7
EXTAP	68	336	7
NMSTR	69	48	1
NMSI_	69	48	1	96	48	4
NMSTR	69	48	5
NMSI_	69	48	5	96	48	0
BRTAP	69	144	1
BRTAP	69	144	5
NMTAP	69	240	3
NMTAP	69	240	7
NMTAP	69	288	3
NMTAP	69	288	7
NMTAP	70	0	2
NMTAP	70	24	4
NMTAP	70	48	2
NMTAP	70	72	4
NMTAP	70	96	1
NMTAP	70	120	5
NMTAP	70	144	1
NMTAP	70	168	5
NMSTR	70	192	0
NMSI_	70	192	0	96	48	4
NMTAP	70	216	6
NMTAP	70	240	0
NMTAP	70	264	6
NMTAP	70	288	0
NMTAP	71	0	5
NMTAP	71	24	3
NMTAP	71	48	5
NMTAP	71	72	3
NMTAP	71	96	6
NMTAP	71	120	2
NMTAP	71	144	6
NMTAP	71	168	2
NMSTR	71	192	7
NMSI_	71	192	7	96	48	3
NMTAP	71	216	1
NMTAP	71	240	7
NMTAP	71	264	1
NMTAP	71	288	7
EXTAP	72	0	2
EXTAP	72	0	3
EXTAP	72	48	2
EXTAP	72	48	3
NMTAP	72	96	0
NMTAP	72	96	1
NMTAP	72	144	0
NMTAP	72	144	1
NMTAP	72	192	6
NMTAP	72	192	7
NMTAP	72	240	4
NMTAP	72	240	5
NMTAP	72	288	2
NMTAP	72	288	3
NMSTR	72	336	2
NMSI_	72	336	2	96	48	0
NMTAP	72	336	3
NMTAP	73	48	4
CNSV_	73	96	0	0	48	7
NMTAP	73	144	3
CNSI_	73	144	7	0	48	5
NMTAP	73	240	0
NMTAP	73	240	4
NMSTR	73	288	0
NMSCR	73	288	0	96	48	3
NMSTR	73	288	4
NMSI_	73	288	4	96	48	7
BRTAP	74	0	0
BRTAP	74	0	4

T_REC_TAP	363
T_REC_BRK	6
T_REC_XTP	36
T_REC_BXX	9
T_REC_HLD	25
T_REC_XHO	0
T_REC_BHO	0
T_REC_BXH	4
T_REC_STR	99
T_REC_BST	1
T_REC_XST	0
T_REC_XBS	0
T_REC_TTP	7
T_REC_THO	0
T_REC_SLD	91
T_REC_BSL	11
T_REC_ALL	652
T_NUM_TAP	505
T_NUM_BRK	31
T_NUM_HLD	25
T_NUM_SLD	91
T_NUM_ALL	652
T_JUDGE_TAP	521
T_JUDGE_HLD	38
T_JUDGE_SLD	102
T_JUDGE_ALL	661
TTM_EACHPAIRS	113
TTM_SCR_TAP	252500
TTM_SCR_BRK	80600
TTM_SCR_HLD	25000
TTM_SCR_SLD	136500
TTM_SCR_ALL	494600
TTM_SCR_S	476800
TTM_SCR_SS	491500
TTM_RAT_ACV	10063

