VERSION	0.00.00	1.04.00
FES_MODE	0
BPM_DEF	180.000	180.000	180.000	180.000
MET_DEF	4	4
RESOLUTION	384
CLK_DEF	384
COMPATIBLE_CODE	MA2

BPM	0	0	180.000
MET	0	0	4	4

NMTAP	2	0	2
NMTAP	2	0	4
NMTAP	2	96	3
NMTAP	2	96	5
NMTAP	2	192	6
NMTAP	2	288	4
NMTAP	2	288	6
NMTAP	3	0	3
NMTAP	3	0	5
NMTAP	3	96	2
NMTAP	3	96	4
NMTAP	3	192	1
NMTAP	3	288	1
NMTAP	3	288	3
NMTAP	4	0	2
NMTAP	4	0	4
NMTAP	4	96	3
NMTAP	4	96	5
NMTAP	4	192	4
NMTAP	4	192	6
NMTAP	4	288	3
NMTAP	4	288	5
NMTAP	5	0	2
NMTAP	5	48	2
NMTAP	5	96	3
NMTAP	5	192	0
NMTAP	5	192	4
NMTAP	6	0	5
NMTAP	6	48	5
NMTAP	6	96	4
NMTAP	6	192	2
NMTAP	6	192	3
NMTAP	6	288	2
NMTAP	6	288	3
NMTAP	7	0	2
NMTAP	7	48	2
NMTAP	7	96	3
NMTAP	7	192	1
NMTAP	7	192	4
NMTAP	7	288	2
NMTAP	7	288	3
NMTAP	8	0	1
NMTAP	8	48	1
NMTAP	8	96	0
NMTAP	8	192	6
NMTAP	8	240	6
NMTAP	8	288	7
NMTAP	9	0	0
NMTAP	9	0	5
NMTAP	9	96	1
NMTAP	9	96	6
NMTAP	9	192	2
NMTAP	9	192	7
BXTAP	9	288	1
BXTAP	9	288	6
NMTAP	10	0	5
NMTAP	10	48	5
NMTAP	10	96	3
NMTAP	10	144	4
NMTAP	10	192	2
NMTAP	10	240	2
NMTAP	10	288	2
NMTAP	10	288	3
NMTAP	11	0	1
NMTAP	11	96	1
NMTAP	11	192	2
NMTAP	11	192	3
NMTAP	11	288	2
NMTAP	11	288	3
NMTAP	12	0	2
NMTAP	12	48	2
NMTAP	12	96	4
NMTAP	12	144	3
NMTAP	12	192	5
NMTAP	12	240	5
NMTAP	12	288	4
NMTAP	12	288	5
NMTAP	13	0	6
NMTAP	13	96	6
NMTAP	13	192	4
NMTAP	13	192	5
NMTAP	13	288	4
NMTAP	13	288	5
NMTAP	14	0	1
NMTAP	14	48	1
NMTAP	14	96	3
NMTAP	14	144	2
NMTAP	14	192	4
NMTAP	14	240	4
NMTAP	14	288	3
NMTAP	14	288	4
NMTAP	15	0	5
NMTAP	15	96	5
NMTAP	15	192	6
NMTAP	15	192	7
NMTAP	15	288	0
NMTAP	15	288	1
NMTAP	16	0	2
NMTAP	16	0	3
NMTAP	16	96	2
NMTAP	16	96	3
NMTAP	16	192	3
NMTAP	16	192	5
NMTAP	16	288	2
NMTAP	16	288	4
NMTAP	17	0	1
NMTAP	17	0	6
NMTAP	17	96	1
NMTAP	17	96	6
BRTAP	17	192	2
BRTAP	17	192	5
NMTAP	18	0	4
NMHLD	18	0	6	288
NMTAP	18	96	4
NMTAP	18	192	3
NMTAP	18	288	4
NMHLD	19	0	2	288
NMTAP	19	0	3
NMTAP	19	96	3
NMTAP	19	192	4
NMTAP	19	288	3
NMHLD	20	0	2	96
NMHLD	20	96	3	96
NMHLD	20	192	4	96
NMTAP	20	288	5
NMHLD	21	0	5	96
NMHLD	21	96	4	96
NMHLD	21	192	3	96
NMTAP	21	288	2
NMHLD	22	0	1	192
NMTAP	22	0	3
NMTAP	22	96	4
NMTAP	22	192	3
NMTAP	22	288	2
NMTAP	22	288	4
NMTAP	23	0	3
NMHLD	23	0	5	192
NMTAP	23	96	2
NMTAP	23	192	3
NMTAP	23	288	2
NMTAP	23	288	6
NMTAP	24	0	1
NMTAP	24	0	7
NMTAP	24	96	1
NMTAP	24	96	7
NMHLD	24	192	0	96
NMTAP	24	288	3
NMTAP	25	0	2
NMTAP	25	0	4
NMTAP	25	96	2
NMTAP	25	96	4
EXTAP	25	192	3
EXTAP	25	192	5
NMTAP	26	0	4
NMHLD	26	0	5	288
NMTAP	26	96	4
NMTAP	26	192	6
NMTAP	26	288	4
NMHLD	27	0	2	288
NMTAP	27	0	3
NMTAP	27	96	3
NMTAP	27	192	1
NMTAP	27	288	3
NMHLD	28	0	1	96
NMTAP	28	0	3
NMHLD	28	96	0	96
NMHLD	28	192	7	96
NMTAP	28	288	6
NMHLD	29	0	4	96
NMTAP	29	0	5
NMHLD	29	96	3	96
NMHLD	29	192	2	96
NMTAP	29	288	3
NMHLD	30	0	1	96
NMHLD	30	0	3	96
NMHLD	30	192	3	96
NMHLD	30	192	5	96
NMHLD	31	0	2	96
NMHLD	31	0	4	96
NMTAP	31	192	3
NMTAP	31	192	5
NMTAP	31	288	3
NMTAP	31	288	5
NMHLD	32	0	2	48
NMHLD	32	0	3	48
NMHLD	32	96	2	48
NMHLD	32	96	3	48
NMHLD	32	192	3	48
NMHLD	32	192	4	48
NMHLD	32	288	3	48
NMHLD	32	288	4	48
NMHLD	33	0	4	48
NMHLD	33	0	5	48
NMHLD	33	96	4	48
NMHLD	33	96	5	48
BRTAP	33	192	3
BRTAP	33	192	6
NMSTR	34	0	7
NMSCL	34	0	7	96	192	3
NMTTP	35	0	2	B	0	M1
NMTTP	35	96	4	B	0	M1
NMTTP	35	96	5	E	0	M1
NMTTP	35	192	6	B	0	M1
NMTTP	35	192	7	B	0	M1
NMTTP	35	192	7	E	0	M1
NMSTR	36	0	0
NMSCR	36	0	0	96	192	4
NMTTP	37	0	6	B	0	M1
NMTTP	37	96	0	B	0	M1
NMTTP	37	96	1	B	0	M1
NMTTP	37	192	3	B	0	M1
NMTTP	37	192	4	B	0	M1
NMTTP	37	192	4	E	0	M1
NMHLD	38	0	6	288
NMTAP	38	0	7
NMTAP	38	96	0
NMTAP	38	192	1
NMTAP	38	288	2
NMHLD	39	0	2	192
NMTAP	39	96	3
NMTAP	39	192	4
NMTAP	39	288	5
NMTAP	40	0	1
NMTAP	40	48	1
NMTAP	40	96	6
NMTAP	40	144	6
NMTAP	40	192	0
NMTAP	40	240	0
NMTAP	40	288	7
NMTAP	40	336	7
BXTAP	41	0	0
BXTAP	41	0	7
NMTAP	41	96	2
NMTAP	41	96	5
NMTAP	41	192	0
NMTAP	41	192	6
NMTAP	41	240	0
NMSTR	41	240	6
NMSI_	41	240	6	96	96	2
NMSI_	41	240	6	96	96	3
NMTAP	42	192	1
NMHLD	42	240	1	96
NMTAP	42	336	2
NMTAP	43	48	0
NMHLD	43	96	0	96
NMTAP	43	192	7
NMTAP	43	288	6
NMTAP	43	288	7
NMTAP	44	0	4
NMTAP	44	0	5
NMTAP	44	96	4
NMTAP	44	96	5
NMTAP	44	192	2
NMHLD	44	240	2	96
NMTAP	44	336	3
EXTAP	45	48	2
EXTAP	45	48	3
EXTAP	45	96	2
EXTAP	45	96	3
NMTAP	45	192	3
NMTAP	45	192	5
NMTAP	45	240	3
NMSTR	45	240	5
NMSI_	45	240	5	96	96	0
NMSI_	45	240	5	96	96	1
NMTAP	46	192	2
NMHLD	46	240	2	96
NMTAP	46	336	3
NMTAP	47	48	4
NMHLD	47	96	4	96
NMTAP	47	192	5
NMTAP	47	288	4
NMTAP	47	288	5
NMTAP	48	0	6
NMTAP	48	0	7
NMTAP	48	96	6
NMTAP	48	96	7
NMTAP	48	192	0
NMHLD	48	240	0	96
NMTAP	48	336	7
EXTAP	49	48	1
EXTAP	49	48	6
EXTAP	49	96	1
EXTAP	49	96	6
NMTAP	49	192	1
NMTAP	49	192	7
NMSTR	49	240	1
NMSI_	49	240	1	96	96	4
NMSI_	49	240	1	96	96	5
NMTAP	49	240	7
NMTAP	50	192	6
NMHLD	50	240	6	96
NMTAP	50	336	5
NMTAP	51	48	4
NMHLD	51	96	4	96
NMTAP	51	192	3
NMTAP	51	288	1
NMTAP	51	288	3
NMTAP	52	0	0
NMTAP	52	0	1
NMTAP	52	96	0
NMTAP	52	96	1
NMTAP	52	192	2
NMTAP	52	192	4
NMTAP	52	288	3
NMTAP	52	288	5
NMTAP	53	0	0
NMTAP	53	0	6
NMTAP	53	96	1
NMTAP	53	96	7
NMTAP	53	192	0
NMTAP	53	192	6
NMTAP	53	288	1
NMTAP	53	288	7
NMSTR	54	0	0
NMSI_	54	0	0	96	48	4
NMSTR	54	0	1
NMSI_	54	0	1	96	48	3
NMSTR	54	192	6
NMSI_	54	192	6	96	48	4
NMSTR	54	192	7
NMSI_	54	192	7	96	48	3
NMSTR	55	0	0
NMSI_	55	0	0	96	48	4
NMSTR	55	0	1
NMSI_	55	0	1	96	48	3
NMTAP	55	192	2
NMTAP	55	192	5
NMTAP	55	288	2
NMTAP	55	288	5
NMHLD	56	0	5	96
NMHLD	56	96	7	96
NMHLD	56	192	0	96
NMTAP	56	288	2
NMTAP	56	336	2
BXTAP	57	48	1
BXTAP	57	48	6
BXTAP	57	96	1
BXTAP	57	96	6
EXTAP	57	192	7
EXTAP	57	216	0
EXTAP	57	240	7
EXTAP	57	264	0
BXTAP	57	288	7
NMTAP	58	0	2
NMTAP	58	0	5
NMTAP	58	96	3
NMTAP	58	96	4
NMTAP	58	192	5
NMTAP	58	240	5
NMTAP	58	288	4
NMTAP	58	288	5
NMTAP	59	0	6
NMTAP	59	96	6
NMTAP	59	192	6
NMTAP	59	192	7
NMTAP	59	288	0
NMTAP	59	288	1
NMTAP	60	0	2
NMTAP	60	48	2
NMTAP	60	96	4
NMTAP	60	144	3
NMTAP	60	192	5
NMTAP	60	240	5
NMTAP	60	288	4
NMTAP	60	288	5
NMTAP	61	0	6
NMTAP	61	96	6
NMTAP	61	192	4
NMTAP	61	192	5
NMTAP	61	288	2
NMTAP	61	288	3
NMTAP	62	0	1
NMTAP	62	48	1
NMTAP	62	96	3
NMTAP	62	144	2
NMTAP	62	192	4
NMTAP	62	240	4
NMTAP	62	288	3
NMTAP	62	288	4
NMTAP	63	0	1
NMTAP	63	0	3
NMTAP	63	96	1
NMTAP	63	96	3
NMTAP	63	192	2
NMTAP	63	192	4
NMTAP	63	288	3
NMTAP	63	288	5
NMHLD	64	0	4	48
NMHLD	64	0	5	48
NMHLD	64	96	5	48
NMHLD	64	96	6	48
NMHLD	64	192	6	48
NMHLD	64	192	7	48
NMHLD	64	288	0	48
NMHLD	64	288	7	48
NMTAP	65	0	1
NMTAP	65	0	6
BXTAP	65	96	2
BXTAP	65	96	5
NMTAP	65	192	1
NMTAP	65	192	7
NMSTR	65	240	1
NMSI_	65	240	1	96	96	4
NMSI_	65	240	1	96	96	5
NMTAP	65	240	7
NMTAP	66	192	6
NMHLD	66	240	6	96
NMTAP	66	336	5
NMTAP	67	48	4
NMHLD	67	96	4	96
NMTAP	67	192	3
NMTAP	67	288	2
NMTAP	67	288	3
NMTAP	68	0	0
NMTAP	68	0	1
NMTAP	68	96	0
NMTAP	68	96	1
NMTAP	68	192	7
NMHLD	68	240	7	96
NMTAP	68	336	0
NMTAP	69	48	1
NMTAP	69	48	6
NMTAP	69	96	1
NMTAP	69	96	6
NMTAP	69	192	3
NMTAP	69	192	5
NMTAP	69	288	2
NMTAP	69	288	4
NMSTR	70	0	0
NMSI_	70	0	0	96	48	4
NMSTR	70	0	1
NMSI_	70	0	1	96	48	3
NMSTR	70	192	6
NMSI_	70	192	6	96	48	4
NMSTR	70	192	7
NMSI_	70	192	7	96	48	3
NMSTR	71	0	0
NMSI_	71	0	0	96	48	4
NMSTR	71	0	1
NMSI_	71	0	1	96	48	3
NMTAP	71	192	1
NMTAP	71	192	6
NMTAP	71	288	2
NMTAP	71	288	5
NMHLD	72	0	2	96
NMHLD	72	96	0	96
NMHLD	72	192	7	96
NMTAP	72	288	5
NMTAP	72	336	5
BXTAP	73	48	1
BXTAP	73	48	6
BXTAP	73	96	1
BXTAP	73	96	6
NMTAP	73	192	0
NMTAP	73	216	7
NMTAP	73	240	0
NMTAP	73	264	7
NMSTR	73	288	0
NMSF_	73	288	0	96	96	4

T_REC_TAP	309
T_REC_BRK	4
T_REC_XTP	14
T_REC_BXX	15
T_REC_HLD	64
T_REC_XHO	0
T_REC_BHO	0
T_REC_BXH	0
T_REC_STR	19
T_REC_BST	0
T_REC_XST	0
T_REC_XBS	0
T_REC_TTP	12
T_REC_THO	0
T_REC_SLD	23
T_REC_BSL	0
T_REC_ALL	460
T_NUM_TAP	354
T_NUM_BRK	19
T_NUM_HLD	64
T_NUM_SLD	23
T_NUM_ALL	460
T_JUDGE_TAP	373
T_JUDGE_HLD	134
T_JUDGE_SLD	23
T_JUDGE_ALL	530
TTM_EACHPAIRS	132
TTM_SCR_TAP	177000
TTM_SCR_BRK	49400
TTM_SCR_HLD	64000
TTM_SCR_SLD	34500
TTM_SCR_ALL	324900
TTM_SCR_S	313350
TTM_SCR_SS	323000
TTM_RAT_ACV	10058

