VERSION	0.00.00	1.04.00
FES_MODE	0
BPM_DEF	149.000	149.000	149.000	149.000
MET_DEF	4	4
RESOLUTION	384
CLK_DEF	384
COMPATIBLE_CODE	MA2

BPM	0	0	149.000
MET	0	0	4	4

NMTAP	1	0	3
NMTAP	1	0	6
NMTAP	1	72	3
NMTAP	1	96	6
NMHLD	1	144	3	144
NMTAP	1	192	6
NMTAP	1	288	6
NMTAP	2	0	4
NMTAP	2	0	6
NMTAP	2	72	4
NMTAP	2	96	6
NMHLD	2	144	4	144
NMTAP	2	192	6
NMTAP	2	288	6
NMTAP	3	0	3
NMTAP	3	0	6
NMTAP	3	72	3
NMTAP	3	96	6
NMHLD	3	144	3	144
NMTAP	3	192	6
NMTAP	3	288	6
NMTAP	4	0	2
NMTAP	4	0	6
NMTAP	4	72	2
NMTAP	4	96	6
NMHLD	4	144	2	144
NMTAP	4	192	6
NMTAP	4	288	6
NMTAP	5	0	3
NMTAP	5	0	5
NMTAP	5	72	3
NMTAP	5	96	5
NMSTR	5	144	3
NMSI_	5	144	3	96	48	1
NMTAP	5	192	5
NMTAP	5	288	5
NMTAP	6	0	2
NMTAP	6	0	4
NMTAP	6	72	4
NMTAP	6	96	2
NMSTR	6	144	4
NMSI_	6	144	4	96	48	6
NMTAP	6	192	2
NMTAP	6	288	1
NMTAP	7	0	7
NMTAP	7	48	0
NMTAP	7	96	1
NMTAP	7	96	6
NMTAP	7	144	1
NMTAP	7	144	6
NMTAP	7	192	2
NMTAP	7	224	3
NMTAP	7	256	1
NMTAP	7	288	5
NMTAP	7	320	4
NMTAP	7	352	6
BRHLD	8	0	0	192
NMSTR	8	192	5
BRSV_	8	192	5	96	48	0
BRTAP	8	288	4
NMSTR	9	0	1
NMSI_	9	0	1	96	48	3
NMTAP	9	48	1
NMTAP	9	96	7
NMTAP	9	144	6
NMTAP	9	192	4
NMTAP	9	192	5
NMTAP	9	240	5
NMTAP	9	264	4
NMTAP	9	312	1
NMTAP	9	336	0
NMHLD	10	0	2	96
NMTAP	10	0	7
NMTAP	10	48	6
NMHLD	10	96	5	96
NMTAP	10	144	3
NMHLD	10	192	4	96
NMTAP	10	240	6
NMTAP	10	288	7
NMTAP	10	336	7
NMTAP	11	0	2
NMSTR	11	0	6
NMSI_	11	0	6	96	48	2
NMTAP	11	48	6
NMTAP	11	96	0
NMTAP	11	144	0
NMTAP	11	192	1
NMTAP	11	192	3
NMTAP	11	240	2
NMTAP	11	264	3
NMTAP	11	312	5
NMTAP	11	336	4
NMTAP	12	0	3
NMTAP	12	0	6
NMSTR	12	48	2
NMSCL	12	48	2	96	48	7
NMSTR	12	96	7
NMSCL	12	96	7	96	48	4
NMTAP	12	144	5
NMSTR	12	192	3
BRSI_	12	192	3	96	48	7
EXTAP	12	288	2
NMSTR	13	0	1
NMSI_	13	0	1	96	48	4
NMTAP	13	48	1
NMTAP	13	96	5
NMTAP	13	144	6
NMTAP	13	192	6
NMTAP	13	192	7
NMTAP	13	240	1
NMTAP	13	264	0
NMTAP	13	312	2
NMTAP	13	336	3
NMHLD	14	0	1	96
NMTAP	14	0	3
NMTAP	14	48	4
NMHLD	14	96	5	96
NMTAP	14	144	2
NMHLD	14	192	1	96
NMTAP	14	240	3
NMSTR	14	288	4
NMSCR	14	288	4	96	96	0
NMSTR	15	0	0
NMSCR	15	0	0	96	96	4
NMTAP	15	96	4
NMTAP	15	192	0
NMSTR	15	288	1
NMSI_	15	288	1	96	48	5
NMTAP	15	288	5
NMTAP	16	0	1
NMHLD	16	0	7	96
NMTAP	16	96	4
NMTAP	16	144	4
NMSTR	16	192	3
NMSV_	16	192	3	96	48	0
NMSV_	16	192	3	96	48	6
NMTAP	16	240	2
NMTAP	16	240	4
BRTAP	17	0	1
BRTAP	17	0	5
NMTAP	17	96	1
NMTAP	17	96	5
NMTAP	17	144	0
NMTAP	17	192	0
NMTAP	17	192	6
NMTAP	17	240	5
NMTAP	17	264	4
NMTAP	17	312	2
NMTAP	17	336	3
NMTAP	18	0	1
NMHLD	18	0	4	96
NMTAP	18	48	2
NMHLD	18	96	1	96
NMTAP	18	144	3
NMHLD	18	192	4	96
NMTAP	18	240	2
NMTAP	18	288	0
NMTAP	18	336	0
NMSTR	19	0	1
NMSI_	19	0	1	96	48	5
NMTAP	19	0	4
NMTAP	19	48	1
NMTAP	19	96	7
NMTAP	19	144	7
NMTAP	19	192	3
NMTAP	19	192	6
NMTAP	19	240	5
NMTAP	19	264	4
NMTAP	19	312	2
NMTAP	19	336	3
NMTAP	20	0	1
NMTAP	20	0	4
NMSTR	20	48	5
NMSCR	20	48	5	96	48	0
NMSTR	20	96	0
NMSCR	20	96	0	96	48	3
NMTAP	20	144	2
NMSTR	20	192	4
BRSI_	20	192	4	96	48	0
EXTAP	20	288	5
NMSTR	21	0	6
NMSI_	21	0	6	96	48	3
NMTAP	21	48	6
NMTAP	21	96	2
NMTAP	21	144	1
NMTAP	21	192	0
NMTAP	21	192	7
NMTAP	21	240	5
NMTAP	21	264	4
NMTAP	21	312	2
NMTAP	21	336	3
NMTAP	22	0	1
NMTAP	22	0	4
NMTAP	22	48	1
NMTAP	22	48	4
NMTAP	22	96	2
NMTAP	22	96	5
NMTAP	22	144	3
NMTAP	22	144	6
NMSTR	22	192	4
NMSI_	22	192	4	96	48	0
NMTAP	22	192	7
NMTAP	22	240	6
NMTAP	22	288	5
NMSTR	23	0	1
NMSI_	23	0	1	96	48	5
NMSTR	23	0	7
NMSI_	23	0	7	96	48	5
NMTAP	23	96	1
NMSTR	23	96	7
NMSI_	23	96	7	96	48	3
NMTAP	23	192	2
NMTAP	23	192	7
NMSTR	23	288	1
NMSI_	23	288	1	96	48	6
NMSTR	23	288	5
NMSI_	23	288	5	96	48	2
BRTAP	24	0	1
BRTAP	24	0	5
NMTAP	24	96	3
NMTAP	24	96	7
NMTAP	24	144	0
NMTAP	24	144	4
NMTAP	24	192	1
NMSTR	24	192	5
BRSV_	24	192	5	96	48	0
BRTAP	24	288	4
BRHLD	25	0	2	336
NMTAP	25	96	0
NMSTR	25	144	7
NMSI_	25	144	7	96	48	4
NMTAP	25	240	7
NMHLD	25	336	5	192
BRTAP	26	48	3
NMSTR	26	96	4
NMSLR	26	96	4	96	96	0
NMTAP	26	144	2
EXHLD	26	288	1	432
EXTAP	27	0	0
NMTAP	27	96	0
NMSTR	27	144	7
NMSI_	27	144	7	96	48	4
NMTAP	27	240	7
NMHLD	27	336	5	192
NMTAP	28	48	3
NMSTR	28	96	4
NMSI_	28	96	4	96	48	0
NMTAP	28	144	2
BXTAP	28	288	0
BXTAP	28	288	1
NMHLD	29	0	2	336
NMTAP	29	96	0
NMSTR	29	144	7
NMSI_	29	144	7	96	48	4
NMTAP	29	240	7
NMHLD	29	336	5	192
BRTAP	30	48	3
NMSTR	30	96	4
NMSCR	30	96	4	96	96	0
NMTAP	30	144	2
NMHLD	30	288	1	96
NMSTR	31	0	0
NMSI_	31	0	0	96	48	2
NMTAP	31	96	0
NMHLD	31	96	6	96
NMSTR	31	192	7
NMSI_	31	192	7	96	48	5
NMTAP	31	288	0
NMTAP	31	288	7
EXSTR	32	0	1
NMSI_	32	0	1	96	48	4
EXHLD	32	0	4	96
CNSI_	32	144	4	0	48	2
CNSI_	32	192	2	0	48	0
BXTAP	32	288	1
BXTAP	32	288	6
NMTAP	32	336	7
NMTAP	32	360	0
NMSTR	33	0	7
NMSLL	33	0	7	96	96	0
NMTAP	33	96	4
NMSTR	33	144	4
NMSCL	33	144	4	96	48	1
NMSTR	33	240	7
NMSI_	33	240	7	96	48	4
NMHLD	33	336	0	336
NMTAP	33	336	7
EXTAP	34	48	4
EXTAP	34	96	4
NMTAP	34	144	3
NMTAP	34	192	2
NMTAP	34	240	1
NMTAP	34	288	7
NMTAP	34	336	6
NMTAP	34	360	6
NMSTR	35	0	0
NMSLR	35	0	0	96	96	7
NMTAP	35	96	3
NMSTR	35	144	3
NMSI_	35	144	3	96	48	6
NMSTR	35	240	0
NMSI_	35	240	0	96	48	3
NMTAP	35	336	0
NMHLD	35	336	5	288
EXTAP	36	48	3
EXTAP	36	96	3
NMTAP	36	144	4
NMTAP	36	192	4
NMTAP	36	240	3
NMTAP	36	288	2
NMTAP	36	288	4
NMTAP	36	336	1
NMTAP	36	360	3
NMSTR	37	0	1
NMSI_	37	0	1	96	48	5
NMTAP	37	96	1
NMSTR	37	96	4
NMSCR	37	96	4	96	48	7
NMTAP	37	192	2
NMTAP	37	192	4
NMTAP	37	288	1
NMTAP	37	336	0
NMTAP	37	336	2
NMSTR	38	0	3
NMSLL	38	0	3	96	96	7
NMTAP	38	0	7
NMTAP	38	96	5
NMSTR	38	144	5
NMSI_	38	144	5	96	48	3
EXTAP	38	240	5
NMTAP	38	336	1
NMSTR	39	0	1
NMSI_	39	0	1	96	48	3
NMSTR	39	0	3
NMSI_	39	0	3	96	48	0
NMTAP	39	96	1
NMTAP	39	96	3
NMTAP	39	192	4
NMSTR	39	192	7
NMSCL	39	192	7	96	48	4
NMTAP	39	288	3
NMHLD	39	336	2	336
NMTAP	40	48	3
NMTAP	40	96	3
NMSTR	40	192	4
NMSI_	40	192	4	96	48	7
NMTAP	40	288	4
NMSTR	41	0	0
NMSI_	41	0	0	96	48	3
NMSTR	41	0	2
NMSI_	41	0	2	96	48	0
NMTAP	41	96	0
NMTAP	41	96	2
NMSTR	41	192	4
NMSCR	41	192	4	96	48	7
NMTAP	41	192	7
NMTTP	41	288	0	E	0	M1
NMTHO	41	336	0	240	C	0	M1
NMSTR	42	192	7
BRSF_	42	192	7	96	48	3
NMTTP	42	288	0	C	1	M1
BXTAP	43	0	1
BXTAP	43	0	5
NMTAP	43	96	1
NMTAP	43	96	5
NMTAP	43	144	0
NMTAP	43	192	1
NMTAP	43	192	4
NMTAP	43	240	2
NMTAP	43	264	3
NMTAP	43	312	5
NMTAP	43	336	4
NMSTR	44	0	6
NMSI_	44	0	6	96	48	0
NMTAP	44	48	6
NMSTR	44	96	4
NMSI_	44	96	4	96	48	2
NMTAP	44	144	4
NMTAP	44	192	5
NMTAP	44	240	5
NMTAP	44	288	0
NMTAP	44	288	6
NMTAP	44	336	7
NMSTR	45	0	1
NMSCR	45	0	1	96	48	3
NMTAP	45	48	1
NMTAP	45	96	7
NMTAP	45	144	6
NMTAP	45	192	4
NMTAP	45	192	5
NMTAP	45	240	5
NMTAP	45	264	4
NMTAP	45	312	1
NMTAP	45	336	3
NMSTR	46	0	0
NMSI_	46	0	0	96	48	4
NMSTR	46	48	5
NMSCR	46	48	5	96	48	0
NMSTR	46	96	0
NMSCR	46	96	0	96	48	3
NMTAP	46	144	5
BXSTR	46	192	4
BRSF_	46	192	4	96	48	0
BRTAP	46	288	4
BRTAP	47	0	2
BRTAP	47	0	6
NMTAP	47	96	2
NMTAP	47	96	4
NMTAP	47	144	1
NMTAP	47	192	1
NMTAP	47	192	5
NMTAP	47	240	2
NMTAP	47	264	3
NMTAP	47	312	5
NMTAP	47	336	4
NMTAP	48	0	3
NMSTR	48	0	6
NMSI_	48	0	6	96	48	0
NMTAP	48	48	6
NMSTR	48	96	4
NMSI_	48	96	4	96	48	2
NMTAP	48	144	4
NMSTR	48	192	5
BRSI_	48	192	5	96	48	1
NMTAP	48	240	5
NMSTR	48	288	3
NMSCL	48	288	3	96	144	5
NMSTR	49	0	7
NMSCL	49	0	7	96	96	3
NMTAP	49	96	3
NMTAP	49	192	7
NMHLD	49	288	1	96
NMSTR	49	288	5
NMSV_	49	288	5	96	48	0
NMTAP	50	0	5
NMTAP	50	96	3
NMTAP	50	96	7
NMTAP	50	144	2
NMTAP	50	144	6
NMSTR	50	192	1
NMSI_	50	192	1	96	48	4
NMSTR	50	192	5
NMSI_	50	192	5	96	48	0
NMTAP	50	240	0
NMTAP	50	240	4
BRTAP	50	288	1
BRTAP	50	288	5
BXTAP	51	0	2
BXSTR	51	0	6
NMSCL	51	0	6	96	48	3
NMTAP	51	96	1
NMTAP	51	144	1
NMTAP	51	192	0
NMTAP	51	192	1
NMTAP	51	240	2
NMTAP	51	264	3
NMTAP	51	312	5
NMTAP	51	336	4
NMSTR	52	0	6
NMSI_	52	0	6	96	48	1
NMTAP	52	48	6
NMSTR	52	96	5
NMSI_	52	96	5	96	48	2
NMTAP	52	144	5
NMTAP	52	192	6
NMTAP	52	240	6
NMTAP	52	288	0
NMTAP	52	288	6
NMTAP	52	336	7
NMSTR	53	0	1
NMSI_	53	0	1	96	48	4
NMTAP	53	48	1
NMTAP	53	96	7
NMTAP	53	144	7
NMTAP	53	192	3
NMTAP	53	192	6
NMTAP	53	240	5
NMTAP	53	264	4
NMTAP	53	312	2
NMTAP	53	336	3
NMSTR	54	0	0
NMSI_	54	0	0	96	48	4
NMSTR	54	48	5
NMSCR	54	48	5	96	48	0
NMSTR	54	96	0
NMSCR	54	96	0	96	48	3
NMTAP	54	144	5
BXSTR	54	192	4
BRSF_	54	192	4	96	48	0
BRTAP	54	288	4
NMSTR	55	0	6
NMSI_	55	0	6	96	48	2
NMTAP	55	48	6
NMTAP	55	96	2
NMTAP	55	144	1
NMTAP	55	192	0
NMTAP	55	192	1
NMTAP	55	240	2
NMTAP	55	264	3
NMTAP	55	312	5
NMTAP	55	336	4
NMSTR	56	0	6
NMSI_	56	0	6	96	48	1
NMTAP	56	48	6
NMSTR	56	96	5
NMSI_	56	96	5	96	48	2
NMTAP	56	144	5
NMSTR	56	192	7
NMSI_	56	192	7	96	48	4
NMTAP	56	240	7
NMTAP	56	288	1
NMTAP	56	336	1
NMSTR	57	0	0
NMSI_	57	0	0	96	48	2
NMSTR	57	0	3
NMSI_	57	0	3	96	48	7
NMSTR	57	96	0
NMSI_	57	96	0	96	48	4
NMTAP	57	96	3
NMTAP	57	192	0
NMTAP	57	192	6
NMSTR	57	288	1
NMSI_	57	288	1	96	48	6
NMSTR	57	288	5
NMSI_	57	288	5	96	48	2
BRTAP	58	0	1
BRTAP	58	0	5
NMTAP	58	96	3
NMTAP	58	96	7
NMTAP	58	144	0
NMTAP	58	144	4
NMSTR	58	192	1
BRSCR	58	192	1	96	48	4
NMSTR	58	192	5
BRSV_	58	192	5	96	48	0
BRTAP	58	288	1
BRTAP	58	288	5
NMTTP	59	0	0	C	1	M1
NMTTP	59	0	0	A	0	M1
NMTTP	59	0	0	D	0	M1
NMTTP	59	0	1	A	0	M1
NMTTP	59	0	1	D	0	M1
NMTTP	59	0	2	B	0	M1
NMTTP	59	0	2	A	0	M1
NMTTP	59	0	3	A	0	M1
NMTTP	59	0	3	D	0	M1
NMTTP	59	0	4	A	0	M1
NMTTP	59	0	4	D	0	M1
NMTTP	59	0	5	A	0	M1
NMTTP	59	0	5	D	0	M1
NMTTP	59	0	6	B	0	M1
NMTTP	59	0	6	A	0	M1
NMTTP	59	0	7	A	0	M1
NMTTP	59	0	7	D	0	M1

T_REC_TAP	298
T_REC_BRK	18
T_REC_XTP	8
T_REC_BXX	7
T_REC_HLD	24
T_REC_XHO	2
T_REC_BHO	2
T_REC_BXH	0
T_REC_STR	82
T_REC_BST	0
T_REC_XST	1
T_REC_XBS	3
T_REC_TTP	19
T_REC_THO	1
T_REC_SLD	77
T_REC_BSL	10
T_REC_ALL	552
T_NUM_TAP	408
T_NUM_BRK	40
T_NUM_HLD	27
T_NUM_SLD	77
T_NUM_ALL	552
T_JUDGE_TAP	436
T_JUDGE_HLD	104
T_JUDGE_SLD	87
T_JUDGE_ALL	627
TTM_EACHPAIRS	86
TTM_SCR_TAP	204000
TTM_SCR_BRK	104000
TTM_SCR_HLD	27000
TTM_SCR_SLD	115500
TTM_SCR_ALL	450500
TTM_SCR_S	433150
TTM_SCR_SS	446500
TTM_RAT_ACV	10089

