VERSION	0.00.00	1.04.00
FES_MODE	0
BPM_DEF	149.000	149.000	149.000	149.000
MET_DEF	4	4
RESOLUTION	384
CLK_DEF	384
COMPATIBLE_CODE	MA2

BPM	0	0	149.000
MET	0	0	4	4

NMHLD	1	0	5	384
NMTAP	1	96	4
NMTAP	1	192	4
NMTAP	1	288	3
NMHLD	2	0	2	384
NMTAP	2	96	3
NMTAP	2	192	3
NMTAP	2	288	4
NMHLD	3	0	5	384
NMTAP	3	96	4
NMTAP	3	192	4
NMTAP	3	288	3
NMHLD	4	0	2	192
NMTAP	4	96	3
NMTAP	4	192	3
NMTAP	4	288	1
NMTAP	4	288	4
NMSTR	5	0	5
NMSI_	5	0	5	96	96	0
NMTAP	5	192	1
NMTAP	5	288	1
NMSTR	6	0	2
NMSI_	6	0	2	96	96	7
NMTAP	6	192	6
NMTAP	6	288	6
NMSTR	7	0	5
NMSI_	7	0	5	96	96	0
NMTAP	7	192	1
NMTAP	7	288	1
BRHLD	8	0	2	192
NMTAP	8	192	3
BRTAP	8	288	1
BRTAP	8	288	4
NMTAP	9	0	6
NMTAP	9	0	7
NMTAP	9	96	4
NMTAP	9	192	0
NMTAP	9	192	1
NMTAP	9	288	3
NMHLD	10	0	5	96
NMTAP	10	96	4
NMHLD	10	192	1	96
NMTAP	10	288	0
NMTAP	11	0	0
NMTAP	11	0	1
NMTAP	11	96	3
NMTAP	11	192	6
NMTAP	11	192	7
NMTAP	11	288	4
NMHLD	12	0	2	96
NMTAP	12	96	3
NMTAP	12	192	4
NMTAP	12	192	5
BRTAP	12	288	0
BRTAP	12	288	7
NMTAP	13	0	0
NMTAP	13	0	1
NMTAP	13	96	3
NMTAP	13	192	6
NMTAP	13	192	7
NMTAP	13	288	4
NMHLD	14	0	2	96
NMTAP	14	96	3
NMHLD	14	192	6	96
NMTAP	14	288	7
NMTAP	15	0	6
NMTAP	15	0	7
NMTAP	15	96	4
NMTAP	15	192	0
NMTAP	15	192	1
NMTAP	15	288	3
NMHLD	16	0	5	96
NMTAP	16	96	4
NMTAP	16	192	2
NMTAP	16	192	3
BRTAP	16	288	1
BRTAP	16	288	4
NMHLD	17	0	6	96
NMTAP	17	0	7
NMTAP	17	96	3
NMTAP	17	192	0
NMHLD	17	192	1	96
NMTAP	17	288	4
NMTAP	18	0	6
NMTAP	18	0	7
NMTAP	18	96	5
NMTAP	18	144	5
NMTAP	18	192	4
NMTAP	18	288	2
NMTAP	18	288	3
NMTAP	19	0	0
NMHLD	19	0	1	96
NMTAP	19	96	4
NMHLD	19	192	6	96
NMTAP	19	192	7
NMTAP	19	288	3
NMTAP	20	0	0
NMTAP	20	0	1
NMTAP	20	96	2
NMTAP	20	144	2
NMTAP	20	192	3
BRTAP	20	288	0
BRTAP	20	288	7
NMTAP	21	0	0
NMHLD	21	0	1	96
NMTAP	21	96	4
NMHLD	21	192	6	96
NMTAP	21	192	7
NMTAP	21	288	3
NMTAP	22	0	0
NMTAP	22	0	1
NMTAP	22	96	2
NMTAP	22	144	2
NMTAP	22	192	3
NMTAP	22	288	4
NMTAP	22	288	5
NMHLD	23	0	6	96
NMHLD	23	96	4	96
NMHLD	23	192	3	96
NMHLD	23	288	1	96
NMTAP	24	0	7
NMTAP	24	96	1
NMTAP	24	96	7
NMTAP	24	192	3
NMTAP	24	192	5
BRTAP	24	288	2
BRTAP	24	288	6
NMHLD	25	0	1	96
NMTAP	25	96	0
NMTAP	25	144	0
NMTAP	25	240	1
NMTAP	25	240	3
NMTAP	25	336	4
NMHLD	25	336	6	96
NMTAP	26	48	7
NMTAP	26	96	7
NMSTR	26	192	4
NMSI_	26	192	4	96	96	0
NMTAP	26	192	5
NMHLD	27	0	6	96
NMTAP	27	96	7
NMTAP	27	144	7
NMTAP	27	240	4
NMTAP	27	240	5
NMHLD	27	336	1	96
NMTAP	27	336	3
NMTAP	28	48	0
NMTAP	28	96	0
NMTAP	28	192	2
NMSTR	28	192	3
NMSI_	28	192	3	96	96	7
NMHLD	29	0	1	96
NMTAP	29	96	0
NMTAP	29	144	0
NMTAP	29	240	1
NMTAP	29	240	3
NMTAP	29	336	4
NMHLD	29	336	6	96
NMTAP	30	48	7
NMTAP	30	96	7
NMSTR	30	192	4
NMSI_	30	192	4	96	96	0
NMTAP	30	192	5
NMTAP	31	0	7
NMTAP	31	96	5
NMTAP	31	96	6
NMTAP	31	192	3
NMTAP	31	192	4
NMTAP	31	288	1
NMTAP	31	288	2
NMSTR	32	0	0
NMSCR	32	0	0	96	96	3
NMSTR	32	0	7
NMSCL	32	0	7	96	96	4
BRTAP	32	288	0
BRTAP	32	288	7
NMSTR	33	0	0
BRSI_	33	0	0	96	48	4
NMSTR	33	96	7
NMSI_	33	96	7	96	48	5
NMSTR	33	192	1
NMSI_	33	192	1	96	48	3
NMTTP	34	96	4	B	1	M1
NMTTP	34	192	5	B	0	M1
NMTTP	34	288	3	B	0	M1
NMSTR	35	0	7
BRSI_	35	0	7	96	48	3
NMSTR	35	96	0
NMSI_	35	96	0	96	48	2
NMSTR	35	192	6
NMSI_	35	192	6	96	48	4
NMTTP	36	96	3	B	1	M1
NMTTP	36	192	2	B	0	M1
NMTTP	36	288	4	B	0	M1
NMSTR	37	0	0
BRSI_	37	0	0	96	48	2
NMSTR	37	96	6
NMSI_	37	96	6	96	48	4
NMSTR	37	192	7
NMSI_	37	192	7	96	48	3
NMTTP	38	96	2	B	1	M1
NMTTP	38	192	4	B	0	M1
NMTTP	38	288	3	B	0	M1
NMSTR	39	0	7
BRSI_	39	0	7	96	48	5
NMSTR	39	96	1
NMSI_	39	96	1	96	48	3
NMSTR	39	192	0
NMSI_	39	192	0	96	48	4
NMTTP	40	96	5	B	1	M1
NMTTP	40	192	3	B	0	M1
NMTTP	40	288	4	B	0	M1
EXHLD	41	0	0	96
EXHLD	41	0	7	96
NMTAP	41	192	1
NMTAP	41	192	6
NMTAP	41	288	2
NMTAP	41	288	5
NMSTR	41	336	2
NMSLR	41	336	2	96	144	7
NMSTR	41	336	5
NMSLL	41	336	5	96	144	0
BRTAP	42	288	0
BRTAP	42	288	7
NMTAP	43	0	2
NMTAP	43	0	4
NMTAP	43	96	6
NMTAP	43	144	6
NMTAP	43	192	0
NMSTR	43	288	1
NMSCR	43	288	1	96	96	4
NMSTR	43	288	5
NMSCR	43	288	5	96	96	0
NMTAP	44	192	0
NMHLD	44	192	7	96
NMTAP	44	288	4
NMTAP	45	0	4
NMTAP	45	96	3
NMTAP	45	96	5
NMTAP	45	192	1
NMTAP	45	240	1
NMTAP	45	288	7
NMHLD	46	0	2	96
NMHLD	46	96	0	96
NMHLD	46	192	7	96
BRHLD	46	288	5	96
NMTAP	47	0	3
NMTAP	47	96	1
NMTAP	47	144	1
NMTAP	47	192	7
NMSTR	47	288	2
NMSCL	47	288	2	96	96	7
NMSTR	47	288	6
NMSCL	47	288	6	96	96	3
NMHLD	48	192	0	96
NMTAP	48	192	7
NMTAP	48	288	3
NMSTR	49	0	4
NMSI_	49	0	4	96	96	0
NMSTR	49	192	1
NMSI_	49	192	1	96	96	5
NMHLD	50	0	6	96
NMTAP	50	96	4
NMTAP	50	192	1
NMTAP	50	192	3
BRTAP	50	288	0
BRTAP	50	288	7
NMTAP	51	0	3
NMTAP	51	0	5
NMTAP	51	96	1
NMTAP	51	144	1
NMTAP	51	192	7
NMSTR	51	288	2
NMSCL	51	288	2	96	96	7
NMSTR	51	288	6
NMSCL	51	288	6	96	96	3
NMHLD	52	192	0	96
NMTAP	52	192	7
NMTAP	52	288	3
NMTAP	53	0	3
NMTAP	53	96	2
NMTAP	53	96	4
NMTAP	53	192	6
NMTAP	53	240	6
NMTAP	53	288	0
NMHLD	54	0	5	96
NMHLD	54	96	7	96
NMHLD	54	192	0	96
BRHLD	54	288	2	96
NMTAP	55	0	4
NMTAP	55	96	6
NMTAP	55	144	6
NMTAP	55	192	0
NMSTR	55	288	1
NMSCR	55	288	1	96	96	4
NMSTR	55	288	5
NMSCR	55	288	5	96	96	0
NMTAP	56	192	0
NMHLD	56	192	7	96
NMTAP	56	288	4
NMSTR	57	0	3
NMSI_	57	0	3	96	96	7
NMSTR	57	192	6
NMSI_	57	192	6	96	96	2
NMHLD	58	0	1	96
NMTAP	58	96	3
NMTAP	58	192	4
NMTAP	58	192	6
NMTAP	58	288	0
NMTAP	58	288	7
BRTAP	59	0	1
BRTAP	59	0	6

T_REC_TAP	171
T_REC_BRK	18
T_REC_XTP	0
T_REC_BXX	0
T_REC_HLD	38
T_REC_XHO	2
T_REC_BHO	3
T_REC_BXH	0
T_REC_STR	34
T_REC_BST	0
T_REC_XST	0
T_REC_XBS	0
T_REC_TTP	12
T_REC_THO	0
T_REC_SLD	30
T_REC_BSL	4
T_REC_ALL	312
T_NUM_TAP	217
T_NUM_BRK	25
T_NUM_HLD	40
T_NUM_SLD	30
T_NUM_ALL	312
T_JUDGE_TAP	235
T_JUDGE_HLD	108
T_JUDGE_SLD	34
T_JUDGE_ALL	377
TTM_EACHPAIRS	65
TTM_SCR_TAP	108500
TTM_SCR_BRK	65000
TTM_SCR_HLD	40000
TTM_SCR_SLD	45000
TTM_SCR_ALL	258500
TTM_SCR_S	248350
TTM_SCR_SS	256000
TTM_RAT_ACV	10097

