VERSION	0.00.00	1.04.00
FES_MODE	0
BPM_DEF	130.000	130.000	130.000	130.000
MET_DEF	4	4
RESOLUTION	384
CLK_DEF	576
COMPATIBLE_CODE	MA2

BPM	0	0	130.000
MET	0	0	4	3
MET	21	0	4	4

NMSTR	3	0	4
NMSCR	3	0	4	96	192	7
NMTAP	3	96	3
NMTAP	3	192	2
NMSTR	3	288	1
NMSCR	3	288	1	96	192	4
NMTAP	4	0	0
NMTAP	4	96	7
NMSTR	4	192	6
NMSCR	4	192	6	96	192	1
NMTAP	4	288	5
NMTAP	5	0	4
NMSTR	5	96	3
NMSCR	5	96	3	96	192	6
NMTAP	5	192	2
NMTAP	5	288	1
NMSTR	6	0	0
NMSCR	6	0	0	96	192	3
NMTAP	6	96	7
NMTAP	6	192	6
NMSTR	6	288	5
NMSCR	6	288	5	96	192	0
NMTAP	7	0	4
NMTAP	7	96	3
NMSTR	7	192	2
NMSCR	7	192	2	96	192	5
NMTAP	7	288	1
NMTAP	8	0	0
NMSTR	8	96	7
NMSCR	8	96	7	96	192	2
NMTAP	8	192	6
NMTAP	8	288	5
NMSTR	9	0	4
NMSXL	9	0	4	96	480	7
NMTAP	9	96	3
NMTAP	9	192	3
NMTAP	9	288	2
NMTAP	10	0	2
NMTAP	10	96	1
NMSTR	10	192	1
NMSXL	10	192	1	96	480	4
NMTAP	10	288	0
NMTAP	11	0	0
NMTAP	11	96	7
NMTAP	11	192	7
NMTAP	11	288	6
NMSTR	12	0	6
NMSXL	12	0	6	96	480	1
NMTAP	12	96	5
NMTAP	12	192	5
NMTAP	12	288	4
NMTAP	13	0	4
NMTAP	13	96	3
NMTAP	13	192	3
NMTAP	13	288	2
NMTAP	14	0	2
NMTAP	14	96	3
NMTAP	14	192	4
NMTAP	14	288	4
NMSTR	15	0	3
NMSCL	15	0	3	96	192	0
NMTAP	15	96	4
NMTAP	15	192	5
NMSTR	15	288	6
NMSCL	15	288	6	96	192	3
NMTAP	16	0	7
NMTAP	16	96	0
NMSTR	16	192	1
NMSCL	16	192	1	96	192	6
NMTAP	16	288	2
NMTAP	17	0	3
NMSTR	17	96	4
NMSCL	17	96	4	96	192	1
NMTAP	17	192	5
NMTAP	17	288	6
NMSTR	18	0	7
NMSCL	18	0	7	96	192	4
NMTAP	18	96	0
NMTAP	18	192	1
NMSTR	18	288	2
NMSCL	18	288	2	96	192	7
NMTAP	19	0	3
NMTAP	19	96	4
NMSTR	19	192	5
NMSCL	19	192	5	96	192	2
NMTAP	19	288	6
NMTAP	20	0	7
NMSTR	20	96	0
NMSCL	20	96	0	96	192	5
NMTAP	20	192	1
NMHLD	20	288	2	384
BRSTR	21	288	7
BRSCL	21	288	7	96	144	0
NMTTP	22	0	0	C	1	M1
EXTAP	22	288	0
EXTAP	22	288	7
NMTAP	23	0	0
NMTAP	23	0	7
NMTAP	23	48	6
NMTAP	23	72	4
NMTAP	23	120	1
NMTAP	23	144	3
NMTAP	23	192	2
NMTAP	23	192	4
NMTAP	23	240	3
NMTAP	23	288	4
NMTAP	23	288	6
NMTAP	23	336	7
NMHLD	24	0	7	72
NMHLD	24	72	5	72
NMSTR	24	144	4
NMSCR	24	144	4	96	48	7
NMTAP	24	192	4
NMTAP	24	240	2
NMTAP	24	288	2
NMTAP	25	0	0
NMTAP	25	0	7
NMTAP	25	48	1
NMTAP	25	72	3
NMTAP	25	120	6
NMTAP	25	144	4
NMTAP	25	192	3
NMTAP	25	192	5
NMTAP	25	240	4
NMTAP	25	288	1
NMTAP	25	288	3
NMTAP	25	336	0
NMHLD	26	0	0	72
NMHLD	26	72	2	72
NMSTR	26	144	3
NMSCL	26	144	3	96	48	0
NMTAP	26	192	3
NMTAP	26	240	5
NMTAP	26	288	5
NMTAP	27	0	0
NMTAP	27	0	7
NMTAP	27	48	6
NMTAP	27	72	4
NMTAP	27	120	1
NMTAP	27	144	3
NMTAP	27	192	2
NMTAP	27	192	4
NMTAP	27	240	3
NMTAP	27	288	4
NMTAP	27	288	6
NMTAP	27	336	7
NMHLD	28	0	7	72
NMHLD	28	72	5	72
NMSTR	28	144	4
NMSCR	28	144	4	96	48	7
NMTAP	28	192	4
NMTAP	28	240	2
NMSTR	28	288	3
NMSI_	28	288	3	96	48	0
NMSTR	29	0	7
NMSI_	29	0	7	96	48	4
NMSTR	29	96	1
NMSI_	29	96	1	96	48	6
NMSTR	29	192	5
NMSI_	29	192	5	96	48	2
BRTAP	29	288	0
BRTAP	30	0	7
NMTAP	30	48	0
NMTAP	30	48	6
NMSTR	30	96	1
NMSCL	30	96	1	96	96	6
NMSTR	30	96	5
NMSUR	30	96	5	96	96	2
NMTAP	30	144	2
NMTAP	30	144	4
NMTAP	30	336	4
NMTAP	31	0	5
NMTAP	31	48	6
NMTAP	31	96	7
NMTAP	31	144	0
NMTAP	31	144	7
NMTAP	31	192	0
NMTAP	31	192	7
NMTAP	31	264	1
NMTAP	31	264	3
NMSTR	31	336	4
NMSCL	31	336	4	96	72	0
NMTAP	31	336	6
NMTAP	32	48	5
NMSTR	32	240	0
BRSI_	32	240	0	96	48	5
NMSTR	32	240	1
BRSI_	32	240	1	96	48	4
NMTTP	32	336	0	A	0	M1
NMTTP	32	336	1	A	0	M1
NMTTP	32	336	1	D	1	M1
NMTAP	33	48	6
NMSTR	33	96	7
NMSI_	33	96	7	96	48	3
NMSTR	33	192	7
NMSCL	33	192	7	96	48	4
NMSCR	33	192	7	96	48	2
NMTAP	34	48	3
NMTAP	34	48	5
NMSTR	34	96	2
NMSCR	34	96	2	96	96	5
NMSTR	34	96	6
NMSI_	34	96	6	96	96	1
NMTAP	34	144	1
NMTAP	34	144	7
NMTAP	34	336	0
NMTAP	35	0	7
NMTAP	35	48	6
NMTAP	35	96	5
NMTAP	35	144	3
NMTAP	35	144	4
NMTAP	35	192	3
NMTAP	35	192	4
NMTAP	35	264	4
NMTAP	35	264	6
NMTAP	35	336	1
NMSTR	35	336	3
NMSXL	35	336	3	96	96	5
NMSXR	35	336	3	96	96	1
NMSTR	36	240	6
NMSI_	36	240	6	96	48	3
NMSTR	36	240	7
NMSI_	36	240	7	96	48	2
NMTTP	36	336	6	A	0	M1
NMTTP	36	336	7	A	0	M1
NMTTP	36	336	7	D	1	M1
NMTAP	37	48	1
NMSTR	37	96	0
NMSI_	37	96	0	96	48	3
NMTAP	37	192	0
NMSTR	37	192	4
NMSI_	37	192	4	96	48	7
NMTAP	37	288	3
NMTAP	37	288	4
NMSTR	38	0	2
NMSCL	38	0	2	96	96	6
NMSTR	38	96	6
NMSCR	38	96	6	96	96	2
NMTAP	38	192	4
CNSXR	38	288	2	0	192	3
NMTAP	38	288	5
NMTAP	38	336	5
NMTAP	39	0	5
NMSTR	39	96	7
NMSI_	39	96	7	96	48	4
NMSTR	39	192	3
NMSI_	39	192	3	96	48	0
NMTAP	39	192	7
NMTAP	39	288	3
NMTAP	39	288	4
NMSTR	40	0	5
NMSCR	40	0	5	96	96	1
NMSTR	40	96	1
NMSCL	40	96	1	96	96	5
NMTAP	40	192	3
NMTAP	40	288	2
CNSXL	40	288	5	0	192	4
NMTAP	40	336	2
NMTAP	41	0	2
NMSTR	41	96	0
NMSI_	41	96	0	96	48	3
NMTAP	41	192	0
NMHLD	41	192	6	96
NMSTR	41	288	4
NMSLL	41	288	4	96	96	0
NMTAP	42	0	5
NMTAP	42	48	5
NMTAP	42	96	3
NMTAP	42	144	3
NMHLD	42	192	1	72
NMHLD	42	264	0	72
NMTAP	42	336	7
NMSTR	43	0	4
NMSCR	43	0	4	96	48	7
NMTAP	43	0	6
NMTAP	43	72	3
NMTAP	43	72	4
NMTAP	43	144	1
NMHLD	43	192	1	72
NMHLD	43	264	3	72
NMTAP	43	336	4
NMTAP	44	0	2
NMSTR	44	0	5
NMSI_	44	0	5	96	48	3
NMSLL	44	0	5	96	96	7
CNSV_	44	144	3	0	48	0
BRSTR	44	288	2
NMSI_	44	288	2	96	48	5
BRSTR	44	288	6
NMSI_	44	288	6	96	48	1
BRTAP	45	0	2
BRTAP	45	0	6
BRTAP	45	144	1
BRTAP	45	144	5
BRTAP	45	192	1
BRTAP	45	192	5
EXSTR	45	288	3
NMSCL	45	288	3	96	48	0
EXSTR	45	288	7
NMSCL	45	288	7	96	48	4
NMTAP	46	0	3
NMSTR	46	0	7
NMSUR	46	0	7	96	48	3
NMTAP	46	96	5
NMSTR	46	96	7
NMSCL	46	96	7	96	48	4
NMSTR	46	192	2
NMSCL	46	192	2	96	48	7
NMTAP	46	192	7
NMTAP	46	288	2
NMSTR	46	288	4
NMSV_	46	288	4	96	48	7
NMSTR	47	0	3
NMSV_	47	0	3	96	48	0
NMTAP	47	0	4
NMTAP	47	96	3
NMSTR	47	96	5
NMSCL	47	96	5	96	48	2
NMTAP	47	192	0
NMTAP	47	192	5
NMTAP	47	288	3
NMTAP	47	288	4
NMSTR	47	336	1
NMSCR	47	336	1	96	24	3
NMHLD	48	0	1	192
CNSI_	48	72	3	0	24	0
NMSTR	48	144	6
NMSCL	48	144	6	96	24	4
NMHLD	48	192	6	192
CNSI_	48	264	4	0	24	7
NMSTR	48	336	1
NMSCR	48	336	1	96	24	3
NMHLD	49	0	1	192
CNSI_	49	72	3	0	24	0
NMTAP	49	144	5
NMHLD	49	192	6	96
NMSTR	49	288	4
NMSI_	49	288	4	96	48	0
NMTAP	50	0	5
NMTAP	50	72	7
NMSTR	50	96	7
NMSCL	50	96	7	96	48	4
NMTAP	50	144	3
NMTAP	50	192	1
NMTAP	50	264	2
NMSTR	50	288	2
NMSCL	50	288	2	96	96	7
NMSUR	50	288	2	96	96	7
NMTAP	50	336	4
NMTAP	51	192	6
NMTAP	51	192	7
NMTAP	51	264	3
NMTAP	51	264	5
NMSTR	51	336	1
NMSI_	51	336	1	96	48	3
NMTAP	51	336	4
NMTAP	52	0	1
NMSTR	52	0	4
NMSI_	52	0	4	96	48	6
CNSI_	52	96	3	0	48	7
CNSV_	52	144	6	0	48	7
CNSI_	52	144	7	0	144	2
CNSI_	52	192	7	0	96	2
NMTTP	53	0	5	E	0	M1
NMTTP	53	12	4	E	0	M1
NMTTP	53	24	3	E	0	M1
NMSTR	53	96	1
NMSI_	53	96	1	96	48	6
NMSTR	53	96	5
NMSI_	53	96	5	96	48	2
EXTAP	53	192	1
EXTAP	53	192	5
EXSTR	53	288	0
NMSCR	53	288	0	96	48	3
EXSTR	53	288	4
NMSCR	53	288	4	96	48	7
NMSTR	54	0	0
NMSUL	54	0	0	96	48	4
NMTAP	54	0	4
NMSTR	54	96	0
NMSCR	54	96	0	96	48	3
NMTAP	54	96	2
NMSTR	54	192	0
NMSCL	54	192	0	96	48	5
NMTAP	54	192	7
NMTAP	54	288	0
NMSTR	54	288	4
NMSXR	54	288	4	96	48	2
NMTAP	55	0	4
NMSTR	55	0	7
NMSV_	55	0	7	96	48	4
NMSTR	55	96	1
NMSCL	55	96	1	96	48	6
NMTAP	55	96	7
NMTAP	55	192	1
NMTAP	55	192	5
NMTAP	55	288	3
NMTAP	55	288	4
NMSTR	55	336	5
NMSCR	55	336	5	96	24	7
NMHLD	56	0	5	192
CNSI_	56	72	7	0	48	4
NMSTR	56	144	2
NMSCL	56	144	2	96	24	0
NMHLD	56	192	2	192
CNSI_	56	264	0	0	24	3
NMSTR	56	336	5
NMSCR	56	336	5	96	24	7
NMHLD	57	0	5	192
CNSI_	57	72	7	0	24	4
NMTAP	57	144	3
NMHLD	57	192	2	96
NMSTR	57	288	4
NMSCR	57	288	4	96	96	0
NMTAP	58	0	2
NMTAP	58	72	4
NMSTR	58	96	4
NMSCL	58	96	4	96	96	0
NMTAP	58	144	7
NMTAP	58	192	5
NMTAP	58	264	4
NMSTR	58	288	4
BRSCR	58	288	4	96	96	0
NMTAP	58	336	1
NMTAP	59	0	3
NMTAP	59	72	4
NMSTR	59	96	4
BRSCL	59	96	4	96	96	0
NMTAP	59	144	7
NMTAP	59	192	5
NMTAP	59	264	4
NMSTR	59	288	4
BRSCR	59	288	4	96	144	3
NMTAP	59	336	1
NMHLD	60	0	1	288
NMSTR	60	288	7
BRSF_	60	288	7	96	48	3
BRTAP	60	336	0
BRTAP	60	336	6
BRTAP	61	0	7
NMSTR	61	288	0
BRSCR	61	288	0	96	96	7
NMTTP	62	0	0	C	1	M1
CNSLR	62	96	7	0	96	3
CNSI_	62	192	3	0	48	5
NMTAP	63	0	1
NMTAP	63	0	6
NMTAP	63	48	5
NMTAP	63	72	4
NMTAP	63	120	2
NMTAP	63	144	3
NMSTR	63	192	0
NMSUR	63	192	0	96	48	4
NMSTR	63	192	1
NMSCR	63	192	1	96	48	3
NMTAP	63	240	0
NMTAP	63	240	7
NMTAP	64	0	1
NMTAP	64	0	5
NMTAP	64	48	2
NMTAP	64	72	3
NMTAP	64	120	5
NMTAP	64	144	4
NMSTR	64	192	6
NMSCL	64	192	6	96	48	4
NMSTR	64	192	7
NMSUL	64	192	7	96	48	3
NMTAP	64	240	0
NMTAP	64	240	7
NMSTR	65	0	2
BRSV_	65	0	2	96	48	0
NMSTR	65	0	6
NMSV_	65	0	6	96	48	4
NMTAP	65	48	3
NMTAP	65	48	7
NMTAP	65	192	2
NMTAP	65	192	6
BRSTR	65	264	1
NMSI_	65	264	1	96	24	4
BRSTR	65	264	5
NMSI_	65	264	5	96	24	0
BRTAP	65	336	1
BRTAP	65	336	5

T_REC_TAP	221
T_REC_BRK	13
T_REC_XTP	4
T_REC_BXX	0
T_REC_HLD	21
T_REC_XHO	0
T_REC_BHO	0
T_REC_BXH	0
T_REC_STR	88
T_REC_BST	5
T_REC_XST	4
T_REC_XBS	0
T_REC_TTP	11
T_REC_THO	0
T_REC_SLD	92
T_REC_BSL	9
T_REC_ALL	468
T_NUM_TAP	328
T_NUM_BRK	27
T_NUM_HLD	21
T_NUM_SLD	92
T_NUM_ALL	468
T_JUDGE_TAP	346
T_JUDGE_HLD	64
T_JUDGE_SLD	101
T_JUDGE_ALL	511
TTM_EACHPAIRS	74
TTM_SCR_TAP	164000
TTM_SCR_BRK	70200
TTM_SCR_HLD	21000
TTM_SCR_SLD	138000
TTM_SCR_ALL	393200
TTM_SCR_S	378800
TTM_SCR_SS	390500
TTM_RAT_ACV	10069

