VERSION	0.00.00	1.04.00
FES_MODE	0
BPM_DEF	130.000	130.000	130.000	130.000
MET_DEF	4	4
RESOLUTION	384
CLK_DEF	576
COMPATIBLE_CODE	MA2

BPM	0	0	130.000
MET	0	0	4	3
MET	21	0	4	4

NMSTR	3	0	2
NMSCR	3	0	2	96	384	5
NMSTR	4	192	6
NMSCR	4	192	6	96	384	1
NMSTR	6	0	2
NMSCR	6	0	2	96	384	5
NMSTR	7	192	6
NMSCR	7	192	6	96	384	1
NMHLD	9	0	2	288
NMHLD	9	288	3	288
NMHLD	10	192	4	288
NMHLD	11	96	5	288
NMHLD	12	0	6	288
NMHLD	12	288	7	864
NMHLD	13	192	0	288
BXSTR	15	0	1
NMSCR	15	0	1	96	288	4
NMTAP	16	96	5
NMSTR	16	192	5
NMSCR	16	192	5	96	288	0
NMTAP	17	288	1
NMSTR	18	0	1
NMSI_	18	0	1	96	288	5
NMTAP	19	96	7
NMHLD	19	192	7	864
BXHLD	21	96	0	192
BRSTR	22	0	1
BRSCR	22	0	1	96	192	6
BRTAP	22	0	6
NMTAP	23	0	7
NMTAP	23	96	7
NMTAP	23	192	0
NMTAP	23	192	6
NMTAP	23	288	1
NMTAP	23	288	5
NMTAP	24	0	1
NMTAP	24	0	4
NMTAP	24	96	2
NMTAP	24	144	2
NMTAP	24	192	3
NMSTR	24	288	3
NMSI_	24	288	3	96	96	7
NMTAP	24	288	4
EXTAP	25	192	0
EXTAP	25	192	6
EXTAP	25	288	0
EXTAP	25	288	6
BXTAP	26	0	1
BXTAP	26	0	5
NMTAP	26	96	2
NMTAP	26	144	2
NMTAP	26	192	3
NMTAP	26	288	4
NMTAP	26	288	5
NMTAP	27	0	6
NMTAP	27	0	7
NMTAP	27	96	0
NMTAP	27	96	1
NMTAP	27	192	2
NMTAP	27	192	3
NMTAP	27	288	4
NMTAP	27	288	5
NMTAP	28	0	4
NMTAP	28	0	5
NMTAP	28	96	6
NMTAP	28	144	6
NMTAP	28	192	7
NMTAP	28	288	0
NMTAP	28	288	5
NMTAP	29	0	2
NMTAP	29	0	3
NMTAP	29	96	3
NMTAP	29	96	4
BXTAP	29	192	1
BXTAP	29	192	6
NMSTR	30	0	1
NMSI_	30	0	1	96	96	4
NMSTR	30	192	5
NMSI_	30	192	5	96	96	0
NMSTR	31	0	1
NMSI_	31	0	1	96	96	4
NMTAP	31	192	5
NMTAP	31	288	6
NMTAP	32	0	6
NMTAP	32	0	7
NMTAP	32	96	6
NMTAP	32	96	7
NMTAP	32	192	0
NMTAP	32	240	0
BRTAP	32	336	1
BRTAP	32	336	7
NMTAP	33	48	2
NMTAP	33	48	6
NMTAP	33	96	2
NMTAP	33	96	6
NMHLD	33	192	5	96
NMTAP	33	288	3
NMSTR	34	0	2
NMSI_	34	0	2	96	96	7
NMSTR	34	192	6
NMSI_	34	192	6	96	96	3
NMSTR	35	0	2
NMSI_	35	0	2	96	96	7
NMTAP	35	192	6
NMTAP	35	288	5
NMTAP	36	0	4
NMTAP	36	0	5
NMTAP	36	96	4
NMTAP	36	96	5
NMTAP	36	192	3
NMTAP	36	240	3
BRTAP	36	336	2
BRTAP	36	336	4
NMTAP	37	48	1
NMTAP	37	48	5
NMSTR	37	96	1
NMSI_	37	96	1	96	96	5
NMTAP	37	96	5
NMHLD	38	0	6	96
NMTAP	38	96	4
NMTAP	38	144	4
NMTAP	38	192	5
NMTAP	38	288	3
NMTAP	38	288	4
NMHLD	39	0	1	96
NMTAP	39	96	3
NMTAP	39	144	3
NMTAP	39	192	2
NMTAP	39	288	1
NMTAP	39	288	4
NMTAP	40	0	2
NMTAP	40	0	3
NMTAP	40	96	3
NMTAP	40	96	4
NMTAP	40	192	4
NMTAP	40	192	5
NMTAP	40	288	6
NMTAP	40	336	6
NMTAP	41	0	7
NMTAP	41	96	1
NMTAP	41	144	1
NMTAP	41	192	0
NMTAP	41	288	2
NMTAP	41	288	7
NMHLD	42	0	6	96
NMTAP	42	96	7
NMTAP	42	144	7
NMTAP	42	192	5
NMTAP	42	288	0
NMTAP	42	288	6
NMHLD	43	0	1	96
NMTAP	43	96	0
NMTAP	43	144	0
NMTAP	43	192	2
NMTAP	43	288	1
NMTAP	43	288	7
NMTAP	44	0	0
NMTAP	44	0	6
NMTAP	44	96	1
NMTAP	44	96	5
NMTAP	44	192	2
NMTAP	44	192	4
NMTAP	44	288	3
NMTAP	44	288	5
NMHLD	45	0	3	96
NMHLD	45	0	4	96
EXTAP	45	144	2
EXTAP	45	144	5
EXTAP	45	192	2
EXSTR	45	192	5
NMSI_	45	192	5	96	48	2
NMSTR	46	0	0
NMSI_	46	0	0	96	48	4
NMSTR	46	0	1
NMSI_	46	0	1	96	48	4
NMSTR	46	192	6
NMSI_	46	192	6	96	48	3
NMSTR	46	192	7
NMSI_	46	192	7	96	48	3
NMSTR	47	0	0
NMSI_	47	0	0	96	48	4
NMSTR	47	0	1
NMSI_	47	0	1	96	48	4
NMSTR	47	192	6
NMSI_	47	192	6	96	48	3
NMSTR	47	192	7
NMSI_	47	192	7	96	48	3
NMSTR	48	0	0
NMSI_	48	0	0	96	48	5
NMSTR	48	0	1
NMSI_	48	0	1	96	48	5
NMSTR	48	192	6
NMSI_	48	192	6	96	48	2
NMSTR	48	192	7
NMSI_	48	192	7	96	48	2
NMSTR	49	0	0
NMSI_	49	0	0	96	48	5
NMSTR	49	0	1
NMSI_	49	0	1	96	48	5
EXTAP	49	192	6
EXTAP	49	192	7
EXTAP	49	288	6
EXTAP	49	288	7
NMHLD	50	0	6	72
NMHLD	50	72	5	72
NMTAP	50	144	4
NMHLD	50	192	1	72
NMHLD	50	264	2	72
NMTAP	50	336	3
NMTAP	51	0	3
NMTAP	51	96	2
NMTAP	51	96	4
NMHLD	51	192	5	72
NMHLD	51	264	6	72
NMTAP	51	336	7
NMSTR	52	0	7
NMSCR	52	0	7	96	192	4
EXTAP	53	0	4
EXTAP	53	0	5
NMTAP	53	96	4
NMTAP	53	96	5
NMTAP	53	144	3
NMTAP	53	144	6
EXSTR	53	192	2
NMSI_	53	192	2	96	48	5
NMTAP	53	192	7
NMSTR	54	0	6
NMSI_	54	0	6	96	48	3
NMSTR	54	0	7
NMSI_	54	0	7	96	48	2
NMSTR	54	192	0
NMSI_	54	192	0	96	48	5
NMSTR	54	192	1
NMSI_	54	192	1	96	48	4
NMSTR	55	0	6
NMSI_	55	0	6	96	48	3
NMSTR	55	0	7
NMSI_	55	0	7	96	48	2
NMSTR	55	192	0
NMSI_	55	192	0	96	48	5
NMSTR	55	192	1
NMSI_	55	192	1	96	48	4
NMSTR	56	0	6
NMSI_	56	0	6	96	48	2
NMSTR	56	0	7
NMSI_	56	0	7	96	48	3
NMSTR	56	192	0
NMSI_	56	192	0	96	48	4
NMSTR	56	192	1
NMSI_	56	192	1	96	48	5
NMSTR	57	0	6
NMSCL	57	0	6	96	48	3
NMSTR	57	0	7
NMSCR	57	0	7	96	48	2
EXTAP	57	192	1
EXTAP	57	192	4
EXTAP	57	288	1
EXTAP	57	288	4
NMHLD	58	0	2	72
NMHLD	58	72	1	72
NMTAP	58	144	0
NMHLD	58	192	5	72
NMHLD	58	264	6	72
NMTAP	58	336	7
BRTAP	59	0	7
NMTAP	59	96	0
NMTAP	59	96	6
NMTAP	59	144	0
NMTAP	59	144	6
NMHLD	59	192	0	72
NMHLD	59	192	6	72
NMTAP	59	336	1
NMTAP	59	336	5
NMSTR	60	0	1
NMSCR	60	0	1	96	96	4
NMSTR	60	0	5
NMSCR	60	0	5	96	96	0
BXTAP	60	336	1
BXTAP	60	336	7
BXHLD	61	0	1	288
BXHLD	61	0	7	288
BRSTR	62	0	2
BRSXR	62	0	2	96	384	7
BRSTR	62	0	6
BRSXR	62	0	6	96	384	3
NMTTP	64	0	7	E	0	M1
NMTTP	64	96	6	E	0	M1
NMTTP	64	192	4	E	0	M1
NMTTP	64	192	5	E	0	M1
NMTTP	64	288	2	E	0	M1
NMTTP	64	288	3	E	0	M1
NMHLD	65	0	1	96
NMHLD	65	0	5	96
BRTAP	65	192	2
BRTAP	65	192	3
BRTAP	65	264	4
BRTAP	65	264	5
BRTAP	65	336	1
BRTAP	65	336	7

T_REC_TAP	124
T_REC_BRK	12
T_REC_XTP	17
T_REC_BXX	6
T_REC_HLD	29
T_REC_XHO	0
T_REC_BHO	0
T_REC_BXH	3
T_REC_STR	45
T_REC_BST	3
T_REC_XST	2
T_REC_XBS	1
T_REC_TTP	6
T_REC_THO	0
T_REC_SLD	48
T_REC_BSL	3
T_REC_ALL	299
T_NUM_TAP	194
T_NUM_BRK	28
T_NUM_HLD	29
T_NUM_SLD	48
T_NUM_ALL	299
T_JUDGE_TAP	216
T_JUDGE_HLD	130
T_JUDGE_SLD	51
T_JUDGE_ALL	397
TTM_EACHPAIRS	78
TTM_SCR_TAP	97000
TTM_SCR_BRK	72800
TTM_SCR_HLD	29000
TTM_SCR_SLD	72000
TTM_SCR_ALL	270800
TTM_SCR_S	260000
TTM_SCR_SS	268000
TTM_RAT_ACV	10104

