VERSION	0.00.00	1.04.00
FES_MODE	0
BPM_DEF	163.000	163.000	163.000	 90.000
MET_DEF	4	4
RESOLUTION	384
CLK_DEF	384
COMPATIBLE_CODE	MA2

BPM	0	0	163.000
BPM	103	0	153.000
BPM	104	0	130.000
BPM	104	192	120.000
BPM	105	0	110.000
BPM	105	192	 95.000
BPM	106	0	 90.000
MET	0	0	4	4
MET	35	0	4	3
MET	47	0	4	4

BXHLD	1	0	1	96
BXHLD	1	96	3	96
BXHLD	1	192	5	96
BXHLD	1	288	7	96
BXTAP	2	0	0
BXTAP	2	96	1
BXTAP	2	96	6
BXTAP	2	144	1
BXTAP	2	144	6
BXTAP	2	240	0
BXTAP	2	264	7
BXSTR	2	288	0
NMSCL	2	288	0	96	384	2
NMHLD	3	0	5	768
BXHLD	4	192	0	384
NMHLD	5	192	1	192
NMSTR	6	0	2
BRSI_	6	0	2	96	192	5
BRSCR	6	0	2	96	192	5
NMTAP	7	0	4
NMTAP	7	0	5
NMTAP	7	96	3
NMTAP	7	96	4
EXTAP	7	192	2
EXTAP	7	216	3
EXTAP	7	240	2
EXTAP	7	264	3
EXTAP	7	288	2
NMTAP	8	0	2
NMTAP	8	0	3
NMTAP	8	96	3
NMTAP	8	96	4
EXTAP	8	192	5
EXTAP	8	216	4
EXTAP	8	240	5
EXTAP	8	264	4
EXSTR	8	288	5
NMSCR	8	288	5	96	96	0
NMTAP	9	0	3
NMSTR	9	96	1
NMSCR	9	96	1	96	96	4
NMTAP	9	192	5
NMSTR	9	288	5
NMSI_	9	288	5	96	48	0
NMTAP	10	0	5
NMTAP	10	0	6
BXTAP	10	240	0
BXTAP	10	264	7
BXTAP	10	288	0
NMSTR	11	0	0
NMSI_	11	0	0	96	48	5
NMTAP	11	0	7
NMHLD	11	96	0	48
NMTAP	11	192	0
NMSTR	11	192	7
NMSI_	11	192	7	96	48	2
NMHLD	11	288	7	48
NMSTR	12	0	0
NMSI_	12	0	0	96	48	5
NMTAP	12	0	7
NMHLD	12	96	0	48
NMTAP	12	192	0
NMSTR	12	192	7
NMSI_	12	192	7	96	48	2
NMHLD	12	288	7	48
NMSTR	13	0	0
NMSI_	13	0	0	96	48	5
NMTAP	13	0	7
NMHLD	13	96	0	48
NMTAP	13	192	0
NMSTR	13	192	7
NMSI_	13	192	7	96	48	2
NMHLD	13	288	7	48
NMSTR	14	0	0
NMSCL	14	0	0	96	48	5
NMSCR	14	0	0	96	48	3
NMTAP	14	96	0
EXTAP	14	192	2
EXTAP	14	192	6
BXTAP	14	240	1
BXTAP	14	240	7
BXTAP	14	288	1
BXTAP	14	288	7
NMSTR	15	0	0
NMSI_	15	0	0	96	48	5
NMTAP	15	0	7
NMHLD	15	96	0	48
NMTAP	15	192	0
NMSTR	15	192	7
NMSI_	15	192	7	96	48	3
NMHLD	15	288	7	48
NMSTR	16	0	0
NMSI_	16	0	0	96	48	4
NMTAP	16	0	7
NMHLD	16	96	0	48
NMTAP	16	192	0
NMSTR	16	192	7
NMSI_	16	192	7	96	48	2
NMHLD	16	288	7	48
NMSTR	17	0	0
NMSI_	17	0	0	96	48	5
NMTAP	17	0	7
NMHLD	17	96	0	48
NMTAP	17	192	0
NMSTR	17	192	7
NMSI_	17	192	7	96	48	3
NMHLD	17	288	7	48
NMSTR	18	0	0
NMSI_	18	0	0	96	48	4
NMTAP	18	0	7
NMSTR	18	96	0
NMSCL	18	96	0	96	48	5
NMSCR	18	96	0	96	48	3
NMTAP	18	192	0
BXTAP	18	288	3
BXTAP	18	288	5
NMSTR	19	0	2
NMSI_	19	0	2	96	48	6
NMTAP	19	24	3
NMTAP	19	48	2
NMTAP	19	72	3
NMSTR	19	192	4
NMSI_	19	192	4	96	48	0
NMTAP	19	216	3
NMTAP	19	240	4
NMTAP	19	264	3
NMTAP	20	0	1
NMTAP	20	24	7
NMTAP	20	48	1
NMTAP	20	72	7
NMSTR	20	96	2
NMSV_	20	96	2	96	48	0
NMSTR	20	120	6
NMSV_	20	120	6	96	24	4
NMTAP	20	144	2
NMTAP	20	168	6
NMTAP	21	0	5
NMTAP	21	24	6
NMTAP	21	48	7
NMTAP	21	72	0
NMTAP	21	96	1
NMTAP	21	120	2
NMTAP	21	144	3
NMTAP	21	168	4
NMTAP	21	192	5
NMTAP	21	288	4
NMTAP	21	288	6
NMTAP	22	0	2
NMTAP	22	24	1
NMTAP	22	48	0
NMTAP	22	72	7
NMTAP	22	96	6
NMTAP	22	120	5
NMTAP	22	144	4
NMTAP	22	168	3
NMTAP	22	192	2
NMTAP	22	288	1
NMTAP	22	288	3
NMHLD	23	0	2	96
NMHLD	23	0	4	96
NMHLD	23	192	5	96
NMTAP	23	240	4
NMTAP	23	288	4
NMHLD	24	0	3	96
NMHLD	24	0	5	96
NMHLD	24	192	2	96
NMTAP	24	240	3
NMSTR	24	288	3
NMSXL	24	288	3	96	192	7
NMHLD	25	0	1	288
NMSTR	25	288	6
NMSCL	25	288	6	96	96	3
NMSTR	26	0	0
BRSSL	26	0	0	96	192	4
NMTAP	27	0	5
NMTAP	27	24	4
NMTAP	27	48	5
NMTAP	27	72	4
NMTAP	27	96	6
NMTAP	27	120	4
NMTAP	27	144	6
NMTAP	27	168	4
NMTAP	27	192	7
NMTAP	27	240	6
NMTAP	27	288	3
NMTAP	27	288	5
NMTAP	27	336	5
NMTAP	28	0	2
NMTAP	28	24	3
NMTAP	28	48	2
NMTAP	28	72	3
NMTAP	28	96	1
NMTAP	28	120	3
NMTAP	28	144	1
NMTAP	28	168	3
NMTAP	28	192	0
NMTAP	28	240	1
NMTAP	28	288	2
NMTAP	28	288	4
NMTAP	28	336	2
NMTAP	29	0	5
NMTAP	29	24	4
NMTAP	29	48	5
NMTAP	29	72	4
NMTAP	29	96	6
NMTAP	29	120	4
NMTAP	29	144	6
NMTAP	29	168	4
NMTAP	29	192	7
NMTAP	29	240	6
NMTAP	29	288	2
NMTAP	29	288	5
NMTAP	29	336	1
NMSTR	30	0	0
NMSI_	30	0	0	96	48	3
NMSCR	30	0	0	96	48	3
NMSTR	30	192	7
NMSI_	30	192	7	96	48	4
NMSUR	30	192	7	96	48	4
NMTAP	31	0	1
NMTAP	31	24	3
NMTAP	31	48	1
NMTAP	31	72	3
NMTAP	31	96	2
NMTAP	31	120	3
NMTAP	31	144	2
NMTAP	31	168	3
NMTAP	31	192	1
NMTAP	31	240	0
NMTAP	31	288	1
NMTAP	31	288	7
NMTAP	31	336	7
NMTAP	32	0	6
NMTAP	32	24	4
NMTAP	32	48	6
NMTAP	32	72	4
NMTAP	32	96	5
NMTAP	32	120	4
NMTAP	32	144	5
NMTAP	32	168	4
NMTAP	32	192	6
NMTAP	32	240	7
NMTAP	32	288	0
NMTAP	32	288	6
NMTAP	32	336	1
NMTAP	32	336	5
NMTAP	33	0	2
NMTAP	33	24	4
NMTAP	33	48	2
NMTAP	33	72	4
NMTAP	33	96	3
NMTAP	33	120	5
NMTAP	33	144	3
NMTAP	33	168	5
NMTAP	33	192	2
NMTAP	33	216	6
NMTAP	33	240	2
NMTAP	33	264	6
NMSTR	33	288	1
NMSI_	33	288	1	96	48	5
NMTAP	33	336	0
BRTAP	34	0	1
NMTAP	34	0	7
NMTAP	34	96	7
NMTAP	34	192	6
NMTAP	34	288	6
NMSTR	35	0	4
NMSCL	35	0	4	96	96	0
NMTAP	35	0	5
NMTAP	35	96	7
NMTAP	35	192	5
NMSTR	35	288	3
NMSCR	35	288	3	96	96	7
NMTAP	36	0	0
NMTAP	36	96	2
NMSTR	36	192	4
NMSCL	36	192	4	96	96	0
NMTAP	36	288	7
NMTAP	37	0	5
NMTAP	37	96	3
NMTAP	37	192	0
NMTAP	37	288	1
NMTAP	38	0	2
NMSTR	38	0	3
NMSCR	38	0	3	96	96	7
NMTAP	38	96	0
NMTAP	38	192	2
NMSTR	38	288	4
NMSCL	38	288	4	96	96	0
NMTAP	39	0	7
NMTAP	39	96	5
NMSTR	39	192	3
NMSCR	39	192	3	96	96	7
NMTAP	39	288	0
NMTAP	40	0	2
NMTAP	40	96	4
NMTAP	40	192	7
NMTAP	40	288	5
NMTAP	41	0	2
NMSTR	41	0	4
NMSCR	41	0	4	96	96	0
NMTAP	41	96	0
NMTAP	41	192	2
NMSTR	41	288	3
NMSCL	41	288	3	96	96	7
NMTAP	42	0	7
NMTAP	42	96	5
NMSTR	42	192	4
NMSCR	42	192	4	96	96	0
NMTAP	42	288	0
NMTAP	43	0	1
NMTAP	43	96	0
NMTAP	43	96	2
NMTAP	43	192	1
NMTAP	43	192	3
NMTAP	43	288	2
NMTAP	43	288	4
NMTAP	44	0	3
NMHLD	44	0	5	96
NMHLD	44	96	6	96
NMHLD	44	192	7	96
NMHLD	44	288	0	96
NMHLD	45	0	1	96
NMSTR	45	96	2
NMSXR	45	96	2	96	216	2
CNSXL	46	24	2	0	216	2
NMSTR	47	0	4
NMSI_	47	0	4	96	48	6
NMSXR	47	0	4	96	48	4
NMSTR	47	192	0
NMSI_	47	192	0	96	48	2
NMSXR	47	192	0	96	48	0
EXTAP	48	0	3
NMTAP	48	48	4
NMTAP	48	96	5
NMTAP	48	144	6
NMSTR	48	192	7
NMSI_	48	192	7	96	48	3
NMSTR	48	240	2
NMSI_	48	240	2	96	48	0
NMTAP	48	288	7
NMTAP	48	336	2
NMSTR	49	0	4
NMSI_	49	0	4	96	48	6
NMSXR	49	0	4	96	48	4
NMSTR	49	192	0
NMSI_	49	192	0	96	48	2
NMSXR	49	192	0	96	48	0
EXTAP	50	0	3
NMTAP	50	48	4
NMTAP	50	96	3
NMTAP	50	96	5
NMTAP	50	144	2
NMTAP	50	192	1
NMTAP	50	192	3
NMTAP	50	240	0
EXTAP	50	288	1
EXTAP	50	288	7
NMHLD	51	0	6	72
NMHLD	51	72	5	72
NMTAP	51	144	4
NMTAP	51	192	3
NMSTR	51	192	6
NMSI_	51	192	6	96	48	2
NMTAP	51	288	0
NMTAP	51	336	0
NMHLD	52	0	1	72
NMHLD	52	72	2	72
NMTAP	52	144	3
NMSTR	52	192	1
NMSI_	52	192	1	96	48	4
NMSTR	52	192	4
NMSI_	52	192	4	96	48	0
EXTAP	53	0	0
EXTAP	53	72	1
EXTAP	53	72	7
NMTAP	53	144	3
NMTAP	53	192	3
NMTAP	53	240	2
NMTAP	53	288	1
NMSTR	53	288	3
NMSCR	53	288	3	96	144	1
NMTAP	53	336	2
NMTAP	53	336	4
NMTAP	54	0	3
NMTAP	54	0	5
BXTAP	54	240	7
BXTAP	54	264	0
BXSTR	54	288	7
NMSCL	54	288	7	96	48	3
NMSCR	54	288	7	96	48	3
EXTAP	55	0	7
EXTAP	55	96	0
EXTAP	55	96	6
NMTAP	55	168	1
NMTAP	55	192	1
NMTAP	55	192	4
NMTAP	55	240	2
NMTAP	55	288	3
NMTAP	55	288	5
NMTAP	55	336	6
NMTAP	56	0	2
NMSTR	56	0	5
BRSCL	56	0	5	96	48	2
NMTAP	56	48	6
NMHLD	56	96	0	96
NMTAP	56	96	5
BXTAP	56	192	7
NMTAP	56	288	6
NMTAP	56	288	7
NMTAP	56	336	0
NMTAP	56	336	5
NMTAP	57	0	1
NMSTR	57	0	4
NMSI_	57	0	4	96	48	0
NMTAP	57	96	3
NMTAP	57	96	4
NMHLD	57	192	1	72
NMTAP	57	264	0
NMTAP	57	288	1
NMTAP	57	336	2
NMTAP	57	336	7
NMTAP	58	0	3
NMTAP	58	0	6
NMTAP	58	48	4
NMTAP	58	48	5
NMSTR	58	96	6
NMSI_	58	96	6	96	48	2
NMTAP	58	192	2
NMTAP	58	192	6
BRTAP	58	240	0
BRSTR	58	288	0
NMSUL	58	288	0	96	48	3
NMSUR	58	288	0	96	48	5
EXTAP	59	0	0
EXTAP	59	96	1
EXTAP	59	96	7
NMTAP	59	168	6
NMTAP	59	192	3
NMTAP	59	192	6
NMTAP	59	240	5
NMTAP	59	288	2
NMTAP	59	288	4
NMTAP	59	336	1
NMSTR	60	0	3
NMSI_	60	0	3	96	48	1
NMSTR	60	0	5
NMSI_	60	0	5	96	48	7
NMTAP	60	48	6
NMTAP	60	96	3
NMTAP	60	96	5
EXTAP	60	192	0
NMTAP	60	288	0
NMTAP	60	288	1
NMTAP	60	336	2
NMTAP	60	336	7
NMTAP	61	0	3
NMTAP	61	0	6
NMTAP	61	48	4
NMTAP	61	48	5
NMTAP	61	96	1
NMTAP	61	96	4
NMTAP	61	144	2
NMTAP	61	144	3
NMHLD	61	192	5	72
EXTAP	61	264	4
EXTAP	61	288	5
NMTAP	61	336	3
NMTAP	61	336	6
NMSTR	62	0	2
NMSI_	62	0	2	96	48	7
NMSTR	62	0	7
NMSI_	62	0	7	96	48	4
NMTAP	62	96	2
NMTAP	62	96	7
NMTAP	62	192	0
NMTAP	62	192	6
BRTAP	62	240	1
BRTAP	62	240	7
BRTAP	62	288	1
BRTAP	62	288	7
NMSTR	63	0	0
NMSI_	63	0	0	96	48	5
NMTAP	63	0	1
NMHLD	63	96	0	48
NMTAP	63	192	6
NMSTR	63	192	7
NMSI_	63	192	7	96	48	2
NMHLD	63	288	7	48
NMTAP	64	0	0
NMSTR	64	0	1
NMSI_	64	0	1	96	48	4
NMHLD	64	96	1	48
NMSTR	64	192	6
NMSI_	64	192	6	96	48	3
NMTAP	64	192	7
NMHLD	64	288	6	48
NMSTR	65	0	0
NMSI_	65	0	0	96	48	5
NMTAP	65	0	1
NMHLD	65	96	0	48
NMTAP	65	192	6
NMSTR	65	192	7
NMSI_	65	192	7	96	48	2
NMHLD	65	288	7	48
NMSTR	66	0	3
NMSCL	66	0	3	96	48	0
NMSTR	66	96	3
NMSCR	66	96	3	96	48	6
NMTAP	66	192	3
BXTAP	66	240	0
BXTAP	66	288	1
BXTAP	66	288	7
NMSTR	67	0	0
NMSI_	67	0	0	96	48	5
NMTAP	67	0	1
NMHLD	67	96	0	48
NMTAP	67	192	6
NMSTR	67	192	7
NMSI_	67	192	7	96	48	2
NMHLD	67	288	7	48
NMTAP	68	0	0
NMSTR	68	0	1
NMSI_	68	0	1	96	48	4
NMHLD	68	96	1	48
NMSTR	68	192	6
NMSI_	68	192	6	96	48	3
NMTAP	68	192	7
NMHLD	68	288	6	48
NMSTR	69	0	0
NMSI_	69	0	0	96	48	5
NMTAP	69	0	1
NMHLD	69	96	0	48
NMTAP	69	192	6
NMSTR	69	192	7
NMSI_	69	192	7	96	48	2
NMHLD	69	288	7	48
NMSTR	70	0	3
NMSCL	70	0	3	96	48	0
NMSCR	70	0	3	96	48	6
NMTAP	70	96	3
EXTAP	70	192	0
EXTAP	70	192	6
BRTAP	70	240	1
BRTAP	70	240	7
BRSTR	70	288	1
NMSXL	70	288	1	96	672	4
BRTAP	70	288	7
NMTTP	71	0	2	B	0	M1
NMTTP	71	0	3	B	0	M1
NMTTP	71	0	3	E	1	M1
BXTAP	72	288	5
BXSTR	73	0	5
BRSXL	73	0	5	96	576	0
BXTAP	74	288	1
BXHLD	75	0	1	48
NMHLD	75	96	1	48
NMHLD	75	192	2	48
NMHLD	75	192	3	48
NMHLD	75	288	2	48
NMHLD	75	288	3	48
NMHLD	76	0	3	48
NMHLD	76	0	4	48
NMHLD	76	96	3	48
NMHLD	76	96	4	48
NMTTP	76	192	0	C	1	M1
NMTTP	76	192	2	B	0	M1
NMTTP	76	192	2	A	0	M1
NMTTP	76	192	3	B	0	M1
NMTTP	76	192	4	B	0	M1
NMTTP	76	192	5	B	0	M1
NMTTP	76	192	5	A	0	M1
NMHLD	77	0	6	48
NMHLD	77	0	7	48
NMHLD	77	96	0	48
NMHLD	77	96	7	48
NMHLD	77	192	0	48
NMHLD	77	192	1	48
NMTAP	77	288	0
NMSTR	77	288	1
NMSCL	77	288	1	96	192	4
NMSXR	77	288	1	96	192	4
NMTAP	79	0	5
NMTAP	79	24	4
NMTAP	79	48	5
NMTAP	79	72	4
NMTAP	79	96	6
NMTAP	79	120	3
NMTAP	79	144	6
NMTAP	79	168	3
BRTAP	79	192	5
BRTAP	79	216	4
BRTAP	79	240	6
BRTAP	79	264	3
BRTAP	79	288	7
NMTAP	80	0	2
NMTAP	80	24	3
NMTAP	80	48	2
NMTAP	80	72	3
NMSTR	80	96	1
NMSCR	80	96	1	96	48	4
NMTAP	80	120	0
NMSTR	80	144	1
NMSUL	80	144	1	96	48	4
NMTAP	80	168	0
NMTAP	80	192	1
NMTAP	81	0	6
NMTAP	81	0	7
NMTAP	81	48	6
NMTAP	81	48	7
NMTAP	81	96	0
NMTAP	81	144	1
NMTAP	81	192	2
NMTAP	81	192	4
NMTAP	81	240	3
NMTAP	81	240	5
NMSTR	81	288	4
NMSUL	81	288	4	96	168	1
NMSXL	81	288	4	96	168	0
NMTAP	81	288	6
BXTAP	82	240	7
BXTAP	82	264	0
BXSTR	82	288	7
NMSCL	82	288	7	96	48	3
NMSCR	82	288	7	96	48	3
EXTAP	83	0	7
EXTAP	83	96	0
EXTAP	83	96	6
NMTAP	83	168	1
NMTAP	83	192	1
NMTAP	83	192	4
NMTAP	83	240	2
NMTAP	83	288	3
NMTAP	83	288	6
NMTAP	83	336	7
NMSTR	84	0	0
NMSUL	84	0	0	96	48	4
NMSTR	84	0	6
NMSUR	84	0	6	96	48	2
NMTAP	84	48	1
NMTAP	84	48	5
NMTAP	84	96	0
NMTAP	84	96	6
BXTAP	84	192	1
BXTAP	84	192	5
NMTAP	84	288	0
NMTAP	84	288	1
NMTAP	84	336	2
NMTAP	84	336	7
NMSTR	85	0	3
NMSI_	85	0	3	96	48	7
NMTAP	85	0	6
NMTAP	85	96	3
NMTAP	85	96	4
NMHLD	85	192	6	72
NMTAP	85	264	7
NMTAP	85	288	6
NMTAP	85	336	0
NMTAP	85	336	5
NMTAP	86	0	1
NMSTR	86	0	4
NMSI_	86	0	4	96	48	0
NMTAP	86	48	2
NMTAP	86	48	3
NMSTR	86	96	1
NMSUR	86	96	1	96	48	5
NMTAP	86	96	4
NMTAP	86	192	1
NMTAP	86	192	5
BRTAP	86	240	7
BRSTR	86	288	7
BRSUL	86	288	7	96	48	2
BRSUR	86	288	7	96	48	4
EXTAP	87	0	7
EXTAP	87	96	0
EXTAP	87	96	6
NMTAP	87	168	1
NMTAP	87	192	1
NMTAP	87	192	3
NMTAP	87	240	2
NMTAP	87	288	3
NMTAP	87	288	4
NMSTR	87	336	5
NMSXL	87	336	5	96	144	3
NMSTR	88	0	2
NMSXR	88	0	2	96	96	4
NMTAP	88	48	5
NMTAP	88	96	2
NMTTP	88	192	4	E	1	M1
NMTAP	88	288	6
NMTAP	88	288	7
NMTAP	88	336	0
NMTAP	88	336	5
NMSTR	89	0	1
NMSI_	89	0	1	96	48	4
NMSTR	89	0	4
NMSI_	89	0	4	96	48	7
NMTAP	89	96	1
NMTAP	89	96	4
EXHLD	89	192	7	72
NMTAP	89	264	0
NMSTR	89	288	7
BRSV_	89	288	7	96	24	5
BRSV_	89	288	7	96	48	5
NMTAP	89	336	1
NMTAP	89	336	6
CNSI_	90	24	5	0	24	3
CNSCL	90	48	3	0	48	0
CNSI_	90	48	5	0	24	3
CNSI_	90	72	3	0	24	0
NMTAP	90	192	2
NMTAP	90	192	6
BRTAP	90	240	1
BRTAP	90	240	7
BRTAP	90	288	1
BRTAP	90	288	7
NMSTR	91	0	0
NMSI_	91	0	0	96	48	5
NMTAP	91	0	1
NMHLD	91	96	0	48
NMTAP	91	192	6
NMSTR	91	192	7
NMSI_	91	192	7	96	48	2
NMHLD	91	288	7	48
NMSTR	92	0	0
NMSI_	92	0	0	96	48	4
NMTAP	92	0	1
NMHLD	92	96	0	48
NMSTR	92	192	6
NMSI_	92	192	6	96	48	2
NMTAP	92	192	7
NMHLD	92	288	6	48
BXTAP	93	0	0
EXTAP	93	16	1
EXTAP	93	32	2
BXTAP	93	48	7
EXTAP	93	64	6
EXTAP	93	80	5
BXTAP	93	96	1
EXTAP	93	112	2
EXTAP	93	128	3
BXTAP	93	144	6
EXTAP	93	160	5
EXTAP	93	176	4
BXTAP	93	192	0
EXTAP	93	208	1
EXTAP	93	224	2
BXTAP	93	240	7
EXTAP	93	256	6
EXTAP	93	272	5
BXTAP	93	288	1
EXTAP	93	304	2
EXTAP	93	320	3
BXTAP	93	336	6
EXTAP	93	352	5
EXTAP	93	368	4
BXTAP	94	0	0
BXTAP	94	16	1
BXTAP	94	32	2
BXTAP	94	48	7
BXTAP	94	64	6
BXTAP	94	80	5
BXTAP	94	96	1
BXTAP	94	112	2
BXTAP	94	128	3
BXTAP	94	144	6
BXTAP	94	160	5
BXTAP	94	176	4
BXTAP	94	192	0
BXTAP	94	208	1
BXTAP	94	224	2
BXTAP	94	240	7
BXTAP	94	256	6
BXTAP	94	272	5
NMTTP	94	288	0	C	1	M1
BXTAP	94	288	4
EXTAP	95	0	6
EXSTR	95	0	7
NMSI_	95	0	7	96	48	2
NMHLD	95	96	7	48
NMSTR	95	192	0
NMSI_	95	192	0	96	48	5
NMTAP	95	192	1
NMHLD	95	288	0	48
NMSTR	96	0	6
BRSI_	96	0	6	96	48	2
NMTAP	96	0	7
NMHLD	96	96	6	48
NMTAP	96	192	0
NMSTR	96	192	1
BRSI_	96	192	1	96	48	5
NMHLD	96	288	1	48
NMSTR	97	0	6
BRSI_	97	0	6	96	48	3
NMTAP	97	0	7
NMHLD	97	96	6	48
NMSTR	97	192	0
BRSI_	97	192	0	96	48	4
NMTAP	97	192	1
NMHLD	97	288	0	48
NMTAP	98	0	6
NMSTR	98	0	7
NMSCR	98	0	7	96	48	2
NMSTR	98	96	7
NMSCL	98	96	7	96	48	4
NMTAP	98	192	3
NMTAP	98	192	7
NMTAP	98	240	2
EXSTR	98	288	1
BRSI_	98	288	1	96	48	4
EXSTR	98	288	3
BRSI_	98	288	3	96	48	7
BRTAP	99	0	1
BRSTR	99	0	3
NMSCL	99	0	3	96	624	4
NMTTP	99	1	0	C	1	M1
CNSUL	100	336	4	0	624	3
NMHLD	103	0	1	192
NMHLD	103	192	2	192
NMHLD	104	0	3	192
NMHLD	104	192	4	192
NMHLD	105	0	5	192
NMTAP	105	192	6
NMTAP	105	288	6
NMTAP	106	0	7
NMSTR	106	96	7
BRSI_	106	96	7	96	384	3
NMHLD	106	192	7	384

T_REC_TAP	365
T_REC_BRK	20
T_REC_XTP	52
T_REC_BXX	55
T_REC_HLD	77
T_REC_XHO	1
T_REC_BHO	0
T_REC_BXH	6
T_REC_STR	96
T_REC_BST	4
T_REC_XST	4
T_REC_XBS	4
T_REC_TTP	13
T_REC_THO	0
T_REC_SLD	109
T_REC_BSL	16
T_REC_ALL	822
T_NUM_TAP	530
T_NUM_BRK	105
T_NUM_HLD	78
T_NUM_SLD	109
T_NUM_ALL	822
T_JUDGE_TAP	613
T_JUDGE_HLD	172
T_JUDGE_SLD	125
T_JUDGE_ALL	910
TTM_EACHPAIRS	151
TTM_SCR_TAP	265000
TTM_SCR_BRK	273000
TTM_SCR_HLD	78000
TTM_SCR_SLD	163500
TTM_SCR_ALL	779500
TTM_SCR_S	745950
TTM_SCR_SS	769000
TTM_RAT_ACV	10136

