VERSION	0.00.00	1.04.00
FES_MODE	0
BPM_DEF	163.000	163.000	163.000	 90.000
MET_DEF	4	4
RESOLUTION	384
CLK_DEF	384
COMPATIBLE_CODE	MA2

BPM	0	0	163.000
BPM	103	0	153.000
BPM	104	0	130.000
BPM	104	192	120.000
BPM	105	0	110.000
BPM	105	192	 95.000
BPM	106	0	 90.000
MET	0	0	4	4
MET	35	0	4	3
MET	47	0	4	4

BXTAP	1	0	0
BXTAP	1	96	2
BXTAP	1	192	4
BXTAP	1	288	6
BXTAP	2	0	0
NMTAP	2	96	1
NMTAP	2	96	6
NMTAP	2	144	1
NMTAP	2	144	6
BXTAP	2	240	0
BXTAP	2	264	7
BXTAP	2	288	0
EXHLD	3	0	6	192
NMHLD	3	192	5	192
NMHLD	4	0	4	192
BXSTR	4	192	3
BRSI_	4	192	3	96	96	7
NMHLD	5	0	6	192
NMHLD	5	192	4	192
NMSTR	6	0	2
NMSI_	6	0	2	96	192	5
NMSCR	6	0	2	96	192	5
NMTAP	7	0	0
NMTAP	7	0	7
NMTAP	7	96	1
EXTAP	7	192	0
EXTAP	7	192	2
EXTAP	7	288	0
EXTAP	7	288	2
NMTAP	8	0	3
NMTAP	8	96	4
EXTAP	8	192	3
EXTAP	8	192	5
EXTAP	8	288	3
EXTAP	8	288	5
NMTAP	9	0	6
NMTAP	9	96	5
NMTAP	9	96	7
NMTAP	9	192	1
NMSTR	9	288	0
NMSI_	9	288	0	96	96	3
NMSI_	9	288	0	96	96	5
NMTAP	9	288	2
EXTAP	10	240	2
EXTAP	10	240	6
EXTAP	10	288	2
EXTAP	10	288	6
NMTAP	11	0	0
NMHLD	11	0	1	96
NMTAP	11	96	5
NMHLD	11	192	6	96
NMTAP	11	192	7
NMTAP	11	288	2
NMTAP	12	0	0
NMHLD	12	0	1	96
NMTAP	12	96	5
NMHLD	12	192	6	96
NMTAP	12	192	7
NMTAP	12	288	2
NMTAP	13	0	0
NMHLD	13	0	1	96
NMTAP	13	96	4
NMHLD	13	192	6	96
NMTAP	13	192	7
NMTAP	13	288	3
EXTAP	14	0	0
EXTAP	14	0	1
EXTAP	14	96	2
EXTAP	14	96	7
EXTAP	14	192	3
EXTAP	14	192	6
EXTAP	14	288	4
EXTAP	14	288	5
NMHLD	15	0	6	96
NMTAP	15	0	7
NMTAP	15	96	2
NMTAP	15	192	0
NMHLD	15	192	1	96
NMTAP	15	288	5
NMHLD	16	0	6	96
NMTAP	16	0	7
NMTAP	16	96	2
NMTAP	16	192	0
NMHLD	16	192	1	96
NMTAP	16	288	5
NMHLD	17	0	6	96
NMTAP	17	0	7
NMTAP	17	96	3
NMTAP	17	192	0
NMHLD	17	192	1	96
NMTAP	17	288	4
EXTAP	18	0	6
EXTAP	18	0	7
EXTAP	18	96	0
EXTAP	18	96	5
EXTAP	18	192	1
EXTAP	18	192	4
BRTAP	18	288	0
BRTAP	18	288	7
NMSTR	19	0	6
NMSI_	19	0	6	96	96	2
NMSTR	19	192	1
NMSI_	19	192	1	96	96	5
NMSTR	20	0	6
NMSI_	20	0	6	96	96	2
NMSTR	20	96	0
NMSI_	20	96	0	96	96	4
NMSTR	21	0	0
NMSI_	21	0	0	96	96	2
NMSI_	21	0	0	96	96	6
CNSI_	21	192	2	0	96	4
CNSI_	21	192	6	0	96	4
NMSTR	22	0	0
NMSF_	22	0	0	96	96	4
NMSTR	23	0	4
NMSI_	23	0	4	96	96	7
NMHLD	23	0	5	672
NMTAP	24	0	7
NMTAP	24	96	0
NMTAP	24	192	1
NMTAP	24	288	2
NMHLD	25	0	3	96
NMHLD	25	96	4	96
NMHLD	25	192	5	96
NMHLD	25	288	6	96
NMSTR	26	0	7
BRSSR	26	0	7	96	192	3
NMHLD	27	0	2	1440
NMTAP	27	96	4
NMTAP	27	192	3
NMTAP	27	288	1
NMTAP	28	0	3
NMTAP	28	96	5
NMTAP	28	192	4
NMTAP	28	288	7
NMTAP	29	0	5
NMTAP	29	96	4
NMTAP	29	192	3
NMTAP	29	288	1
NMSTR	30	0	3
NMSI_	30	0	3	96	48	5
NMTAP	30	192	3
EXTAP	30	288	7
NMHLD	31	0	5	1152
NMTAP	31	96	3
NMTAP	31	192	4
NMTAP	31	288	6
NMTAP	32	0	2
NMTAP	32	96	3
NMTAP	32	192	4
NMTAP	32	288	7
NMTAP	33	0	2
NMTAP	33	96	3
NMTAP	33	192	4
NMTAP	33	288	0
EXSTR	34	0	7
NMSCR	34	0	7	96	192	5
NMTTP	35	0	0	E	0	M1
NMTTP	35	96	7	E	0	M1
NMTTP	35	192	6	E	0	M1
NMTTP	35	288	5	E	0	M1
NMTTP	36	0	4	E	0	M1
NMTTP	36	96	3	E	0	M1
NMTTP	36	192	2	E	0	M1
NMTTP	36	288	1	E	0	M1
NMTTP	37	0	0	B	0	M1
NMTTP	37	0	0	E	0	M1
NMTTP	37	0	7	B	0	M1
NMTTP	37	96	3	B	0	M1
NMTTP	37	96	4	B	0	M1
NMTTP	37	96	4	E	0	M1
NMTAP	37	288	5
NMSTR	38	0	5
NMSCL	38	0	5	96	48	3
NMTAP	38	192	2
NMSTR	38	288	2
NMSCL	38	288	2	96	48	0
NMTAP	39	96	7
NMSTR	39	192	7
NMSCL	39	192	7	96	48	5
NMTAP	40	0	4
NMSTR	40	96	4
NMSCL	40	96	4	96	96	1
NMSCR	40	96	4	96	96	7
NMTTP	41	0	0	E	0	M1
NMTTP	41	96	1	E	0	M1
NMTTP	41	192	2	E	0	M1
NMTTP	41	288	3	E	0	M1
NMTTP	42	0	4	E	0	M1
NMTTP	42	96	5	E	0	M1
NMTTP	42	192	2	E	0	M1
NMTTP	42	192	6	E	0	M1
NMTTP	42	288	3	E	0	M1
NMTTP	42	288	7	E	0	M1
NMTTP	43	0	0	E	0	M1
NMTTP	43	0	4	E	0	M1
NMTTP	43	96	1	E	0	M1
NMTTP	43	96	5	E	0	M1
NMTAP	43	288	2
NMHLD	44	0	2	96
NMHLD	44	96	3	96
NMHLD	44	192	4	96
NMHLD	44	288	5	96
NMHLD	45	0	6	96
NMHLD	45	96	7	96
NMSTR	45	192	0
NMSCL	45	192	0	96	192	5
NMSCR	45	192	0	96	192	3
CNSXR	46	96	3	0	192	4
CNSXL	46	96	5	0	192	4
EXSTR	47	0	4
NMSI_	47	0	4	96	96	7
EXSTR	47	192	0
NMSI_	47	192	0	96	96	3
EXHLD	48	0	4	96
NMHLD	48	96	5	96
NMTAP	48	192	6
NMTAP	48	288	1
NMTAP	48	288	7
EXSTR	49	0	3
NMSI_	49	0	3	96	96	0
EXSTR	49	192	7
NMSI_	49	192	7	96	96	4
EXHLD	50	0	3	96
NMTAP	50	96	1
NMHLD	50	192	4	96
NMTAP	50	288	6
EXSTR	51	0	4
NMSI_	51	0	4	96	96	7
EXSTR	51	192	0
NMSI_	51	192	0	96	96	3
EXHLD	52	0	4	96
NMHLD	52	96	5	96
NMTAP	52	192	6
NMTAP	52	288	1
NMTAP	52	288	7
NMTAP	53	0	0
NMTAP	53	0	5
NMTAP	53	96	2
NMTAP	53	96	7
NMTAP	53	192	1
NMTAP	53	192	4
NMTAP	53	288	3
NMTAP	53	288	6
NMTTP	54	0	3	B	0	M1
NMTTP	54	0	4	B	0	M1
NMTTP	54	0	4	E	1	M1
BXTAP	54	240	0
BXTAP	54	264	7
BXTAP	54	288	0
EXTAP	55	0	2
EXTAP	55	0	3
NMTAP	55	96	0
NMTAP	55	96	6
NMTAP	55	192	5
NMTAP	55	240	5
NMTAP	55	336	1
NMTAP	55	336	4
NMTAP	56	48	2
NMTAP	56	48	3
NMSTR	56	96	2
NMSCR	56	96	2	96	48	5
NMTAP	56	96	3
NMTAP	56	192	5
NMTAP	56	288	6
NMTAP	56	336	6
NMTAP	57	0	7
NMTAP	57	96	0
NMTAP	57	96	7
NMHLD	57	192	1	72
NMHLD	57	264	2	72
NMTAP	57	336	3
NMTAP	58	0	3
NMTAP	58	96	4
NMTAP	58	96	5
BRHLD	58	192	1	96
BRHLD	58	192	7	96
EXTAP	59	0	4
EXTAP	59	0	5
NMTAP	59	96	1
NMTAP	59	96	7
NMTAP	59	192	2
NMTAP	59	240	2
NMTAP	59	336	3
NMTAP	59	336	6
NMTAP	60	48	4
NMTAP	60	48	5
NMTAP	60	96	4
NMSTR	60	96	5
NMSV_	60	96	5	96	48	2
NMTAP	60	192	2
NMTAP	60	288	1
NMTAP	60	336	1
NMTAP	61	0	0
NMTAP	61	96	0
NMTAP	61	96	7
NMHLD	61	192	6	72
NMHLD	61	264	5	72
NMTAP	61	336	4
NMTAP	62	0	4
NMTAP	62	96	2
NMTAP	62	96	3
NMTAP	62	192	4
NMTAP	62	192	6
BRTAP	62	240	7
BRTAP	62	288	7
NMTAP	63	0	0
NMHLD	63	0	1	96
NMTAP	63	96	5
NMHLD	63	192	6	96
NMTAP	63	192	7
NMTAP	63	288	2
NMTAP	64	0	0
NMHLD	64	0	1	96
NMTAP	64	96	5
NMHLD	64	192	6	96
NMTAP	64	192	7
NMTAP	64	288	2
NMTAP	65	0	0
NMHLD	65	0	1	96
NMTAP	65	96	4
NMHLD	65	192	6	96
NMTAP	65	192	7
NMTAP	65	288	3
EXTAP	66	0	0
EXTAP	66	0	1
EXTAP	66	96	4
EXTAP	66	96	5
EXTAP	66	192	6
EXTAP	66	192	7
EXTAP	66	288	2
EXTAP	66	288	3
NMTAP	67	0	0
NMHLD	67	0	1	96
NMTAP	67	96	5
NMHLD	67	192	6	96
NMTAP	67	192	7
NMTAP	67	288	2
NMTAP	68	0	0
NMHLD	68	0	1	96
NMTAP	68	96	5
NMHLD	68	192	6	96
NMTAP	68	192	7
NMTAP	68	288	2
NMTAP	69	0	0
NMHLD	69	0	1	96
NMTAP	69	96	4
NMHLD	69	192	6	96
NMTAP	69	192	7
NMTAP	69	288	3
EXTAP	70	0	0
EXTAP	70	0	1
EXTAP	70	96	4
EXTAP	70	96	5
EXTAP	70	192	6
EXTAP	70	192	7
EXTAP	70	288	2
EXTAP	70	288	3
BXTAP	71	0	0
BXSTR	71	0	7
NMSCL	71	0	7	96	480	0
BXTAP	72	288	0
BXTAP	72	288	7
BXSTR	73	0	0
NMSCR	73	0	0	96	480	7
BXTAP	73	0	7
BXTAP	74	288	0
BXTAP	74	288	7
NMTAP	75	0	1
NMTAP	75	48	1
NMTAP	75	96	3
NMTAP	75	192	6
NMTAP	75	240	6
NMTAP	75	288	4
NMTAP	76	0	2
NMTAP	76	48	2
NMTAP	76	96	3
NMTAP	76	192	5
NMTAP	76	240	5
NMTAP	76	288	4
NMTAP	77	0	1
NMTAP	77	48	1
NMTAP	77	96	0
NMTAP	77	192	6
NMTAP	77	240	6
NMTAP	77	288	7
NMSTR	78	0	1
NMSXR	78	0	1	96	192	4
EXHLD	79	0	4	96
EXHLD	79	0	6	96
NMTTP	79	192	5	B	1	M1
NMTTP	79	192	5	E	0	M1
NMTTP	79	192	5	A	0	M1
NMTTP	79	192	5	D	0	M1
NMTTP	79	192	6	B	0	M1
NMTTP	79	192	6	E	0	M1
NMTTP	79	192	6	D	0	M1
EXHLD	80	0	1	96
EXHLD	80	0	3	96
NMTTP	80	192	1	B	0	M1
NMTTP	80	192	2	B	1	M1
NMTTP	80	192	2	E	0	M1
NMTTP	80	192	2	A	0	M1
NMTTP	80	192	2	D	0	M1
NMTTP	80	192	3	E	0	M1
NMTTP	80	192	3	D	0	M1
NMTAP	81	0	0
NMTAP	81	0	4
NMTAP	81	96	1
NMTAP	81	96	5
NMTAP	81	192	2
NMTAP	81	192	6
NMTAP	81	288	3
NMTAP	81	288	7
NMTTP	82	0	0	C	1	M1
NMTTP	82	0	1	B	0	M1
NMTTP	82	0	2	B	0	M1
NMTTP	82	0	3	B	0	M1
NMTTP	82	0	4	B	0	M1
NMTTP	82	0	5	B	0	M1
NMTTP	82	0	6	B	0	M1
BRTAP	82	240	0
BRTAP	82	288	0
EXTAP	83	0	2
EXTAP	83	0	3
NMTAP	83	96	0
NMTAP	83	96	6
NMTAP	83	192	5
NMTAP	83	240	5
NMTAP	83	336	3
NMTAP	83	336	4
NMTAP	84	48	2
NMTAP	84	48	3
NMTAP	84	96	2
NMSTR	84	96	3
NMSCR	84	96	3	96	96	7
NMTAP	84	192	7
NMTAP	84	288	1
NMTAP	84	336	1
NMTAP	85	0	0
NMTAP	85	96	6
NMTAP	85	144	6
NMHLD	85	192	7	72
NMHLD	85	264	5	72
NMTAP	85	336	3
NMTAP	86	0	3
NMTAP	86	96	2
NMTAP	86	96	4
BRHLD	86	192	3	96
BRHLD	86	192	7	96
EXTAP	87	0	4
EXTAP	87	0	5
NMTAP	87	96	1
NMTAP	87	96	7
NMTAP	87	192	2
NMTAP	87	240	2
NMTAP	87	336	3
NMTAP	87	336	4
NMTAP	88	48	4
NMTAP	88	48	5
NMSTR	88	96	4
NMSCL	88	96	4	96	96	0
NMTAP	88	96	5
NMTAP	88	192	0
NMTAP	88	288	6
NMTAP	88	336	6
NMTAP	89	0	7
NMTAP	89	96	1
NMTAP	89	144	1
NMHLD	89	192	0	72
NMHLD	89	264	2	72
NMTAP	89	336	4
NMTAP	90	0	4
NMTAP	90	96	3
NMTAP	90	96	5
NMTAP	90	192	0
NMTAP	90	192	4
BRTAP	90	240	7
BRTAP	90	288	7
EXHLD	91	0	6	96
EXTAP	91	0	7
NMTAP	91	96	2
NMTAP	91	192	0
NMHLD	91	192	1	96
NMTAP	91	288	5
NMHLD	92	0	6	96
NMTAP	92	0	7
NMTAP	92	96	2
NMTAP	92	192	0
NMHLD	92	192	1	96
NMTAP	92	288	5
NMHLD	93	0	6	96
NMTAP	93	0	7
NMTAP	93	96	3
NMTAP	93	192	0
NMHLD	93	192	1	96
NMTAP	93	288	4
EXTAP	94	0	6
EXTAP	94	0	7
EXTAP	94	96	2
EXTAP	94	96	3
EXTAP	94	192	0
EXTAP	94	192	1
EXTAP	94	288	4
EXTAP	94	288	5
EXHLD	95	0	6	96
EXTAP	95	0	7
NMTAP	95	96	2
NMTAP	95	192	0
NMHLD	95	192	1	96
NMTAP	95	288	5
NMHLD	96	0	6	96
NMTAP	96	0	7
NMTAP	96	96	2
NMTAP	96	192	0
NMHLD	96	192	1	96
NMTAP	96	288	5
NMHLD	97	0	6	96
NMTAP	97	0	7
NMTAP	97	96	3
NMTAP	97	192	0
NMHLD	97	192	1	96
NMTAP	97	288	4
EXHLD	98	0	6	288
EXSTR	98	0	7
NMSCR	98	0	7	96	192	5
EXHLD	99	0	0	1344
BRSTR	99	0	7
NMSCL	99	0	7	96	480	0
CNSUL	100	192	0	0	768	7
NMHLD	103	0	1	384
NMTTP	103	192	4	B	0	M1
NMHLD	104	0	6	384
NMTTP	104	192	3	B	0	M1
NMTTP	105	0	2	E	0	M1
NMTTP	105	96	1	E	0	M1
NMTTP	105	96	3	E	0	M1
NMTTP	105	192	0	E	0	M1
NMTTP	105	192	4	E	0	M1
NMTTP	105	288	5	E	0	M1
NMTTP	105	288	7	E	0	M1
EXHLD	106	0	5	480
NMHLD	106	192	2	288

T_REC_TAP	238
T_REC_BRK	8
T_REC_XTP	61
T_REC_BXX	17
T_REC_HLD	65
T_REC_XHO	13
T_REC_BHO	4
T_REC_BXH	0
T_REC_STR	21
T_REC_BST	1
T_REC_XST	8
T_REC_XBS	3
T_REC_TTP	61
T_REC_THO	0
T_REC_SLD	36
T_REC_BSL	2
T_REC_ALL	538
T_NUM_TAP	389
T_NUM_BRK	35
T_NUM_HLD	78
T_NUM_SLD	36
T_NUM_ALL	538
T_JUDGE_TAP	418
T_JUDGE_HLD	306
T_JUDGE_SLD	38
T_JUDGE_ALL	762
TTM_EACHPAIRS	116
TTM_SCR_TAP	194500
TTM_SCR_BRK	91000
TTM_SCR_HLD	78000
TTM_SCR_SLD	54000
TTM_SCR_ALL	417500
TTM_SCR_S	401600
TTM_SCR_SS	414000
TTM_RAT_ACV	10084

