VERSION	0.00.00	1.04.00
FES_MODE	0
BPM_DEF	163.000	163.000	163.000	 90.000
MET_DEF	4	4
RESOLUTION	384
CLK_DEF	384
COMPATIBLE_CODE	MA2

BPM	0	0	163.000
BPM	103	0	153.000
BPM	104	0	130.000
BPM	104	192	120.000
BPM	105	0	110.000
BPM	105	192	 95.000
BPM	106	0	 90.000
MET	0	0	4	4
MET	35	0	4	3
MET	47	0	4	4

EXTAP	1	0	3
EXTAP	1	96	3
EXTAP	1	192	4
EXTAP	1	288	4
EXTAP	2	0	3
EXTAP	2	0	4
BXTAP	2	96	3
BXTAP	2	96	4
NMHLD	3	0	2	192
NMHLD	3	192	3	192
NMHLD	4	0	4	192
NMTAP	4	192	5
NMHLD	5	0	5	192
NMHLD	5	192	4	192
NMHLD	6	0	3	192
NMTAP	6	192	2
NMHLD	7	0	1	192
BXTAP	7	192	0
NMHLD	8	0	6	192
BXTAP	8	192	7
NMTAP	9	0	5
NMTAP	9	96	5
NMTAP	9	192	4
NMTAP	9	288	4
BRTAP	10	0	2
BRTAP	10	0	3
NMTAP	11	0	1
NMTAP	11	96	1
NMTAP	11	192	0
NMTAP	11	192	1
NMTAP	12	0	2
NMTAP	12	96	2
NMTAP	12	192	2
NMTAP	12	192	3
NMTAP	13	0	4
NMTAP	13	96	4
NMTAP	13	192	4
NMTAP	13	192	5
NMTAP	14	0	6
NMTAP	14	0	7
NMTAP	14	96	6
NMTAP	14	96	7
NMTAP	14	192	6
NMTAP	14	192	7
NMTAP	15	0	6
NMTAP	15	96	6
NMTAP	15	192	6
NMTAP	15	192	7
NMTAP	16	0	5
NMTAP	16	96	5
NMTAP	16	192	4
NMTAP	16	192	5
NMTAP	17	0	3
NMTAP	17	96	3
NMTAP	17	192	2
NMTAP	17	192	3
NMTAP	18	0	0
NMTAP	18	0	1
NMTAP	18	96	0
NMTAP	18	96	1
NMTAP	18	192	0
NMTAP	18	192	1
NMTAP	19	96	1
NMTAP	19	288	1
NMTAP	20	96	2
NMTAP	20	288	2
NMTAP	21	96	3
NMTAP	21	288	3
NMTAP	22	96	4
NMTAP	22	96	5
NMTAP	22	288	4
NMTAP	22	288	5
NMTAP	23	96	6
NMTAP	23	288	6
NMTAP	24	96	5
NMTAP	24	288	5
NMTAP	25	96	4
NMTAP	25	288	4
EXTAP	26	0	3
EXTAP	26	0	4
NMSTR	27	0	1
NMSI_	27	0	1	96	192	4
NMSTR	28	0	5
NMSI_	28	0	5	96	192	0
NMSTR	29	0	1
NMSCR	29	0	1	96	192	4
NMTAP	30	0	5
NMTAP	30	96	5
NMTAP	30	192	4
NMTAP	30	192	5
NMSTR	31	0	6
NMSI_	31	0	6	96	192	3
NMSTR	32	0	2
NMSI_	32	0	2	96	192	7
NMSTR	33	0	6
NMSCL	33	0	6	96	192	3
NMTAP	34	0	2
NMTAP	34	96	2
NMTAP	34	192	2
NMTAP	34	192	3
NMHLD	35	0	1	288
NMHLD	35	288	2	288
NMHLD	36	192	3	288
NMTAP	37	96	4
NMHLD	38	0	6	288
NMHLD	38	288	5	288
NMHLD	39	192	4	288
NMTAP	40	96	3
NMHLD	41	0	2	288
NMHLD	41	288	1	288
NMHLD	42	192	0	288
NMTAP	43	96	7
NMHLD	44	0	5	288
NMHLD	44	288	6	288
NMHLD	45	192	7	288
BXTAP	46	96	0
NMTAP	47	0	1
NMTAP	47	96	1
NMTAP	47	192	2
NMTAP	47	288	2
NMTAP	48	0	3
NMTAP	48	96	3
NMTAP	48	192	4
NMTAP	48	192	5
NMTAP	49	0	6
NMTAP	49	96	6
NMTAP	49	192	5
NMTAP	49	288	5
NMTAP	50	0	4
NMTAP	50	96	4
NMTAP	50	192	2
NMTAP	50	192	3
NMTAP	51	0	1
NMTAP	51	96	1
NMTAP	51	192	2
NMTAP	51	288	2
NMTAP	52	0	3
NMTAP	52	96	3
NMTAP	52	192	4
NMTAP	52	192	5
NMTAP	53	0	6
NMTAP	53	96	6
NMTAP	53	192	5
NMTAP	53	288	5
NMHLD	54	0	3	192
NMHLD	54	0	4	192
NMTAP	55	0	2
NMTAP	55	96	2
NMTAP	55	192	0
NMTAP	55	192	1
NMTAP	55	288	0
NMTAP	55	288	1
NMTAP	56	0	7
NMTAP	56	96	7
NMTAP	56	192	6
NMTAP	56	192	7
NMTAP	57	0	5
NMTAP	57	96	5
NMTAP	57	192	6
NMTAP	57	192	7
NMTAP	57	288	6
NMTAP	57	288	7
NMTAP	58	0	0
NMTAP	58	96	0
NMTAP	58	192	0
NMTAP	58	192	1
NMTAP	59	0	2
NMTAP	59	96	2
NMTAP	59	192	0
NMTAP	59	192	1
NMTAP	59	288	0
NMTAP	59	288	1
NMTAP	60	0	7
NMTAP	60	96	7
NMTAP	60	192	6
NMTAP	60	192	7
NMTAP	61	0	5
NMTAP	61	96	5
NMTAP	61	192	6
NMTAP	61	192	7
NMTAP	61	288	6
NMTAP	61	288	7
NMTAP	62	0	0
NMTAP	62	96	0
BRTAP	62	192	0
BRTAP	62	192	1
NMTAP	63	0	1
NMTAP	63	96	1
NMTAP	63	192	1
NMTAP	63	288	0
NMTAP	63	288	1
NMTAP	64	0	2
NMTAP	64	96	2
NMTAP	64	192	2
NMTAP	64	288	2
NMTAP	64	288	3
NMTAP	65	0	4
NMTAP	65	96	4
NMTAP	65	192	4
NMTAP	65	288	4
NMTAP	65	288	5
NMTAP	66	0	6
NMTAP	66	0	7
NMTAP	66	96	6
NMTAP	66	96	7
NMTAP	66	192	6
NMTAP	66	192	7
NMTAP	67	0	6
NMTAP	67	96	6
NMTAP	67	192	6
NMTAP	67	288	6
NMTAP	67	288	7
NMTAP	68	0	5
NMTAP	68	96	5
NMTAP	68	192	5
NMTAP	68	288	4
NMTAP	68	288	5
NMTAP	69	0	3
NMTAP	69	96	3
NMTAP	69	192	3
NMTAP	69	288	2
NMTAP	69	288	3
NMTAP	70	0	0
NMTAP	70	0	1
NMTAP	70	96	0
NMTAP	70	96	1
NMTAP	70	192	0
NMTAP	70	192	1
NMTHO	71	0	0	768	C	1	L1
NMTTP	75	0	1	B	0	L1
NMTTP	75	96	2	B	0	L1
NMTTP	75	192	3	B	0	L1
NMTTP	76	0	6	B	0	L1
NMTTP	76	96	5	B	0	L1
NMTTP	76	192	4	B	0	L1
NMTTP	77	0	0	B	0	L1
NMTTP	77	96	1	B	0	L1
NMTTP	77	192	2	B	0	L1
NMTTP	77	192	3	B	0	L1
NMTTP	78	0	7	B	0	L1
NMTTP	78	96	6	B	0	L1
NMTTP	78	192	4	B	0	L1
NMTTP	78	192	5	B	0	L1
NMTTP	79	0	3	E	0	L1
NMTTP	79	96	2	E	0	L1
NMTTP	79	192	0	E	0	L1
NMTTP	79	192	1	E	0	L1
NMTTP	79	192	7	E	0	L1
NMTTP	80	0	5	E	0	L1
NMTTP	80	96	6	E	0	L1
NMTTP	80	192	0	E	0	L1
NMTTP	80	192	1	E	0	L1
NMTTP	80	192	7	E	0	L1
NMTTP	81	0	2	B	0	L1
NMTTP	81	96	3	B	0	L1
NMTTP	81	192	4	B	0	L1
NMTTP	81	288	5	B	0	L1
NMTTP	82	0	0	C	1	L1
NMTAP	83	0	6
NMTAP	83	0	7
NMTAP	83	96	6
NMTAP	83	96	7
NMTAP	83	192	5
NMTAP	83	288	4
NMTAP	84	0	3
NMTAP	84	96	2
NMTAP	84	192	2
NMTAP	84	192	3
NMTAP	85	0	0
NMTAP	85	0	1
NMTAP	85	96	0
NMTAP	85	96	1
NMTAP	85	192	2
NMTAP	85	288	3
NMTAP	86	0	4
NMTAP	86	96	5
NMTAP	86	192	4
NMTAP	86	192	5
NMTAP	87	0	2
NMTAP	87	0	3
NMTAP	87	96	2
NMTAP	87	96	3
NMTAP	87	192	1
NMTAP	87	288	0
NMTAP	88	0	7
NMTAP	88	96	6
NMTAP	88	192	6
NMTAP	88	192	7
NMTAP	89	0	4
NMTAP	89	0	5
NMTAP	89	96	4
NMTAP	89	96	5
NMTAP	89	192	6
NMTAP	89	288	7
NMTAP	90	0	0
NMTAP	90	96	1
BRTAP	90	192	0
BRTAP	90	192	1
NMTAP	91	0	1
NMTAP	91	96	1
NMTAP	91	192	1
NMTAP	91	288	0
NMTAP	91	288	1
NMTAP	92	0	2
NMTAP	92	96	2
NMTAP	92	192	2
NMTAP	92	288	2
NMTAP	92	288	3
NMTAP	93	0	4
NMTAP	93	96	4
NMTAP	93	192	4
NMTAP	93	288	4
NMTAP	93	288	5
NMTAP	94	0	6
NMTAP	94	0	7
NMTAP	94	96	6
NMTAP	94	96	7
NMTAP	94	192	6
NMTAP	94	192	7
NMTAP	95	0	6
NMTAP	95	96	6
NMTAP	95	192	6
NMTAP	95	288	6
NMTAP	95	288	7
NMTAP	96	0	5
NMTAP	96	96	5
NMTAP	96	192	5
NMTAP	96	288	4
NMTAP	96	288	5
NMTAP	97	0	3
NMTAP	97	96	3
NMTAP	97	192	3
NMTAP	97	288	2
NMTAP	97	288	3
NMTAP	98	0	0
NMTAP	98	0	1
NMTAP	98	96	0
NMTAP	98	96	1
NMTAP	98	192	0
NMTAP	98	192	1
NMHLD	99	0	2	192
NMHLD	99	192	1	192
NMHLD	100	0	0	192
NMTAP	100	192	7
NMHLD	101	0	5	192
NMHLD	101	192	6	192
NMHLD	102	0	7	192
NMTAP	102	192	0
EXHLD	103	0	0	192
EXHLD	103	0	7	192
EXHLD	104	0	1	192
EXHLD	104	0	6	192
EXHLD	105	0	2	192
EXHLD	105	0	5	192
BXTAP	106	0	3
BXTAP	106	0	4

T_REC_TAP	259
T_REC_BRK	6
T_REC_XTP	8
T_REC_BXX	7
T_REC_HLD	28
T_REC_XHO	6
T_REC_BHO	0
T_REC_BXH	0
T_REC_STR	6
T_REC_BST	0
T_REC_XST	0
T_REC_XBS	0
T_REC_TTP	29
T_REC_THO	1
T_REC_SLD	6
T_REC_BSL	0
T_REC_ALL	356
T_NUM_TAP	302
T_NUM_BRK	13
T_NUM_HLD	35
T_NUM_SLD	6
T_NUM_ALL	356
T_JUDGE_TAP	315
T_JUDGE_HLD	184
T_JUDGE_SLD	6
T_JUDGE_ALL	505
TTM_EACHPAIRS	76
TTM_SCR_TAP	151000
TTM_SCR_BRK	33800
TTM_SCR_HLD	35000
TTM_SCR_SLD	9000
TTM_SCR_ALL	228800
TTM_SCR_S	220700
TTM_SCR_SS	227500
TTM_RAT_ACV	10057

