VERSION	0.00.00	1.04.00
FES_MODE	0
BPM_DEF	187.000	187.000	187.000	187.000
MET_DEF	4	4
RESOLUTION	384
CLK_DEF	384
COMPATIBLE_CODE	MA2

BPM	0	0	187.000
MET	0	0	4	4

NMTAP	1	0	2
NMTAP	1	96	3
NMTAP	1	192	5
NMTAP	1	288	4
NMTAP	2	0	4
NMTAP	2	96	5
NMTAP	2	192	3
NMTAP	2	288	2
NMTAP	3	0	2
NMTAP	3	96	3
NMTAP	3	192	5
NMTAP	3	288	4
NMTAP	4	0	4
NMTAP	4	96	5
NMTAP	4	192	3
NMTAP	4	288	2
NMTAP	5	0	2
NMTAP	5	96	3
NMTAP	5	192	5
NMTAP	5	288	4
NMTAP	6	0	4
NMTAP	6	96	5
NMTAP	6	192	3
NMTAP	6	288	2
NMTAP	7	0	2
NMTAP	7	96	3
NMTAP	7	192	5
NMTAP	7	288	4
NMHLD	8	0	3	288
NMTAP	8	288	4
NMTAP	8	336	3
NMTAP	9	0	2
NMTAP	9	96	4
NMTAP	9	192	6
NMTAP	9	288	5
NMTAP	10	0	5
NMTAP	10	96	3
NMTAP	10	192	1
NMTAP	10	288	2
NMTAP	11	0	2
NMTAP	11	96	4
NMTAP	11	192	6
NMTAP	11	288	5
NMTAP	12	0	5
NMTAP	12	96	3
NMTAP	12	192	1
NMTAP	12	288	2
NMTAP	13	0	2
NMTAP	13	96	4
NMTAP	13	192	6
NMTAP	13	288	5
NMTAP	14	0	5
NMTAP	14	96	3
NMTAP	14	192	1
NMTAP	14	288	2
NMTAP	15	0	2
NMTAP	15	96	3
NMTAP	15	192	4
NMSTR	15	288	5
NMSXR	15	288	5	96	288	0
NMSXR	15	288	5	96	288	7
BRTAP	16	0	5
NMHLD	17	0	0	96
NMHLD	17	0	6	96
NMTAP	17	144	2
NMTAP	17	144	3
NMTAP	17	240	3
NMTAP	17	240	4
NMTAP	17	336	4
NMTAP	17	336	5
NMHLD	18	0	4	96
NMHLD	18	0	5	96
NMTAP	18	144	3
NMTAP	18	168	3
NMTAP	18	192	4
NMTAP	18	240	2
NMTAP	18	240	3
NMTAP	18	288	2
NMTAP	18	288	3
NMTAP	18	336	2
NMTAP	18	336	3
NMHLD	19	0	1	96
NMHLD	19	0	7	96
NMTAP	19	144	4
NMTAP	19	144	5
NMTAP	19	240	3
NMTAP	19	240	4
NMTAP	19	336	2
NMTAP	19	336	3
NMHLD	20	0	2	96
NMHLD	20	0	3	96
NMTAP	20	144	4
NMTAP	20	168	4
NMTAP	20	192	3
NMTAP	20	240	4
NMTAP	20	240	5
NMTAP	20	288	4
NMTAP	20	288	5
NMTAP	20	336	4
NMTAP	20	336	5
NMHLD	21	0	0	96
NMHLD	21	0	6	96
NMTAP	21	144	2
NMTAP	21	144	3
NMTAP	21	240	3
NMTAP	21	240	4
NMTAP	21	336	4
NMTAP	21	336	5
NMHLD	22	0	4	96
NMHLD	22	0	5	96
NMTAP	22	144	3
NMTAP	22	168	3
NMTAP	22	192	4
NMTAP	22	240	2
NMTAP	22	240	3
NMTAP	22	288	2
NMTAP	22	288	3
NMTAP	22	336	2
NMTAP	22	336	3
NMHLD	23	0	1	96
NMHLD	23	0	7	96
NMTAP	23	144	4
NMTAP	23	144	5
NMTAP	23	240	3
NMTAP	23	240	4
NMTAP	23	336	2
NMTAP	23	360	2
NMTAP	24	0	3
NMTTP	24	96	5	E	0	M1
NMTTP	24	144	6	E	0	M1
NMTTP	24	192	7	E	0	M1
NMTTP	24	240	1	E	0	M1
NMTTP	24	288	2	E	0	M1
NMTTP	24	336	3	E	0	M1
NMSTR	25	0	6
NMSI_	25	0	6	96	48	3
NMTAP	25	96	3
NMTAP	25	96	6
NMSTR	25	144	2
NMSI_	25	144	2	96	48	5
NMTAP	25	240	2
NMTAP	25	240	6
NMSTR	25	288	7
NMSI_	25	288	7	96	48	3
NMSTR	26	0	1
NMSI_	26	0	1	96	48	4
NMTAP	26	0	7
NMTAP	26	96	1
NMTAP	26	96	5
NMTAP	26	144	6
NMTAP	26	240	3
NMTAP	26	240	6
NMTAP	26	288	5
NMTAP	26	312	4
NMTAP	26	336	5
NMSTR	27	0	1
NMSI_	27	0	1	96	48	4
NMTAP	27	96	1
NMTAP	27	96	4
NMSTR	27	144	5
NMSI_	27	144	5	96	48	2
NMTAP	27	240	1
NMTAP	27	240	5
NMSTR	27	288	0
NMSI_	27	288	0	96	48	4
NMTAP	28	0	0
NMSTR	28	0	6
NMSI_	28	0	6	96	48	3
NMTAP	28	96	2
NMTAP	28	96	6
NMTAP	28	144	1
NMTAP	28	192	0
NMTAP	28	240	7
NMTAP	28	288	6
NMTAP	28	336	5
NMSTR	29	0	1
NMSI_	29	0	1	96	48	4
NMTAP	29	96	1
NMTAP	29	96	4
NMSTR	29	144	5
NMSI_	29	144	5	96	48	2
NMTAP	29	240	1
NMTAP	29	240	5
NMSTR	29	288	0
NMSI_	29	288	0	96	48	4
NMTAP	30	0	0
NMSTR	30	0	6
NMSI_	30	0	6	96	48	3
NMTAP	30	96	2
NMTAP	30	96	6
NMTAP	30	144	1
NMTAP	30	240	1
NMTAP	30	240	4
NMTAP	30	288	2
NMTAP	30	312	3
NMTAP	30	336	2
NMSTR	31	0	6
NMSI_	31	0	6	96	48	3
NMTAP	31	96	3
NMTAP	31	96	6
NMSTR	31	144	2
NMSI_	31	144	2	96	48	5
NMTAP	31	240	2
NMTAP	31	240	6
NMSTR	31	288	7
NMSI_	31	288	7	96	48	3
NMSTR	32	0	1
NMSI_	32	0	1	96	48	5
NMSTR	32	96	6
NMSI_	32	96	6	96	48	2
NMSTR	32	192	3
NMSI_	32	192	3	96	48	0
NMSTR	32	288	4
NMSCR	32	288	4	96	288	3
BRTAP	33	0	3
NMHLD	34	0	2	192
NMTAP	34	0	4
NMTAP	34	192	3
NMTAP	34	240	3
NMSTR	35	0	4
NMSCR	35	0	4	96	96	7
NMSTR	35	192	3
NMSCL	35	192	3	96	96	0
NMTAP	36	0	6
NMTAP	36	96	7
NMTAP	36	192	0
NMTAP	36	192	5
NMTAP	36	240	0
NMTAP	36	240	5
NMSTR	37	0	7
NMSCL	37	0	7	96	96	4
NMSTR	37	192	0
NMSCR	37	192	0	96	96	3
NMHLD	38	0	5	192
NMTAP	38	192	4
NMTAP	38	240	4
NMSTR	39	0	3
NMSI_	39	0	3	96	96	0
NMSTR	39	192	4
NMSI_	39	192	4	96	96	7
NMTAP	40	0	0
NMTAP	40	48	0
NMSTR	40	96	1
NMSI_	40	96	1	96	48	5
NMSTR	40	96	7
NMSI_	40	96	7	96	48	3
NMTAP	40	192	1
NMTAP	40	192	7
EXTAP	40	288	2
EXTAP	40	288	6
NMSTR	41	0	1
NMSCL	41	0	1	96	48	6
NMTAP	41	96	4
NMSTR	41	192	5
NMSCL	41	192	5	96	48	2
NMTAP	41	288	0
NMSTR	42	0	1
NMSCL	42	0	1	96	48	6
NMTAP	42	96	4
NMSTR	42	192	5
NMSCL	42	192	5	96	48	2
NMTAP	42	288	0
NMSTR	43	0	1
NMSXR	43	0	1	96	288	4
NMTAP	43	96	4
NMTAP	43	192	5
NMTAP	43	288	6
NMTAP	44	0	7
NMTAP	44	96	4
NMTAP	44	96	6
NMTAP	44	192	2
NMTAP	44	216	3
NMTAP	44	240	2
NMTAP	44	264	3
NMTAP	44	288	1
NMSTR	45	0	6
NMSCR	45	0	6	96	48	1
NMTAP	45	96	3
NMSTR	45	192	2
NMSCR	45	192	2	96	48	5
NMTAP	45	288	7
NMSTR	46	0	6
NMSCR	46	0	6	96	48	1
NMTAP	46	96	3
NMTAP	46	192	2
NMTAP	46	288	1
NMTAP	46	288	4
NMTAP	47	0	2
NMTAP	47	24	3
NMTAP	47	48	2
NMTAP	47	72	3
NMTAP	47	96	1
NMTAP	47	120	4
NMTAP	47	144	1
NMTAP	47	168	4
NMTAP	47	192	0
NMTAP	47	216	7
NMTAP	47	240	0
NMTAP	47	264	7
NMTAP	47	288	3
NMTAP	47	312	6
NMTAP	47	336	3
NMTAP	47	360	6
EXTAP	48	0	4
EXTAP	48	4	5
BRTAP	48	192	0
BRTAP	48	192	7
NMTAP	49	0	0
NMTTP	49	0	7	A	1	M1
NMTAP	49	16	1
NMTTP	49	16	6	A	0	M1
NMTAP	49	32	2
NMTTP	49	32	5	A	0	M1
NMTAP	49	48	3
NMTTP	49	48	4	A	0	M1
BRTAP	49	192	2
BRTAP	49	192	5
NMTAP	49	336	7
NMTAP	49	360	7
NMSTR	50	0	0
NMSI_	50	0	0	96	48	3
NMSTR	50	96	0
NMSI_	50	96	0	96	48	5
NMSTR	50	192	0
NMSXL	50	192	0	96	192	4
NMTAP	50	288	0
EXTAP	50	288	6
NMTAP	51	96	5
NMTAP	51	192	3
NMTAP	51	192	6
NMTAP	51	288	4
NMTAP	51	288	5
NMTAP	52	0	4
NMSTR	52	0	5
NMSI_	52	0	5	96	48	1
NMTAP	52	96	3
NMSTR	52	144	2
NMSI_	52	144	2	96	48	7
NMTAP	52	240	5
NMSTR	52	288	4
NMSCL	52	288	4	96	192	5
BRTAP	53	0	0
NMTTP	53	192	0	C	1	M1
NMTAP	53	336	0
NMTAP	53	360	0
NMSTR	54	0	7
NMSCL	54	0	7	96	48	4
NMTAP	54	96	3
NMSTR	54	144	2
NMSCL	54	144	2	96	48	7
NMTAP	54	240	6
NMTAP	54	288	5
NMSTR	55	0	6
NMSCL	55	0	6	96	48	3
NMSTR	55	0	7
NMSCR	55	0	7	96	48	2
BRTAP	55	96	6
BRTAP	55	96	7
NMSTR	55	192	0
NMSCL	55	192	0	96	48	5
NMSTR	55	192	1
NMSCR	55	192	1	96	48	4
BRTAP	55	288	0
BRTAP	55	288	1
NMSTR	56	0	6
NMSI_	56	0	6	96	48	2
NMSTR	56	0	7
NMSI_	56	0	7	96	48	3
BRTAP	56	96	6
BRTAP	56	96	7
NMTAP	56	192	0
NMTAP	56	192	1
NMSTR	56	288	0
NMSUR	56	288	0	96	96	7
NMSTR	56	288	1
NMSCR	56	288	1	96	96	7
BRTAP	57	0	0
BRTAP	57	0	1
EXTAP	57	192	6
EXTAP	57	192	7
NMTAP	57	336	5
NMTAP	57	360	5
NMSTR	58	0	4
NMSI_	58	0	4	96	48	1
NMSTR	58	96	4
NMSI_	58	96	4	96	48	7
NMSTR	58	192	4
NMSXR	58	192	4	96	192	0
NMTAP	58	288	4
NMTAP	59	96	7
NMTAP	59	192	3
NMTAP	59	192	6
NMTAP	59	288	1
NMTAP	59	288	4
NMTAP	60	0	0
NMSTR	60	0	5
NMSI_	60	0	5	96	48	2
NMTAP	60	96	2
NMSTR	60	144	1
NMSI_	60	144	1	96	48	6
NMTAP	60	240	6
EXSTR	60	288	7
NMSCL	60	288	7	96	192	1
BRTAP	61	0	0
NMTTP	61	192	0	C	1	M1
NMTAP	61	336	0
NMTAP	61	360	0
NMSTR	62	0	7
NMSCL	62	0	7	96	48	4
NMTAP	62	96	3
NMSTR	62	144	2
NMSCL	62	144	2	96	48	7
NMTAP	62	240	5
NMTAP	62	288	6
NMSTR	63	0	0
NMSCR	63	0	0	96	48	3
NMSTR	63	0	7
NMSCL	63	0	7	96	48	4
BRTAP	63	96	0
BRTAP	63	96	7
EXTAP	63	192	2
EXTAP	63	192	5
NMTAP	63	288	1
NMTAP	63	288	6
NMTAP	63	336	0
NMTAP	63	360	7
NMTAP	64	0	0
NMTAP	64	48	1
NMTAP	64	96	2
NMTAP	64	96	3
NMTAP	64	144	4
NMTAP	64	192	3
NMTAP	64	192	5
NMTAP	64	240	6
NMSTR	64	288	7
NMSLR	64	288	7	96	96	3
BRHLD	65	0	0	192
BRTAP	65	192	7
NMTAP	65	336	5
NMTAP	65	360	5
NMTAP	66	0	4
NMSTR	66	0	6
NMSI_	66	0	6	96	48	2
NMTAP	66	96	0
NMSTR	66	144	1
NMSI_	66	144	1	96	48	5
NMTAP	66	240	6
NMTAP	66	288	7
NMSTR	67	0	6
NMSI_	67	0	6	96	48	2
NMSTR	67	0	7
NMSI_	67	0	7	96	48	3
BRTAP	67	96	6
BRTAP	67	96	7
NMSTR	67	192	0
NMSI_	67	192	0	96	48	4
NMSTR	67	192	1
NMSI_	67	192	1	96	48	5
BRTAP	67	288	0
BRTAP	67	288	1
EXTAP	68	0	6
EXTAP	68	0	7
NMTAP	68	96	0
NMSTR	68	96	7
BRSCR	68	96	7	96	96	5
NMTAP	69	0	0
NMSTR	69	0	1
NMSI_	69	0	1	96	48	4
NMTAP	69	48	0
NMTAP	69	96	0
NMSTR	69	192	5
NMSI_	69	192	5	96	48	2
NMTAP	69	192	6
NMTAP	69	240	6
NMTAP	69	288	6
NMTAP	70	0	0
NMTAP	70	0	1
NMTAP	70	48	0
NMTAP	70	48	1
NMTAP	70	96	0
NMTAP	70	96	1
NMTAP	70	192	5
NMTAP	70	216	4
NMTAP	70	240	5
NMTAP	70	264	4
NMTAP	70	288	5
NMSTR	71	0	6
NMSI_	71	0	6	96	48	3
NMTAP	71	0	7
NMTAP	71	48	7
NMTAP	71	96	7
NMTAP	71	192	1
NMSTR	71	192	2
NMSI_	71	192	2	96	48	5
NMTAP	71	240	1
NMTAP	71	288	1
NMSTR	72	0	6
NMSI_	72	0	6	96	48	3
NMTAP	72	0	7
NMTAP	72	48	7
NMTAP	72	96	7
NMTAP	72	192	2
NMTAP	72	192	4
BRTAP	72	240	1
BRTAP	72	240	5
NMTAP	73	0	0
NMSTR	73	0	1
NMSI_	73	0	1	96	48	4
NMTAP	73	48	0
NMTAP	73	96	0
NMSTR	73	192	5
NMSI_	73	192	5	96	48	2
NMTAP	73	192	6
NMTAP	73	240	6
NMTAP	73	288	6
NMTAP	74	0	0
NMTAP	74	0	1
NMTAP	74	48	0
NMTAP	74	48	1
NMTAP	74	96	0
NMTAP	74	96	1
BRTAP	74	192	4
BRTAP	74	192	6
BRTAP	74	288	4
BRTAP	74	288	6
NMTAP	75	0	3
NMTAP	75	24	2
NMTAP	75	48	1
NMTAP	75	72	0
NMSTR	75	96	7
BRSSR	75	96	7	96	96	3
NMTAP	75	120	6
NMTAP	75	144	5
NMTAP	75	168	4
NMTAP	75	192	3
EXTAP	76	0	2
EXTAP	76	0	4
EXTAP	76	48	2
EXTAP	76	48	4
EXTAP	76	96	2
EXTAP	76	96	4
EXTAP	76	144	2
EXTAP	76	144	4
NMTAP	76	192	1
NMTAP	76	192	5
NMTAP	76	240	1
NMTAP	76	240	5
NMTAP	76	288	1
NMTAP	76	288	5
NMTAP	76	336	1
NMTAP	76	336	5
NMSTR	77	0	0
NMSCR	77	0	0	96	96	5
NMSTR	77	192	7
NMSI_	77	192	7	96	48	4
NMTAP	77	336	1
NMTAP	77	360	1
EXSTR	78	0	3
NMSI_	78	0	3	96	96	7
NMSTR	78	96	7
NMSI_	78	96	7	96	96	2
NMSTR	78	192	2
NMSXL	78	192	2	96	192	5
NMTAP	78	288	5
NMTAP	79	96	1
NMTAP	79	192	2
NMHLD	79	240	2	96
NMTAP	79	336	3
NMSTR	80	0	3
NMSI_	80	0	3	96	48	7
NMSTR	80	192	1
NMSI_	80	192	1	96	48	5
NMSTR	81	0	7
NMSCL	81	0	7	96	96	2
NMSTR	81	192	0
NMSI_	81	192	0	96	48	3
NMTAP	81	336	6
NMTAP	81	360	6
EXSTR	82	0	4
NMSI_	82	0	4	96	96	0
NMSTR	82	96	0
NMSI_	82	96	0	96	96	5
NMSTR	82	192	5
NMSXR	82	192	5	96	192	2
NMTAP	82	288	2
NMTAP	83	96	6
NMTAP	83	192	5
NMHLD	83	240	5	96
NMTAP	83	336	4
NMTAP	84	0	4
NMTAP	84	48	6
NMTAP	84	96	6
NMTAP	84	144	3
NMTAP	84	192	3
NMTAP	84	240	2
NMTAP	84	240	4
NMTAP	84	288	2
NMTAP	84	288	4
NMSTR	85	0	3
NMSCL	85	0	3	96	48	0
NMTAP	85	48	4
NMTAP	85	96	5
NMSTR	85	144	6
NMSCL	85	144	6	96	48	3
NMTAP	85	192	7
NMTAP	85	240	0
NMSTR	85	288	1
NMSCL	85	288	1	96	48	6
NMTAP	85	336	2
NMTAP	86	0	3
NMTAP	86	48	4
NMTAP	86	96	5
NMSTR	86	192	6
NMSI_	86	192	6	96	48	3
NMSTR	86	192	7
NMSI_	86	192	7	96	48	2
NMTAP	86	288	6
NMTAP	86	288	7
NMSTR	87	96	0
NMSCL	87	96	0	96	48	6
CNSI_	87	240	6	0	48	2
CNSCR	87	288	2	0	48	4
NMTAP	87	288	5
NMSTR	88	0	7
NMSCL	88	0	7	96	96	0
NMSTR	88	288	4
NMSI_	88	288	4	96	96	7
CNSI_	89	96	7	0	96	3
CNSI_	89	192	3	0	96	0
NMSTR	89	288	7
NMSI_	89	288	7	96	48	3
NMTAP	90	0	7
NMSTR	90	96	0
NMSCL	90	96	0	96	96	3
EXTAP	90	288	7
NMHLD	91	0	7	96
NMTAP	91	96	0
NMTAP	91	120	7
NMTAP	91	144	0
NMTAP	91	168	7
NMTAP	91	192	1
NMTAP	91	240	3
NMTAP	91	288	5
NMTAP	91	336	6
NMTAP	92	0	4
NMTAP	92	0	6
NMTAP	92	48	4
NMTAP	92	48	6
NMTAP	92	96	3
NMTAP	92	144	2
NMTAP	92	192	2
NMTAP	92	192	4
NMTAP	92	240	2
NMTAP	92	240	4
NMTAP	92	288	5
NMTAP	92	336	6
NMSTR	93	0	7
NMSSR	93	0	7	96	192	3
NMHLD	94	0	2	144
NMHLD	94	144	1	144
NMTAP	94	288	0
NMTAP	95	0	0
NMSTR	95	96	0
NMSI_	95	96	0	96	48	3
NMSI_	95	96	0	96	48	5
NMTAP	95	288	4
NMTAP	96	0	4
NMSTR	96	96	4
NMSCL	96	96	4	96	96	1
NMSCR	96	96	4	96	96	7
NMHLD	97	0	1	192
NMHLD	97	0	7	192
NMTAP	97	288	2
NMTAP	97	288	6
NMSTR	98	0	5
NMSI_	98	0	5	96	48	1
NMSTR	98	144	0
NMSI_	98	144	0	96	48	4
NMSTR	98	288	6
NMSI_	98	288	6	96	48	2
NMHLD	99	96	3	192
NMTAP	99	288	2
NMSTR	100	0	1
NMSCR	100	0	1	96	96	6
NMSUR	100	0	1	96	96	6
NMTAP	100	288	6
NMTAP	100	288	7
NMHLD	101	0	6	288
NMHLD	101	0	7	288
NMTAP	102	0	6
NMTAP	102	0	7
NMTAP	102	96	4
NMTAP	102	96	5
NMTAP	102	192	2
NMTAP	102	192	3
NMTAP	102	288	0
NMSTR	102	288	1
NMSXL	102	288	1	96	192	4
NMTAP	103	96	7
NMTAP	103	192	7
NMTAP	103	288	6
NMHLD	104	0	6	144
NMHLD	104	144	5	144
NMTAP	104	288	4
NMSTR	105	0	4
BRSV_	105	0	4	96	96	3
BRSV_	105	0	4	96	96	5
CNSI_	105	192	3	0	96	0
CNSI_	105	192	5	0	96	0
NMHLD	106	0	0	144
NMHLD	106	144	2	144
NMTAP	106	288	3
NMSTR	107	0	4
NMSCL	107	0	4	96	96	1
NMSCR	107	0	4	96	96	7
NMTAP	107	288	1
NMTAP	107	288	7
NMTAP	108	0	3
NMTAP	108	0	5
NMTAP	108	48	3
NMTAP	108	48	5
NMTAP	108	144	6
NMTAP	108	168	6
NMTAP	108	192	4
NMTAP	108	240	2
NMSTR	108	288	1
NMSI_	108	288	1	96	48	5
NMTAP	108	336	1
NMHLD	109	0	6	192
BRTAP	109	192	7
NMTAP	109	336	1
NMTAP	109	360	1
BRTAP	110	0	0
BRTAP	110	0	2
BRTAP	110	144	5
BRTAP	110	144	7
NMSTR	110	288	0
NMSI_	110	288	0	96	48	3
NMSTR	111	0	0
NMSI_	111	0	0	96	48	5
NMSTR	111	96	0
NMSI_	111	96	0	96	48	4
NMSTR	111	192	0
NMSXL	111	192	0	96	96	4
NMSXR	111	192	0	96	96	4
BRTAP	112	96	2
BRTAP	112	96	6

T_REC_TAP	403
T_REC_BRK	36
T_REC_XTP	20
T_REC_BXX	0
T_REC_HLD	32
T_REC_XHO	0
T_REC_BHO	1
T_REC_BXH	0
T_REC_STR	112
T_REC_BST	0
T_REC_XST	3
T_REC_XBS	0
T_REC_TTP	12
T_REC_THO	0
T_REC_SLD	118
T_REC_BSL	4
T_REC_ALL	741
T_NUM_TAP	550
T_NUM_BRK	41
T_NUM_HLD	32
T_NUM_SLD	118
T_NUM_ALL	741
T_JUDGE_TAP	586
T_JUDGE_HLD	98
T_JUDGE_SLD	122
T_JUDGE_ALL	806
TTM_EACHPAIRS	130
TTM_SCR_TAP	275000
TTM_SCR_BRK	106600
TTM_SCR_HLD	32000
TTM_SCR_SLD	177000
TTM_SCR_ALL	590600
TTM_SCR_S	568950
TTM_SCR_SS	586500
TTM_RAT_ACV	10069

