VERSION	0.00.00	1.04.00
FES_MODE	0
BPM_DEF	187.000	187.000	187.000	187.000
MET_DEF	4	4
RESOLUTION	384
CLK_DEF	384
COMPATIBLE_CODE	MA2

BPM	0	0	187.000
MET	0	0	4	4

NMSTR	1	0	0
NMSCR	1	0	0	96	672	3
NMSTR	3	0	4
NMSCR	3	0	4	96	672	7
NMHLD	5	0	0	4224
NMTHO	7	0	0	384	C	0	M1
NMTTP	9	0	0	E	0	M1
NMTTP	9	192	0	C	0	M1
NMTTP	10	0	4	E	0	M1
NMTTP	10	192	3	E	0	M1
NMTTP	11	0	2	E	0	M1
NMTTP	11	192	0	C	0	M1
NMTTP	12	0	6	E	0	M1
NMTTP	12	192	7	E	0	M1
NMTTP	13	0	1	E	0	M1
NMTTP	13	192	2	E	0	M1
NMTTP	14	0	3	E	0	M1
NMTTP	14	192	4	E	0	M1
NMTHO	15	0	0	384	C	0	M1
BRTAP	17	0	0
BRTAP	17	0	7
NMTAP	17	96	1
NMHLD	17	144	1	96
NMTAP	17	240	3
NMTAP	17	336	2
NMHLD	18	0	2	96
NMTAP	18	96	3
NMTAP	18	192	3
NMTAP	18	192	4
NMTAP	18	288	4
NMTAP	18	288	5
BRTAP	19	0	0
BRTAP	19	0	7
NMTAP	19	96	6
NMHLD	19	144	6	96
NMTAP	19	240	4
NMTAP	19	336	5
NMHLD	20	0	5	96
NMTAP	20	96	4
NMTAP	20	192	3
NMTAP	20	192	4
NMTAP	20	288	2
NMTAP	20	288	3
BRTAP	21	0	0
NMTAP	21	96	6
NMHLD	21	144	6	96
NMTAP	21	240	4
NMTAP	21	336	5
NMHLD	22	0	5	96
NMTAP	22	96	3
NMTAP	22	192	2
NMTAP	22	192	4
NMTAP	22	288	1
NMTAP	22	288	3
BRTAP	23	0	0
NMTAP	23	96	0
NMTAP	23	96	1
NMTAP	23	192	7
NMTAP	23	288	6
NMTAP	23	288	7
EXTAP	24	0	4
EXTAP	24	0	5
EXHLD	24	96	2	96
EXHLD	24	96	3	96
EXHLD	24	240	2	96
EXHLD	24	240	3	96
BXTAP	25	0	1
BXTAP	25	0	4
NMTAP	25	96	6
NMTAP	25	144	6
NMTAP	25	240	0
NMTAP	25	240	5
NMTAP	25	288	0
NMTAP	25	288	5
NMTAP	26	0	2
NMTAP	26	0	3
NMTAP	26	96	1
NMTAP	26	144	1
NMTAP	26	240	2
NMTAP	26	240	7
NMTAP	26	288	2
NMTAP	26	288	7
NMHLD	27	0	6	96
NMTAP	27	96	4
NMHLD	27	144	4	96
NMTAP	27	240	3
NMTAP	27	288	3
NMTAP	28	0	2
NMTAP	28	0	4
NMTAP	28	96	3
NMTAP	28	96	5
NMTAP	28	192	1
NMTAP	28	192	7
NMTAP	28	288	0
NMTAP	28	288	6
BXTAP	29	0	2
BXTAP	29	0	3
NMTAP	29	96	1
NMTAP	29	144	1
NMTAP	29	240	2
NMTAP	29	240	7
NMTAP	29	288	2
NMTAP	29	288	7
NMTAP	30	0	4
NMTAP	30	0	5
NMTAP	30	96	6
NMTAP	30	144	6
NMTAP	30	240	0
NMTAP	30	240	5
NMTAP	30	288	0
NMTAP	30	288	5
NMHLD	31	0	1	96
NMTAP	31	96	3
NMHLD	31	144	3	96
NMTAP	31	240	4
NMSTR	31	288	4
NMSXR	31	288	4	96	288	4
NMHLD	33	0	5	192
NMHLD	33	192	4	192
NMTAP	34	0	6
NMTAP	34	96	6
NMTAP	34	192	3
NMTAP	34	192	5
NMTAP	34	240	3
NMTAP	34	240	5
NMHLD	35	0	2	192
NMHLD	35	192	3	192
NMTAP	36	0	1
NMTAP	36	96	1
NMTAP	36	192	2
NMTAP	36	192	4
NMTAP	36	240	2
NMTAP	36	240	4
NMHLD	37	0	5	192
NMHLD	37	192	7	192
NMTAP	38	0	6
NMTAP	38	96	6
NMTAP	38	192	0
NMTAP	38	192	7
NMTAP	38	240	0
NMTAP	38	240	7
NMSTR	39	0	1
NMSI_	39	0	1	96	96	5
NMSTR	39	192	6
NMSI_	39	192	6	96	96	2
NMTAP	40	0	0
NMTAP	40	96	0
BRTAP	40	192	1
BRTAP	40	192	7
NMTAP	40	288	3
NMTAP	40	288	5
NMHLD	41	0	6	96
NMTAP	41	96	4
NMTAP	41	192	1
NMTAP	41	240	1
NMTAP	41	288	3
NMHLD	42	0	5	96
NMTAP	42	96	4
NMTAP	42	192	2
NMTAP	42	240	2
NMTAP	42	288	3
NMHLD	43	0	6	96
NMTAP	43	96	7
NMTAP	43	192	0
NMTAP	43	192	7
NMSTR	43	288	0
NMSCL	43	288	0	96	144	5
NMSTR	43	288	1
NMSCR	43	288	1	96	144	4
EXTAP	44	288	3
EXTAP	44	288	6
NMHLD	45	0	5	96
NMTAP	45	96	4
NMTAP	45	192	1
NMTAP	45	240	1
NMTAP	45	288	3
NMHLD	46	0	6	96
NMTAP	46	96	7
NMTAP	46	192	1
NMTAP	46	240	1
NMTAP	46	288	0
NMTAP	47	0	2
NMTAP	47	0	3
NMTAP	47	48	2
NMTAP	47	48	3
NMTAP	47	96	2
NMTAP	47	96	3
NMTAP	47	192	4
NMTAP	47	192	5
NMTAP	47	240	4
NMTAP	47	240	5
NMTAP	47	288	4
NMTAP	47	288	5
BXHLD	48	0	3	192
BXHLD	48	0	4	192
BRSTR	49	0	0
NMSI_	49	0	0	96	96	4
BRTAP	49	0	7
NMSTR	49	192	5
NMSI_	49	192	5	96	96	0
NMTAP	50	0	1
NMTAP	50	96	2
NMTAP	50	96	3
NMTAP	50	192	6
NMTAP	50	192	7
NMTAP	50	288	4
NMTAP	50	288	5
NMTAP	51	0	0
NMTAP	51	96	1
NMTAP	51	96	3
NMTAP	51	192	7
NMTAP	51	288	4
NMTAP	51	288	6
NMTAP	52	0	3
NMTAP	52	0	4
NMTAP	52	96	1
NMTAP	52	96	3
NMTAP	52	192	0
NMTAP	52	192	7
NMSTR	52	288	4
NMSUR	52	288	4	96	192	1
NMSTR	52	288	5
NMSCR	52	288	5	96	192	0
EXHLD	54	0	0	96
EXHLD	54	0	1	96
EXHLD	54	144	2	96
EXHLD	54	144	7	96
NMTAP	54	288	3
NMTAP	54	288	6
NMSTR	55	96	1
NMSCR	55	96	1	96	144	4
NMSTR	55	96	4
NMSCR	55	96	4	96	144	7
BXTAP	56	96	7
NMTAP	56	192	0
NMTAP	56	192	6
EXTAP	56	288	1
EXTAP	56	288	5
BRSTR	57	0	2
NMSI_	57	0	2	96	96	7
BRTAP	57	0	4
NMSTR	57	192	6
NMSI_	57	192	6	96	96	3
NMTAP	58	0	0
NMTAP	58	96	1
NMTAP	58	96	3
NMTAP	58	192	7
NMTAP	58	288	4
NMTAP	58	288	6
NMTAP	59	0	3
NMTAP	59	0	4
NMTAP	59	96	1
NMTAP	59	96	3
NMTAP	59	192	0
NMTAP	59	192	7
NMTAP	59	288	4
NMSTR	59	288	6
NMSCR	59	288	6	96	192	2
NMSUR	59	288	6	96	192	3
NMTAP	61	0	2
NMTAP	61	0	3
NMTAP	61	96	0
NMTAP	61	96	1
EXTAP	61	192	6
EXTAP	61	192	7
NMTAP	61	288	4
NMTAP	61	288	5
NMHLD	62	0	2	96
NMHLD	62	0	3	96
NMHLD	62	144	1	96
NMHLD	62	144	4	96
BRTAP	62	288	0
BRTAP	62	288	5
NMSTR	63	96	2
NMSCL	63	96	2	96	144	7
NMSTR	63	96	7
NMSCL	63	96	7	96	144	4
EXSTR	64	96	0
NMSF_	64	96	0	96	192	4
NMTTP	65	192	0	C	1	M1
NMTTP	65	192	2	B	0	M1
NMTTP	65	192	5	B	0	M1
NMHLD	66	0	0	96
NMHLD	66	0	7	96
NMHLD	66	144	1	96
NMHLD	66	144	6	96
EXTAP	66	288	2
EXSTR	66	288	5
BRSCL	66	288	5	96	96	2
EXSTR	67	96	1
NMSUR	67	96	1	96	96	5
NMTAP	67	288	7
NMTAP	68	0	7
BRTAP	68	96	1
BRSTR	68	96	5
NMSUL	68	96	5	96	96	0
NMTAP	69	0	6
NMTAP	69	0	7
NMTAP	69	48	6
NMTAP	69	48	7
NMTAP	69	96	6
NMTAP	69	96	7
NMTAP	69	192	1
NMTAP	69	192	3
NMTAP	69	240	1
NMTAP	69	240	3
NMTAP	69	288	1
NMTAP	69	288	3
NMTAP	70	0	4
NMTAP	70	0	5
NMTAP	70	48	4
NMTAP	70	48	5
NMTAP	70	96	4
NMHLD	70	96	5	96
NMHLD	70	192	6	96
NMTAP	70	288	7
NMTAP	71	0	0
NMTAP	71	0	1
NMTAP	71	48	0
NMTAP	71	48	1
NMTAP	71	96	0
NMTAP	71	96	1
NMTAP	71	192	4
NMTAP	71	192	6
NMTAP	71	240	4
NMTAP	71	240	6
NMTAP	71	288	4
NMTAP	71	288	6
NMTAP	72	0	2
NMTAP	72	0	3
NMTAP	72	48	2
NMTAP	72	48	3
NMHLD	72	96	2	96
NMTAP	72	96	3
NMHLD	72	192	1	96
NMTAP	72	288	0
NMTAP	73	0	6
NMTAP	73	0	7
NMTAP	73	48	6
NMTAP	73	48	7
NMTAP	73	96	0
NMTAP	73	96	5
NMTAP	73	192	0
NMTAP	73	192	1
NMTAP	73	240	0
NMTAP	73	240	1
NMTAP	73	288	2
NMTAP	73	288	7
NMTAP	74	0	4
NMTAP	74	0	5
NMTAP	74	48	4
NMTAP	74	48	5
NMTAP	74	96	3
NMTAP	74	96	6
NMTAP	74	192	2
NMTAP	74	192	3
NMTAP	74	240	2
NMTAP	74	240	3
NMTAP	74	288	1
NMTAP	74	288	4
NMTAP	75	0	0
NMTAP	75	48	0
NMTAP	75	96	6
NMTAP	75	144	6
NMTAP	75	192	1
NMTAP	75	240	1
NMTAP	75	288	7
NMTAP	75	336	7
NMTAP	76	0	2
NMTAP	76	48	2
NMTAP	76	96	3
NMTAP	76	144	1
BRTAP	76	192	7
NMTAP	76	240	7
NMTAP	76	288	0
NMTAP	76	336	0
NMSTR	77	0	7
NMSCL	77	0	7	96	96	4
NMSTR	77	192	0
NMSCR	77	192	0	96	96	3
NMHLD	78	0	5	672
NMTAP	78	96	4
NMTAP	78	192	4
EXTAP	78	288	6
NMTAP	79	0	0
NMTAP	79	96	0
NMTAP	79	192	6
NMTAP	79	288	4
NMHLD	80	0	3	96
NMHLD	80	0	6	96
NMHLD	80	192	1	96
NMHLD	80	192	4	96
NMSTR	81	0	0
NMSCR	81	0	0	96	96	3
NMSTR	81	192	7
NMSCL	81	192	7	96	96	4
NMHLD	82	0	2	672
NMTAP	82	96	3
NMTAP	82	192	3
NMTAP	82	288	1
NMTAP	83	0	7
NMTAP	83	96	7
NMTAP	83	192	1
NMTAP	83	288	3
NMHLD	84	0	1	96
NMHLD	84	0	4	96
NMHLD	84	192	3	96
NMHLD	84	192	6	96
NMTAP	85	0	5
NMTAP	85	48	5
NMTAP	85	96	3
NMTAP	85	144	4
NMTAP	85	192	2
NMTAP	85	240	2
NMTAP	85	288	4
NMTAP	85	336	3
NMHLD	86	0	5	96
NMHLD	86	96	7	96
BRTAP	86	192	0
BRTAP	86	288	1
BRTAP	86	288	7
NMHLD	87	0	6	96
NMHLD	87	96	4	96
NMHLD	87	192	2	96
NMTAP	87	288	0
NMTAP	88	0	1
NMTAP	88	0	7
NMTAP	88	96	1
NMTAP	88	96	7
NMTAP	88	192	0
NMTAP	88	192	6
NMTAP	88	288	0
NMSTR	88	288	6
NMSUL	88	288	6	96	96	2
NMTAP	89	192	0
NMTAP	89	288	0
NMHLD	90	0	1	96
NMHLD	90	0	7	96
NMHLD	90	144	2	96
NMHLD	90	144	6	96
NMTAP	90	288	3
NMSTR	90	288	5
NMSXL	90	288	5	96	288	3
NMTAP	92	0	0
NMTAP	92	96	2
NMTAP	92	192	4
NMSTR	92	288	6
BRSI_	92	288	6	96	288	2
NMHLD	94	0	1	144
NMHLD	94	144	2	144
NMSTR	94	288	3
NMSI_	94	288	3	96	96	6
CNSI_	95	96	6	0	96	2
CNSI_	95	192	2	0	192	7
BXHLD	96	0	6	768
NMTTP	97	0	3	B	0	M1
NMTTP	97	0	4	B	0	M1
NMTTP	97	0	4	E	0	M1
NMHLD	98	0	7	144
NMHLD	98	144	0	144
NMSTR	98	288	1
NMSUR	98	288	1	96	288	4
NMSTR	99	288	6
NMSUL	99	288	6	96	288	3
NMTAP	100	288	2
NMHLD	101	0	1	288
NMHLD	101	0	3	288
NMTAP	102	0	2
NMTAP	102	0	3
NMTAP	102	96	2
NMTAP	102	96	3
NMTAP	102	192	0
NMTAP	102	192	1
NMHLD	102	288	0	96
NMHLD	102	288	1	96
NMTAP	103	96	2
NMTAP	103	96	7
NMTAP	103	192	3
NMTAP	103	192	6
NMTAP	103	288	4
NMTAP	103	288	5
NMTAP	104	0	4
NMHLD	104	0	5	144
NMHLD	104	144	6	144
NMTAP	104	288	7
NMSTR	105	0	1
NMSCR	105	0	1	96	96	4
NMSTR	105	0	7
NMSCL	105	0	7	96	96	4
NMHLD	106	0	3	96
NMHLD	106	0	5	96
NMHLD	106	144	2	96
NMHLD	106	144	6	96
NMTAP	106	288	1
NMTAP	106	288	7
NMTAP	107	0	0
NMSTR	107	96	1
NMSCR	107	96	1	96	96	4
NMTAP	107	96	7
NMTAP	107	288	5
NMTAP	108	0	6
NMTAP	108	0	7
NMTAP	108	48	6
NMTAP	108	48	7
NMTAP	108	144	5
NMTAP	108	192	5
NMTAP	108	240	3
NMTAP	108	288	2
NMTAP	108	288	4
NMHLD	109	0	0	192
NMTAP	109	0	6
NMTTP	109	192	0	C	1	M1
NMTTP	109	192	3	B	0	M1
NMTTP	109	192	4	B	0	M1
NMTTP	109	192	4	E	0	M1
BRTAP	110	0	0
BRTAP	110	0	1
BRTAP	110	144	6
BRTAP	110	144	7
BRTAP	110	288	3
BRTAP	110	288	4
NMTAP	111	0	1
NMTAP	111	0	3
NMTAP	111	96	4
NMTAP	111	96	6
NMTAP	111	192	0
NMTAP	111	192	2
NMTAP	111	288	5
NMTAP	111	288	7
NMSTR	112	0	3
BRSI_	112	0	3	96	48	7
NMSTR	112	0	4
BRSI_	112	0	4	96	48	0

T_REC_TAP	315
T_REC_BRK	23
T_REC_XTP	10
T_REC_BXX	5
T_REC_HLD	68
T_REC_XHO	8
T_REC_BHO	0
T_REC_BXH	3
T_REC_STR	31
T_REC_BST	3
T_REC_XST	3
T_REC_XBS	0
T_REC_TTP	22
T_REC_THO	2
T_REC_SLD	34
T_REC_BSL	4
T_REC_ALL	531
T_NUM_TAP	381
T_NUM_BRK	38
T_NUM_HLD	78
T_NUM_SLD	34
T_NUM_ALL	531
T_JUDGE_TAP	412
T_JUDGE_HLD	330
T_JUDGE_SLD	38
T_JUDGE_ALL	780
TTM_EACHPAIRS	150
TTM_SCR_TAP	190500
TTM_SCR_BRK	98800
TTM_SCR_HLD	78000
TTM_SCR_SLD	51000
TTM_SCR_ALL	418300
TTM_SCR_S	402100
TTM_SCR_SS	414500
TTM_RAT_ACV	10091

