VERSION	0.00.00	1.04.00
FES_MODE	0
BPM_DEF	200.000	200.000	200.000	200.000
MET_DEF	4	4
RESOLUTION	384
CLK_DEF	384
COMPATIBLE_CODE	MA2

BPM	0	0	200.000
MET	0	0	4	4

NMTHO	2	0	0	96	C	0	M1
NMTTP	3	288	2	B	0	M1
NMTTP	3	288	3	B	0	M1
NMTTP	3	288	4	B	0	M1
NMTTP	3	288	4	E	0	M1
NMTTP	3	288	5	B	0	M1
EXSTR	4	0	7
NMSI_	4	0	7	96	48	1
CNSXL	4	144	1	0	240	4
EXSTR	5	0	0
NMSI_	5	0	0	96	48	6
CNSXR	5	144	6	0	240	3
EXSTR	6	0	7
NMSCL	6	0	7	96	48	6
CNSI_	6	144	6	0	48	0
CNSI_	6	192	0	0	24	5
CNSI_	6	216	5	0	168	1
EXSTR	7	0	0
NMSCL	7	0	0	96	48	7
CNSI_	7	144	7	0	24	1
CNSI_	7	168	1	0	120	4
NMTAP	7	288	6
NMSTR	8	0	4
NMSI_	8	0	4	96	48	0
NMTAP	8	0	5
NMTAP	8	192	2
NMSTR	8	192	3
NMSI_	8	192	3	96	48	7
NMSTR	9	0	4
NMSI_	9	0	4	96	48	1
NMTAP	9	0	6
NMTAP	9	192	1
NMSTR	9	192	3
NMSI_	9	192	3	96	48	6
EXTAP	10	0	5
EXTAP	10	0	7
EXTAP	10	96	0
EXTAP	10	96	2
NMTAP	10	192	2
NMTAP	10	192	5
NMTAP	10	240	2
NMTAP	10	240	5
NMTAP	10	288	3
NMTAP	10	312	4
NMTAP	10	336	3
NMTAP	10	360	4
BRTAP	11	0	0
EXTAP	12	0	4
NMTAP	12	48	4
NMTAP	12	96	1
NMTAP	12	144	1
NMTAP	12	192	0
NMTAP	12	240	1
NMTAP	12	288	2
NMHLD	12	288	7	96
NMHLD	13	0	3	48
NMTAP	13	48	5
NMHLD	13	96	4	48
NMTAP	13	144	6
NMSTR	13	192	5
NMSI_	13	192	5	96	48	2
NMTAP	13	288	6
NMTAP	14	0	4
NMTAP	14	48	4
NMTAP	14	96	1
NMTAP	14	144	1
NMTAP	14	192	0
NMTAP	14	240	1
NMSTR	14	288	2
NMSCL	14	288	2	96	96	6
NMTAP	14	288	7
NMSTR	15	0	6
NMSCL	15	0	6	96	96	2
NMTAP	15	96	2
NMSTR	15	192	0
NMSI_	15	192	0	96	48	4
NMSI_	15	192	0	96	48	6
EXTAP	16	0	3
NMTAP	16	48	3
NMTAP	16	96	6
NMTAP	16	144	6
NMTAP	16	192	7
NMTAP	16	240	6
NMHLD	16	288	0	96
NMTAP	16	288	5
NMTAP	17	0	4
NMTAP	17	48	4
NMTAP	17	96	2
NMSTR	17	96	3
NMSI_	17	96	3	96	48	7
NMSTR	17	192	1
NMSI_	17	192	1	96	48	5
NMTAP	17	288	6
EXSTR	18	0	5
NMSI_	18	0	5	96	48	2
EXHLD	18	0	7	96
EXSTR	18	192	1
NMSI_	18	192	1	96	48	6
EXHLD	18	192	4	96
NMTAP	19	0	5
NMTAP	19	48	5
NMTAP	19	96	2
NMTAP	19	144	2
NMTAP	19	192	4
NMTAP	19	216	3
NMTAP	19	240	4
NMTAP	19	264	3
EXTAP	19	288	7
NMHLD	20	0	2	192
NMTAP	20	48	5
NMTAP	20	96	4
NMTAP	20	144	5
NMHLD	20	192	6	192
NMTAP	20	240	1
NMTAP	20	288	2
NMTAP	20	336	1
NMHLD	21	0	0	96
NMTAP	21	48	7
NMTAP	21	96	6
NMTAP	21	144	5
NMSTR	21	192	1
NMSI_	21	192	1	96	48	3
NMSTR	21	192	4
NMSI_	21	192	4	96	48	7
NMTAP	22	0	0
NMTAP	22	48	7
NMTAP	22	96	6
NMTAP	22	144	5
NMTAP	22	192	3
NMTAP	22	192	4
NMTAP	22	240	2
NMTAP	22	288	1
NMTAP	22	336	0
NMSTR	23	0	7
NMSI_	23	0	7	96	48	5
NMSTR	23	96	0
NMSI_	23	96	0	96	48	4
NMTAP	23	96	7
NMTAP	23	192	0
NMSTR	23	192	1
NMSI_	23	192	1	96	48	3
NMTAP	23	288	1
NMTAP	23	288	3
NMTAP	24	0	0
NMTAP	24	0	5
NMTAP	24	48	0
NMTAP	24	48	5
NMTAP	24	96	0
NMHLD	24	96	5	96
NMHLD	24	192	1	192
NMTAP	24	240	6
NMTAP	24	288	5
NMTAP	24	336	6
NMHLD	25	0	7	96
NMTAP	25	48	0
NMTAP	25	96	1
NMTAP	25	144	2
NMSTR	25	192	3
NMSI_	25	192	3	96	48	0
NMSTR	25	192	6
NMSI_	25	192	6	96	48	4
NMTAP	26	0	1
NMTAP	26	24	3
NMTAP	26	48	1
NMTAP	26	72	3
NMTAP	26	96	2
NMTAP	26	120	4
NMTAP	26	144	2
NMTAP	26	168	4
NMTAP	26	192	3
NMTAP	26	216	5
NMTAP	26	240	3
NMTAP	26	264	5
NMTAP	26	288	4
NMTAP	26	312	6
NMTAP	26	336	4
NMTAP	26	360	6
NMSTR	27	0	5
NMSCR	27	0	5	96	96	2
NMTHO	27	192	0	96	C	0	M1
BXSTR	28	0	2
NMSCR	28	0	2	96	48	4
EXHLD	28	0	6	96
NMSTR	28	192	2
NMSV_	28	192	2	96	48	5
NMHLD	28	192	7	96
NMTAP	29	0	0
NMSTR	29	0	2
NMSCR	29	0	2	96	48	4
NMTAP	29	96	7
NMTAP	29	144	7
NMSTR	29	192	2
NMSV_	29	192	2	96	48	5
NMSTR	29	192	6
NMSCR	29	192	6	96	48	0
NMHLD	30	0	0	96
NMSTR	30	0	2
NMSCR	30	0	2	96	48	4
NMSTR	30	192	2
NMSV_	30	192	2	96	48	5
NMHLD	30	192	7	96
NMSTR	31	0	2
NMSCR	31	0	2	96	48	4
NMSTR	31	0	6
NMSCR	31	0	6	96	48	0
NMSTR	31	192	1
NMSI_	31	192	1	96	48	6
NMSTR	31	192	3
NMSI_	31	192	3	96	48	0
NMSTR	32	0	5
NMSCL	32	0	5	96	48	3
NMTAP	32	0	7
NMTAP	32	96	0
NMTAP	32	192	1
NMSTR	32	192	5
NMSV_	32	192	5	96	48	2
NMTAP	32	240	1
NMTAP	32	288	1
NMTAP	33	0	3
NMSTR	33	0	5
NMSCL	33	0	5	96	48	3
NMTAP	33	96	2
NMSTR	33	192	1
NMSCL	33	192	1	96	48	6
NMSTR	33	192	5
NMSV_	33	192	5	96	48	2
NMSTR	34	0	5
NMSCL	34	0	5	96	48	3
NMTAP	34	0	7
NMTAP	34	96	0
NMTAP	34	192	1
NMSTR	34	192	5
NMSV_	34	192	5	96	48	2
NMTAP	34	240	1
NMTAP	34	288	1
NMTAP	35	0	3
NMSTR	35	0	5
NMSCL	35	0	5	96	48	3
NMTAP	35	96	2
NMSTR	35	192	0
NMSUR	35	192	0	96	48	4
NMTAP	35	288	6
NMTAP	35	336	6
NMSTR	36	0	7
NMSI_	36	0	7	96	48	3
BRTAP	36	96	7
NMTAP	36	192	2
NMTAP	36	240	1
NMTAP	36	288	0
NMTAP	36	336	7
NMTAP	37	0	4
NMTAP	37	0	6
NMTAP	37	48	5
NMTAP	37	96	1
NMTAP	37	96	3
NMTAP	37	144	2
NMSTR	37	192	4
NMSI_	37	192	4	96	48	0
NMHLD	37	192	6	96
NMTAP	38	0	5
NMTAP	38	48	4
NMTAP	38	96	3
NMTAP	38	144	2
NMSTR	38	192	1
NMSI_	38	192	1	96	48	5
NMSTR	38	240	5
NMSI_	38	240	5	96	48	1
NMSTR	39	0	6
NMSI_	39	0	6	96	48	2
NMSTR	39	48	2
NMSI_	39	48	2	96	48	6
NMSTR	39	192	3
NMSI_	39	192	3	96	48	0
NMTTP	39	288	5	B	0	M1
NMTTP	39	288	6	B	0	M1
NMTTP	39	288	6	E	0	M1
EXTAP	40	0	0
NMTAP	40	48	1
NMHLD	40	96	2	192
NMSTR	40	96	7
NMSI_	40	96	7	96	48	3
NMSTR	40	192	7
NMSI_	40	192	7	96	48	5
NMTAP	40	288	7
EXTAP	41	0	3
NMTAP	41	48	4
NMSTR	41	96	0
NMSI_	41	96	0	96	48	4
NMHLD	41	96	5	192
NMSTR	41	192	0
NMSI_	41	192	0	96	48	2
NMTAP	41	288	0
NMTAP	42	0	4
NMTAP	42	24	3
NMTAP	42	48	4
NMTAP	42	72	3
NMTAP	42	96	5
NMTAP	42	120	2
NMTAP	42	144	5
NMTAP	42	168	2
NMTAP	42	192	6
NMTAP	42	216	1
NMTAP	42	240	6
NMTAP	42	264	1
NMTAP	42	288	7
NMTAP	42	312	0
NMTAP	42	336	7
NMTAP	42	360	0
NMHLD	43	0	7	288
NMTTP	43	96	0	C	0	M1
NMTTP	43	192	3	E	0	M1
NMTTP	43	288	0	E	0	M1
EXTAP	44	0	0
EXSTR	44	0	6
NMSLL	44	0	6	96	96	0
NMTAP	44	96	7
NMTAP	44	144	7
NMTAP	44	240	2
NMSTR	44	288	0
NMSCL	44	288	0	96	96	4
NMTAP	44	288	2
NMSTR	45	0	4
NMSCL	45	0	4	96	96	0
NMSTR	45	96	0
NMSCL	45	96	0	96	96	4
NMSTR	45	192	4
NMSI_	45	192	4	96	48	0
NMTAP	45	288	0
NMTAP	46	0	1
NMTAP	46	48	2
NMTAP	46	96	3
NMTAP	46	96	7
NMTAP	46	144	6
NMTAP	46	192	0
NMTAP	46	192	5
NMTAP	46	240	1
NMTAP	46	288	2
NMHLD	46	288	4	192
NMTTP	47	0	6	B	0	M1
NMTTP	47	0	7	B	0	M1
NMTTP	47	0	7	E	0	M1
NMTTP	47	96	2	B	0	M1
NMTTP	47	96	3	B	0	M1
NMTTP	47	96	3	E	0	M1
NMTAP	47	192	4
NMTAP	47	240	5
NMTAP	47	288	0
NMTAP	47	288	6
EXSTR	48	0	1
NMSLR	48	0	1	96	96	7
EXTAP	48	0	7
NMTAP	48	96	0
NMTAP	48	144	0
NMTAP	48	240	5
NMTAP	48	288	5
NMSTR	48	288	7
NMSCR	48	288	7	96	96	3
NMSTR	49	0	3
NMSCR	49	0	3	96	96	7
NMSTR	49	96	7
NMSCR	49	96	7	96	96	3
NMSTR	49	192	3
NMSI_	49	192	3	96	48	7
NMTAP	49	288	7
NMTAP	50	0	6
NMTAP	50	48	5
NMTAP	50	96	0
NMTAP	50	96	4
NMTAP	50	144	1
NMTAP	50	192	2
NMTAP	50	192	7
NMTAP	50	240	6
NMSTR	50	288	3
NMSI_	50	288	3	96	48	0
NMTAP	50	288	5
NMSTR	51	0	7
NMSI_	51	0	7	96	48	4
NMSTR	51	96	1
NMSI_	51	96	1	96	48	6
NMSTR	51	192	5
NMSI_	51	192	5	96	48	2
NMTAP	51	288	7
NMTAP	51	336	7
NMSTR	52	0	0
NMSI_	52	0	0	96	48	4
BRTAP	52	96	0
NMTAP	52	192	6
NMTAP	52	240	7
NMSTR	52	288	0
NMSCL	52	288	0	96	96	4
NMTAP	52	288	2
NMSTR	53	0	4
NMSCL	53	0	4	96	96	0
NMSTR	53	96	0
NMSCL	53	96	0	96	96	4
NMSTR	53	192	4
NMSI_	53	192	4	96	48	0
NMTAP	53	288	0
NMTAP	54	0	1
NMTAP	54	48	2
NMTAP	54	96	3
NMTAP	54	96	7
NMTAP	54	144	6
NMTAP	54	192	0
NMTAP	54	192	5
NMTAP	54	240	1
NMTAP	54	288	2
NMSTR	54	288	4
NMSI_	54	288	4	96	48	7
NMSTR	55	0	0
NMSI_	55	0	0	96	48	3
NMSTR	55	96	6
NMSI_	55	96	6	96	48	1
NMSTR	55	192	2
NMSI_	55	192	2	96	48	5
NMTAP	55	288	0
NMTAP	55	336	7
NMSTR	56	0	3
NMSI_	56	0	3	96	48	7
NMHLD	56	0	6	96
NMSTR	56	192	2
NMSI_	56	192	2	96	48	0
NMTAP	56	192	5
NMTAP	56	240	5
NMTAP	56	288	7
NMSTR	57	0	3
NMSI_	57	0	3	96	48	7
NMHLD	57	0	6	96
NMSTR	57	192	2
NMSI_	57	192	2	96	48	0
NMTAP	57	192	5
NMTAP	57	240	5
NMTAP	57	288	7
NMHLD	58	0	1	96
NMSTR	58	0	4
NMSI_	58	0	4	96	48	0
NMTAP	58	192	2
NMSTR	58	192	5
NMSI_	58	192	5	96	48	7
NMTAP	58	240	2
NMTAP	58	288	0
NMTAP	59	0	1
NMTAP	59	24	0
NMTAP	59	48	1
NMTAP	59	72	0
NMTAP	59	96	1
NMTAP	59	120	0
NMTAP	59	144	1
NMTAP	59	168	0
EXTAP	59	192	1
EXTAP	59	208	2
EXTAP	59	224	3
EXTAP	59	240	4
EXTAP	59	256	5
EXTAP	59	272	6
EXTAP	59	288	7
EXTAP	59	304	0
EXTAP	59	320	1
EXTAP	59	336	2
EXTAP	59	352	3
EXTAP	59	368	4
EXSTR	60	0	5
NMSUR	60	0	5	96	1056	0
BRSTR	60	0	7
NMSCL	60	0	7	96	1056	0
NMTTP	64	0	4	B	0	M1
NMTTP	64	144	3	B	0	M1
NMTTP	64	240	5	B	0	M1
NMTTP	64	240	6	B	0	M1
NMTTP	64	288	1	B	0	M1
NMTTP	64	288	2	B	0	M1
NMTTP	65	0	6	E	0	M1
NMTTP	65	48	2	E	0	M1
NMTTP	65	144	3	B	0	M1
NMTTP	65	144	4	B	0	M1
NMTTP	65	240	0	C	0	M1
NMTTP	65	288	7	E	0	M1
NMTTP	65	312	7	B	0	M1
NMTTP	65	336	0	B	0	M1
NMTTP	65	360	1	E	0	M1
NMTTP	66	0	5	B	0	M1
NMTTP	66	0	6	B	0	M1
NMTTP	66	96	1	B	0	M1
NMTTP	66	96	2	B	0	M1
NMTTP	66	192	5	E	0	M1
NMTTP	66	240	4	E	0	M1
NMTTP	66	288	3	E	0	M1
NMTHO	67	0	0	192	C	0	M1
EXHLD	68	0	1	96
EXTAP	68	0	7
NMTTP	68	96	3	B	0	M1
NMTAP	68	240	0
NMTAP	68	288	0
NMTTP	68	288	0	C	0	M1
EXHLD	69	0	2	96
EXTAP	69	0	7
NMTTP	69	96	4	E	0	M1
NMTAP	69	240	1
NMTTP	69	288	0	C	0	M1
NMTAP	69	288	1
EXTAP	70	0	0
EXHLD	70	0	6	96
NMTTP	70	96	4	B	0	M1
NMTAP	70	240	7
NMTTP	70	288	0	C	0	M1
NMTAP	70	288	7
EXTAP	71	0	0
EXHLD	71	0	5	96
NMTTP	71	96	4	E	0	M1
NMTAP	71	240	6
NMTTP	71	288	0	C	0	M1
NMTAP	71	288	6
EXTAP	72	0	1
NMTAP	72	48	1
NMTAP	72	96	1
NMTTP	72	96	4	B	0	M1
NMTTP	72	96	5	B	0	M1
EXTAP	72	192	0
NMTAP	72	240	0
NMTAP	72	288	0
NMTTP	72	288	3	B	0	M1
NMTTP	72	288	4	B	0	M1
EXTAP	73	0	7
NMTAP	73	48	7
NMTTP	73	96	2	B	0	M1
NMTTP	73	96	3	B	0	M1
NMTAP	73	96	7
EXTAP	73	192	6
NMTAP	73	240	6
NMTTP	73	288	1	B	0	M1
NMTTP	73	288	2	B	0	M1
NMTAP	73	288	6
NMTAP	74	0	5
NMTAP	74	24	4
NMTAP	74	48	5
NMTAP	74	72	4
NMTAP	74	96	6
NMTAP	74	120	3
NMTAP	74	144	6
NMTAP	74	168	3
NMTAP	74	192	7
NMTAP	74	216	2
NMTAP	74	240	7
NMTAP	74	264	2
NMTAP	74	288	0
NMTAP	74	312	1
NMTAP	74	336	0
NMTAP	74	360	1
NMTTP	75	0	0	C	1	M1
NMSTR	75	192	0
NMSI_	75	192	0	96	48	4
BXTAP	75	288	0
EXSTR	76	0	0
NMSI_	76	0	0	96	48	2
EXSTR	76	0	7
NMSI_	76	0	7	96	48	3
NMSTR	76	96	0
NMSI_	76	96	0	96	48	4
NMSTR	76	96	7
NMSI_	76	96	7	96	48	5
NMSTR	76	192	0
NMSI_	76	192	0	96	48	2
NMSTR	76	192	7
NMSI_	76	192	7	96	48	3
NMSTR	76	288	0
NMSI_	76	288	0	96	48	4
NMSTR	76	288	7
NMSI_	76	288	7	96	48	5
NMSTR	77	0	0
NMSI_	77	0	0	96	48	2
NMSTR	77	0	7
NMSI_	77	0	7	96	48	3
NMSTR	77	96	0
NMSI_	77	96	0	96	48	4
NMSTR	77	96	7
NMSI_	77	96	7	96	48	5
EXTAP	77	192	0
EXTAP	77	192	7
BXTAP	77	288	0
BXTAP	77	288	7
BXSTR	78	0	0
NMSI_	78	0	0	96	48	2
BXSTR	78	0	7
NMSI_	78	0	7	96	48	2
NMSTR	78	96	0
NMSI_	78	96	0	96	48	5
NMSTR	78	96	7
NMSI_	78	96	7	96	48	5
NMSTR	78	192	0
NMSI_	78	192	0	96	48	2
NMSTR	78	192	7
NMSI_	78	192	7	96	48	2
NMSTR	78	288	0
NMSI_	78	288	0	96	48	5
NMSTR	78	288	7
NMSI_	78	288	7	96	48	5
NMSTR	79	0	0
NMSI_	79	0	0	96	48	2
NMSTR	79	0	7
NMSI_	79	0	7	96	48	2
NMSTR	79	96	0
NMSI_	79	96	0	96	48	5
NMSTR	79	96	7
NMSI_	79	96	7	96	48	5
EXTAP	79	192	0
EXSTR	79	192	7
BRSF_	79	192	7	96	48	3
BXTAP	79	288	7
BXTAP	80	0	0
BXTAP	80	0	4
BXTAP	80	48	0
BXTAP	80	48	4
BXSTR	80	96	0
NMSI_	80	96	0	96	48	4
BXTAP	80	96	4
NMTAP	80	192	4
CNSI_	80	240	4	0	48	2
NMTAP	80	240	5
NMTAP	80	288	6
NMTAP	80	336	7
NMSTR	81	0	0
NMSCL	81	0	0	96	96	4
NMSTR	81	96	4
NMSCL	81	96	4	96	96	0
NMSTR	81	192	0
NMSCL	81	192	0	96	96	4
NMTAP	81	288	4
EXSTR	82	0	7
NMSXL	82	0	7	96	192	2
NMSXR	82	0	7	96	192	4
NMTAP	83	0	0
NMTAP	83	0	5
NMTAP	83	48	4
NMTAP	83	96	3
NMTAP	83	144	2
NMTAP	83	192	1
NMTAP	83	192	6
EXSTR	83	288	0
NMSI_	83	288	0	96	48	4
EXSTR	83	288	6
NMSI_	83	288	6	96	48	4
NMSTR	84	0	0
NMSI_	84	0	0	96	48	2
NMSTR	84	0	6
NMSI_	84	0	6	96	48	2
NMSTR	84	96	0
NMSI_	84	96	0	96	48	4
NMSTR	84	96	6
NMSI_	84	96	6	96	48	4
NMSTR	84	192	0
NMSI_	84	192	0	96	48	2
NMSTR	84	192	6
NMSI_	84	192	6	96	48	2
NMSTR	84	288	0
NMSI_	84	288	0	96	48	4
NMSTR	84	288	6
NMSI_	84	288	6	96	48	4
NMSTR	85	0	0
NMSI_	85	0	0	96	48	2
NMSTR	85	0	6
NMSI_	85	0	6	96	48	2
NMSTR	85	96	0
NMSI_	85	96	0	96	48	4
NMSTR	85	96	6
NMSI_	85	96	6	96	48	4
EXTAP	85	192	0
EXTAP	85	192	6
BXTAP	85	288	1
BXTAP	85	288	7
BXSTR	86	0	1
NMSI_	86	0	1	96	48	3
BXSTR	86	0	7
NMSI_	86	0	7	96	48	3
NMSTR	86	96	1
NMSI_	86	96	1	96	48	5
NMSTR	86	96	7
NMSI_	86	96	7	96	48	5
NMSTR	86	192	1
NMSI_	86	192	1	96	48	3
NMSTR	86	192	7
NMSI_	86	192	7	96	48	3
NMSTR	86	288	1
NMSI_	86	288	1	96	48	5
NMSTR	86	288	7
NMSI_	86	288	7	96	48	5
NMSTR	87	0	1
NMSI_	87	0	1	96	48	3
NMSTR	87	0	7
NMSI_	87	0	7	96	48	3
NMSTR	87	96	1
NMSI_	87	96	1	96	48	5
NMSTR	87	96	7
NMSI_	87	96	7	96	48	5
EXTAP	87	192	1
EXTAP	87	192	7
BXTAP	87	288	0
BXTAP	87	288	4
BXTAP	87	336	0
BXTAP	87	336	4
BXTAP	88	0	0
BXTAP	88	0	4
NMTAP	88	96	3
NMSTR	88	96	4
NMSI_	88	96	4	96	48	0
NMTAP	88	192	4
NMSTR	88	192	5
NMSI_	88	192	5	96	48	7
NMSTR	88	288	4
NMSCL	88	288	4	96	96	0
NMTAP	88	288	5
NMSTR	89	0	0
NMSCL	89	0	0	96	96	4
NMSTR	89	96	4
NMSCL	89	96	4	96	96	0
NMTAP	89	192	0
BXTAP	89	288	5
BXTAP	89	336	5
BXSTR	90	0	0
NMSCR	90	0	0	96	48	2
BXHLD	90	0	5	288
CNSI_	90	144	2	0	48	6
CNSCL	90	192	6	0	96	4
NMSTR	91	0	0
NMSXL	91	0	0	96	192	3
NMSXR	91	0	0	96	192	5
NMSTR	92	0	7
NMSI_	92	0	7	96	48	3
NMTAP	92	96	3
BRTAP	92	96	7
NMTAP	92	144	2
NMHLD	92	192	1	96
NMTAP	92	288	0
NMTAP	92	336	1
NMSTR	93	0	2
NMSI_	93	0	2	96	48	5
NMTAP	93	0	7
NMTAP	93	96	0
NMTAP	93	144	7
NMTAP	93	192	4
NMSTR	93	192	6
NMSI_	93	192	6	96	48	3
NMTAP	93	288	6
NMTAP	93	288	7
NMTAP	94	0	0
NMTAP	94	0	4
NMTAP	94	48	0
NMTAP	94	96	1
NMTAP	94	96	5
NMTAP	94	144	5
NMTAP	94	192	2
NMTAP	94	192	6
EXSTR	94	288	0
NMSUL	94	288	0	96	144	0
EXSTR	94	288	7
NMSCL	94	288	7	96	144	1
EXSTR	95	192	1
NMSI_	95	192	1	96	48	4
NMSI_	95	192	1	96	48	5
BXTAP	95	288	1
EXSTR	96	0	3
NMSI_	96	0	3	96	48	7
EXTAP	96	0	5
NMTAP	96	48	5
NMTAP	96	96	7
NMSTR	96	192	2
NMSI_	96	192	2	96	48	0
NMTAP	96	192	5
NMTAP	96	240	5
NMTAP	96	288	7
NMSTR	97	0	3
NMSI_	97	0	3	96	48	7
NMTAP	97	0	5
NMTAP	97	48	5
NMTAP	97	96	7
NMSTR	97	192	2
NMSI_	97	192	2	96	48	0
NMTAP	97	192	5
NMTAP	97	240	5
NMTAP	97	288	7
EXHLD	98	0	0	288
EXSTR	98	0	4
NMSCR	98	0	4	96	192	3
EXTAP	99	0	0
NMTAP	99	24	4
NMTAP	99	48	1
NMTAP	99	72	5
NMTAP	99	96	2
NMTAP	99	120	6
NMTAP	99	144	3
NMTAP	99	168	7
NMSTR	99	192	4
NMSI_	99	192	4	96	48	0
EXSTR	100	0	0
NMSI_	100	0	0	96	48	3
NMSI_	100	0	0	96	48	5
BRTAP	100	96	0
NMTAP	100	192	2
NMTAP	100	192	6
NMTAP	100	240	1
NMTAP	100	288	0
NMTAP	100	288	3
NMTAP	100	336	3
NMSTR	101	0	2
NMSI_	101	0	2	96	48	6
NMTAP	101	0	4
NMSTR	101	96	7
NMSI_	101	96	7	96	48	3
NMTAP	101	192	1
NMTAP	101	240	0
NMTAP	101	288	0
NMHLD	102	0	6	48
NMTAP	102	48	4
NMHLD	102	96	5	48
NMTAP	102	144	3
NMHLD	102	192	4	48
NMTAP	102	240	2
NMHLD	102	288	3	48
NMTAP	102	336	1
NMSTR	103	0	0
NMSI_	103	0	0	96	48	2
NMTAP	103	0	2
NMTAP	103	96	0
NMSTR	103	96	7
NMSI_	103	96	7	96	48	3
NMTAP	103	192	3
NMTAP	103	192	7
NMTTP	103	288	0	B	0	M1
NMTTP	103	288	1	B	0	M1
NMTTP	103	288	1	E	0	M1
EXTAP	104	0	7
NMTAP	104	48	7
NMTAP	104	96	4
NMTAP	104	144	4
NMTAP	104	192	6
NMTAP	104	240	6
NMTAP	104	288	0
NMTAP	104	336	0
NMSTR	105	0	3
NMSI_	105	0	3	96	48	7
NMTAP	105	96	3
NMSTR	105	96	6
NMSI_	105	96	6	96	48	4
NMTAP	105	192	6
NMTAP	105	192	7
NMTAP	105	240	0
NMTAP	105	288	1
NMTAP	105	336	2
NMTAP	106	0	3
NMTAP	106	0	4
NMTAP	106	48	3
NMTAP	106	48	4
NMTAP	106	96	4
NMTAP	106	96	5
NMTAP	106	144	4
NMTAP	106	144	5
NMTAP	106	192	6
NMTAP	106	216	5
NMTAP	106	240	6
NMTAP	106	264	5
NMTAP	106	288	6
NMTAP	106	312	5
NMTAP	106	336	6
NMTAP	106	360	5
EXTAP	107	0	7
EXTAP	107	12	0
EXTAP	107	24	1
EXTAP	107	36	2
EXTAP	107	48	3
EXTAP	107	60	4
EXTAP	107	72	5
EXTAP	107	84	6
EXTAP	107	96	7
EXTAP	107	108	0
EXTAP	107	120	1
EXTAP	107	132	2
EXTAP	107	144	3
EXTAP	107	156	4
EXTAP	107	168	5
EXTAP	107	180	6
EXSTR	107	192	3
NMSI_	107	192	3	96	48	0
EXSTR	107	192	7
NMSI_	107	192	7	96	48	4
EXTAP	107	288	3
EXTAP	107	288	7
NMTHO	108	0	0	48	C	0	M1

T_REC_TAP	347
T_REC_BRK	5
T_REC_XTP	59
T_REC_BXX	20
T_REC_HLD	26
T_REC_XHO	8
T_REC_BHO	0
T_REC_BXH	1
T_REC_STR	140
T_REC_BST	1
T_REC_XST	23
T_REC_XBS	7
T_REC_TTP	59
T_REC_THO	4
T_REC_SLD	175
T_REC_BSL	1
T_REC_ALL	876
T_NUM_TAP	628
T_NUM_BRK	35
T_NUM_HLD	38
T_NUM_SLD	175
T_NUM_ALL	876
T_JUDGE_TAP	661
T_JUDGE_HLD	97
T_JUDGE_SLD	176
T_JUDGE_ALL	934
TTM_EACHPAIRS	139
TTM_SCR_TAP	314000
TTM_SCR_BRK	91000
TTM_SCR_HLD	38000
TTM_SCR_SLD	262500
TTM_SCR_ALL	705500
TTM_SCR_S	680950
TTM_SCR_SS	702000
TTM_RAT_ACV	10049

