VERSION	0.00.00	1.04.00
FES_MODE	0
BPM_DEF	200.000	200.000	200.000	200.000
MET_DEF	4	4
RESOLUTION	384
CLK_DEF	384
COMPATIBLE_CODE	MA2

BPM	0	0	200.000
MET	0	0	4	4

NMTTP	2	0	0	C	1	M1
NMTTP	2	0	1	B	0	M1
NMTTP	2	0	1	A	0	M1
NMTTP	2	0	6	B	0	M1
NMTTP	2	0	6	A	0	M1
NMHLD	4	0	0	96
NMTAP	4	192	0
NMTAP	4	288	0
NMHLD	5	0	1	96
NMTAP	5	192	1
NMTAP	5	288	1
NMHLD	6	0	2	96
NMTAP	6	192	2
NMTAP	6	288	2
NMHLD	7	0	3	96
NMTAP	7	192	3
NMTAP	7	192	4
NMTAP	7	288	3
NMTAP	7	288	4
NMTAP	8	0	4
NMHLD	8	96	4	96
NMTAP	8	192	5
NMHLD	8	288	5	96
NMTAP	9	0	6
NMHLD	9	96	6	96
NMTAP	9	192	7
NMHLD	9	288	7	96
NMHLD	10	0	0	96
NMHLD	10	96	1	96
NMHLD	10	192	2	96
NMHLD	10	288	3	96
BRTAP	11	0	4
NMTAP	11	288	2
NMTAP	11	288	5
NMTAP	12	0	3
NMHLD	12	0	6	96
NMTAP	12	96	4
NMHLD	12	192	1	96
NMTAP	12	192	4
NMTAP	12	288	3
NMTAP	13	0	3
NMTAP	13	0	6
NMTAP	13	96	4
NMTAP	13	96	5
NMTAP	13	192	7
NMTAP	13	240	7
NMTAP	13	288	0
NMHLD	14	0	1	96
NMTAP	14	0	4
NMTAP	14	96	3
NMTAP	14	192	3
NMHLD	14	192	6	96
NMTAP	14	288	4
NMTAP	15	0	1
NMTAP	15	0	4
NMTAP	15	96	2
NMTAP	15	96	3
NMTAP	15	192	3
NMTAP	15	192	6
EXTAP	15	288	4
EXTAP	15	288	5
NMTAP	16	0	3
NMHLD	16	0	6	96
NMTAP	16	96	4
NMHLD	16	192	1	96
NMTAP	16	192	4
NMTAP	16	288	3
NMTAP	17	0	3
NMTAP	17	0	6
NMTAP	17	96	4
NMTAP	17	96	5
NMTAP	17	192	7
NMTAP	17	240	7
NMTAP	17	288	0
NMHLD	18	0	1	96
NMHLD	18	0	4	96
NMHLD	18	192	3	96
NMHLD	18	192	6	96
NMTAP	19	0	2
NMTAP	19	0	5
NMTAP	19	48	2
NMTAP	19	48	5
NMTAP	19	96	2
NMTAP	19	96	5
NMTAP	19	144	2
NMTAP	19	144	5
NMTAP	19	192	2
NMTAP	19	192	5
BRTAP	19	288	0
BRTAP	19	288	7
NMSTR	20	0	2
NMSI_	20	0	2	96	48	0
NMSTR	20	192	4
NMSI_	20	192	4	96	48	6
NMSTR	21	0	3
NMSI_	21	0	3	96	96	7
NMTAP	21	192	6
NMTAP	21	288	6
NMTAP	21	288	7
NMTAP	22	0	6
NMTAP	22	48	6
NMTAP	22	96	4
NMTAP	22	192	1
NMTAP	22	240	1
NMTAP	22	288	3
NMTAP	23	0	1
NMTAP	23	96	0
NMTAP	23	96	1
NMTAP	23	192	2
NMTAP	23	288	3
NMTAP	23	288	4
NMSTR	24	0	5
NMSI_	24	0	5	96	48	7
NMSTR	24	192	3
NMSI_	24	192	3	96	48	1
NMSTR	25	0	4
NMSI_	25	0	4	96	96	0
NMTAP	25	192	1
NMTAP	25	288	0
NMTAP	25	288	1
NMTAP	26	0	2
NMTAP	26	96	2
NMTAP	26	96	3
NMTAP	26	192	5
NMSTR	26	288	4
NMSLL	26	288	4	96	192	0
NMTAP	26	288	5
EXTAP	27	288	6
EXTAP	27	288	7
NMHLD	28	0	5	192
NMTAP	28	96	4
NMHLD	28	192	2	192
NMTAP	28	288	3
NMHLD	29	0	6	192
NMTAP	29	96	7
NMTAP	29	192	0
NMTAP	29	288	1
NMTAP	29	288	4
NMHLD	30	0	2	192
NMTAP	30	96	3
NMHLD	30	192	5	192
NMTAP	30	288	4
NMHLD	31	0	1	192
NMTAP	31	96	0
NMTAP	31	192	7
NMTAP	31	288	3
NMTAP	31	288	6
NMHLD	32	0	5	192
NMTTP	32	96	5	E	0	M1
NMHLD	32	192	2	192
NMTTP	32	288	3	E	0	M1
NMHLD	33	0	6	192
NMTTP	33	96	7	E	0	M1
NMTAP	33	192	0
NMTAP	33	288	1
NMTAP	33	288	4
NMHLD	34	0	2	192
NMTTP	34	96	3	E	0	M1
NMHLD	34	192	5	192
NMTTP	34	288	5	E	0	M1
NMHLD	35	0	1	192
NMTTP	35	96	1	E	0	M1
NMTAP	35	192	7
NMHLD	35	288	3	48
NMHLD	35	288	5	48
NMTAP	36	0	3
NMTAP	36	0	5
BRTAP	36	96	2
BRTAP	36	96	6
NMHLD	36	192	1	96
NMTAP	36	288	3
NMTAP	37	0	0
NMTAP	37	0	1
NMTAP	37	96	0
NMTAP	37	96	6
NMTAP	37	192	1
NMTAP	37	192	3
NMTAP	37	288	4
NMTAP	37	288	5
NMHLD	38	0	1	96
NMTAP	38	96	3
NMHLD	38	192	6	96
NMTAP	38	288	4
NMTAP	39	0	6
NMTAP	39	0	7
NMTAP	39	96	1
NMTAP	39	96	7
NMTAP	39	192	4
NMTAP	39	192	6
BRTAP	39	288	2
BRTAP	39	288	3
NMHLD	40	0	5	96
NMTAP	40	96	7
NMHLD	40	192	2	96
NMTAP	40	288	0
NMTAP	41	0	2
NMTAP	41	0	3
NMTAP	41	96	3
NMTAP	41	96	5
NMTAP	41	192	0
NMTAP	41	192	2
NMTAP	41	288	6
NMTAP	41	288	7
NMHLD	42	0	2	96
NMTAP	42	96	0
NMHLD	42	192	5	96
NMTAP	42	288	7
NMTAP	43	0	4
NMTAP	43	0	5
NMTAP	43	96	2
NMTAP	43	96	4
NMTAP	43	192	5
NMTAP	43	192	7
NMTAP	43	288	0
NMTAP	43	288	1
NMSTR	44	0	7
NMSI_	44	0	7	96	48	3
BXTAP	44	96	2
NMTAP	44	192	1
NMTAP	44	240	1
NMTAP	44	288	3
NMTAP	45	0	0
NMTAP	45	0	1
NMTAP	45	96	2
NMTAP	45	96	7
NMTAP	45	192	6
NMTAP	45	192	7
NMTAP	45	288	0
NMTAP	45	288	5
NMHLD	46	0	1	96
NMHLD	46	96	2	96
NMHLD	46	192	3	96
NMTAP	46	288	4
NMTAP	47	0	0
NMTAP	47	0	7
NMTAP	47	96	3
NMTAP	47	96	5
NMTAP	47	192	0
NMTAP	47	192	7
NMTAP	47	288	2
NMTAP	47	288	4
NMSTR	48	0	0
NMSI_	48	0	0	96	48	4
NMTAP	48	0	7
BXTAP	48	96	5
NMTAP	48	192	6
NMTAP	48	240	6
NMTAP	48	288	4
NMTAP	49	0	6
NMTAP	49	0	7
NMTAP	49	96	0
NMTAP	49	96	5
NMTAP	49	192	0
NMTAP	49	192	1
NMTAP	49	288	2
NMTAP	49	288	7
NMHLD	50	0	6	96
NMHLD	50	96	5	96
NMHLD	50	192	4	96
NMSTR	50	288	3
NMSXL	50	288	3	96	192	0
EXTAP	51	288	7
NMHLD	52	0	3	48
NMHLD	52	0	5	48
BRTAP	52	96	2
BRTAP	52	96	6
NMTAP	52	192	0
NMTAP	52	288	1
NMTAP	52	288	7
NMHLD	53	0	6	96
NMHLD	53	96	4	96
NMHLD	53	192	3	96
NMTAP	53	288	1
NMTAP	54	0	5
NMTAP	54	48	5
NMTAP	54	96	4
NMTAP	54	192	2
NMTAP	54	240	2
NMTAP	54	288	3
NMTAP	55	0	0
NMTAP	55	0	1
NMTAP	55	96	4
NMTAP	55	96	5
NMTAP	55	192	6
NMTAP	55	192	7
NMTAP	55	288	2
NMTAP	55	288	3
NMHLD	56	0	4	192
EXTAP	56	96	6
NMHLD	56	192	3	192
EXTAP	56	288	1
NMHLD	57	0	4	192
EXTAP	57	96	6
NMHLD	57	192	3	192
EXTAP	57	288	1
NMHLD	58	0	4	192
EXTAP	58	96	7
NMHLD	58	192	3	96
EXSTR	58	288	0
NMSUR	58	288	0	96	192	7
BXSTR	60	0	0
NMSSL	60	0	0	96	384	4
NMSTR	62	0	3
NMSXL	62	0	3	96	288	1
NMSTR	64	0	4
NMSCR	64	0	4	96	288	3
NMTAP	66	0	5
NMTAP	66	96	5
NMTAP	66	192	5
NMTAP	66	288	5
NMTAP	67	0	2
NMTAP	67	96	2
NMTAP	67	192	2
NMTAP	67	288	2
NMTAP	67	288	4
NMSTR	68	0	1
NMSCL	68	0	1	96	96	6
NMTAP	68	0	3
NMHLD	68	96	5	192
NMTAP	68	288	4
NMTAP	69	0	4
NMSTR	69	0	6
NMSCR	69	0	6	96	96	1
NMHLD	69	96	2	192
NMTAP	69	288	3
NMSTR	70	0	1
NMSCL	70	0	1	96	96	6
NMTAP	70	0	3
NMHLD	70	96	5	192
NMTAP	70	288	4
NMTAP	71	0	4
NMSTR	71	0	6
NMSCR	71	0	6	96	96	1
NMHLD	71	96	2	192
NMTAP	71	288	3
NMSTR	72	0	1
NMSI_	72	0	1	96	96	4
NMTAP	72	0	3
NMSTR	72	192	5
NMSI_	72	192	5	96	96	0
NMSTR	73	0	2
NMSI_	73	0	2	96	96	7
NMSTR	73	192	6
NMSI_	73	192	6	96	96	3
NMTAP	74	0	2
NMTAP	74	96	2
NMTAP	74	192	1
NMTAP	74	288	0
NMTAP	74	312	7
NMTAP	74	336	0
NMTAP	74	360	7
NMHLD	75	0	0	192
BXSTR	75	192	3
NMSI_	75	192	3	96	48	7
NMTAP	76	0	2
NMTAP	76	96	3
NMTAP	76	96	5
NMSTR	76	192	6
NMSI_	76	192	6	96	48	3
NMSTR	76	192	7
NMSI_	76	192	7	96	48	3
NMTAP	77	0	2
NMTAP	77	48	2
NMTAP	77	96	1
NMTAP	77	96	3
NMSTR	77	192	0
NMSI_	77	192	0	96	48	4
NMSTR	77	192	1
NMSI_	77	192	1	96	48	4
NMTAP	78	0	5
NMTAP	78	48	5
NMTAP	78	96	4
NMTAP	78	96	6
NMSTR	78	192	6
NMSI_	78	192	6	96	48	3
NMSTR	78	192	7
NMSI_	78	192	7	96	48	3
NMTAP	79	0	2
NMTAP	79	48	2
NMTAP	79	96	1
NMTAP	79	96	3
NMTAP	79	192	3
NMTAP	79	192	5
BRTAP	79	288	2
BRTAP	79	288	6
NMSTR	80	0	0
NMSI_	80	0	0	96	48	5
NMHLD	80	0	4	96
NMHLD	80	192	3	96
NMSTR	80	192	7
NMSI_	80	192	7	96	48	2
NMSTR	81	0	0
NMSI_	81	0	0	96	48	5
NMHLD	81	0	4	96
NMHLD	81	192	3	96
NMSTR	81	192	7
NMSI_	81	192	7	96	48	2
NMSTR	82	0	0
NMSXL	82	0	0	96	288	4
NMTAP	82	0	4
NMHLD	83	0	5	96
NMHLD	83	96	6	96
NMTAP	83	192	7
NMTAP	83	288	0
NMTAP	83	288	7
NMSTR	84	0	1
NMSI_	84	0	1	96	48	3
NMSTR	84	96	7
NMSI_	84	96	7	96	48	5
NMSTR	84	192	0
NMSI_	84	192	0	96	48	4
NMHLD	84	288	6	96
NMTAP	85	0	3
NMTAP	85	96	0
NMTAP	85	96	7
NMTAP	85	192	1
NMTAP	85	192	4
NMTAP	85	288	0
NMTAP	85	288	7
NMSTR	86	0	2
NMSI_	86	0	2	96	48	7
NMSTR	86	0	6
NMSI_	86	0	6	96	48	3
NMSTR	86	192	1
NMSI_	86	192	1	96	48	4
NMSTR	86	192	5
NMSI_	86	192	5	96	48	0
NMSTR	87	0	2
NMSI_	87	0	2	96	48	7
NMSTR	87	0	6
NMSI_	87	0	6	96	48	3
NMSTR	87	192	1
NMSI_	87	192	1	96	48	4
NMSTR	87	192	5
NMSI_	87	192	5	96	48	0
NMTAP	88	0	2
NMSTR	88	0	6
NMSI_	88	0	6	96	48	4
NMSTR	88	96	0
NMSI_	88	96	0	96	48	2
NMSTR	88	192	7
NMSI_	88	192	7	96	48	3
NMHLD	88	288	1	96
NMTAP	89	0	4
NMTAP	89	96	0
NMTAP	89	96	7
NMTAP	89	192	3
NMTAP	89	192	6
NMSTR	89	288	0
NMSI_	89	288	0	96	96	4
NMSTR	89	288	7
NMSI_	89	288	7	96	96	3
CNSI_	90	96	3	0	96	1
CNSI_	90	96	4	0	96	6
NMSTR	91	0	1
NMSI_	91	0	1	96	48	4
NMSTR	91	0	5
NMSI_	91	0	5	96	48	0
NMTAP	91	192	2
NMTAP	91	192	6
BRSTR	91	288	0
NMSI_	91	288	0	96	48	4
EXTAP	92	0	5
BRTAP	92	96	7
NMTAP	92	192	3
NMTAP	92	192	6
NMTAP	92	288	1
NMTAP	92	288	4
NMHLD	93	0	1	48
NMHLD	93	0	3	48
NMHLD	93	96	1	48
NMHLD	93	96	3	48
NMHLD	93	192	4	48
NMHLD	93	192	6	48
NMHLD	93	288	4	48
NMHLD	93	288	6	48
NMTAP	94	0	3
NMTAP	94	48	3
NMTAP	94	96	5
NMTAP	94	144	5
NMTAP	94	192	4
NMTAP	94	240	4
NMTAP	94	288	6
NMTAP	94	336	6
EXSTR	95	0	3
NMSCL	95	0	3	96	96	0
EXSTR	95	0	7
NMSCL	95	0	7	96	96	4
NMTTP	95	288	0	A	1	M1
NMTTP	95	288	1	A	0	M1
NMTTP	95	288	1	D	0	M1
NMTTP	95	288	3	A	0	M1
NMTTP	95	288	4	A	0	M1
NMTTP	95	288	4	D	0	M1
EXTAP	96	0	5
EXTAP	96	48	5
BXTAP	96	96	4
BXTAP	96	96	6
EXTAP	96	192	2
EXTAP	96	240	2
BXTAP	96	288	1
BXTAP	96	288	3
EXTAP	97	0	6
EXTAP	97	48	6
BXTAP	97	96	5
BXTAP	97	96	7
EXTAP	97	192	1
EXTAP	97	240	1
BXTAP	97	288	0
BXTAP	97	288	2
NMHLD	98	0	5	288
NMHLD	98	192	2	96
NMTAP	99	0	2
NMTAP	99	0	5
NMTAP	99	96	1
NMTAP	99	96	6
NMTAP	99	192	0
NMTAP	99	192	7
NMTAP	99	240	0
NMTAP	99	240	7
NMSTR	99	288	0
BRSI_	99	288	0	96	48	4
NMSTR	99	288	7
BRSI_	99	288	7	96	48	3
EXTAP	100	96	2
EXTAP	100	96	5
NMTAP	100	192	3
NMHLD	100	192	6	96
NMTAP	100	288	4
NMHLD	101	0	1	96
NMTAP	101	0	4
NMTAP	101	96	3
NMTAP	101	192	3
NMHLD	101	192	6	96
NMTAP	101	288	4
NMHLD	102	0	2	96
NMTAP	102	0	7
NMTAP	102	96	3
NMTAP	102	192	0
NMHLD	102	192	5	96
NMTAP	102	288	4
NMHLD	103	0	1	96
NMTAP	103	0	4
NMTAP	103	96	0
NMTAP	103	192	3
NMHLD	103	192	6	96
BRTAP	103	288	7
NMTAP	104	0	4
NMHLD	104	0	5	96
NMTAP	104	96	7
NMHLD	104	192	2	96
NMTAP	104	192	3
NMTAP	104	288	0
NMTAP	105	0	4
NMHLD	105	0	5	96
NMTAP	105	96	7
NMHLD	105	192	2	96
NMTAP	105	192	3
NMTAP	105	288	0
NMTAP	106	0	7
NMTAP	106	48	7
NMTAP	106	96	3
NMTAP	106	144	3
NMTAP	106	192	6
NMTAP	106	240	6
NMTAP	106	288	4
NMTAP	106	336	4
NMTAP	107	0	5
NMTAP	107	48	5
NMTAP	107	96	1
NMTAP	107	144	1
NMTAP	107	192	3
NMTAP	107	240	3
NMSTR	107	288	0
BRSF_	107	288	0	96	48	4

T_REC_TAP	302
T_REC_BRK	13
T_REC_XTP	21
T_REC_BXX	10
T_REC_HLD	94
T_REC_XHO	0
T_REC_BHO	0
T_REC_BXH	0
T_REC_STR	52
T_REC_BST	1
T_REC_XST	3
T_REC_XBS	2
T_REC_TTP	17
T_REC_THO	0
T_REC_SLD	55
T_REC_BSL	3
T_REC_ALL	573
T_NUM_TAP	395
T_NUM_BRK	29
T_NUM_HLD	94
T_NUM_SLD	55
T_NUM_ALL	573
T_JUDGE_TAP	421
T_JUDGE_HLD	224
T_JUDGE_SLD	58
T_JUDGE_ALL	703
TTM_EACHPAIRS	136
TTM_SCR_TAP	197500
TTM_SCR_BRK	75400
TTM_SCR_HLD	94000
TTM_SCR_SLD	82500
TTM_SCR_ALL	449400
TTM_SCR_S	433150
TTM_SCR_SS	446500
TTM_RAT_ACV	10064

