VERSION	0.00.00	1.04.00
FES_MODE	0
BPM_DEF	200.000	200.000	200.000	200.000
MET_DEF	4	4
RESOLUTION	384
CLK_DEF	384
COMPATIBLE_CODE	MA2

BPM	0	0	200.000
MET	0	0	4	4

EXTAP	4	0	6
EXTAP	5	0	6
EXTAP	6	0	6
EXTAP	7	0	6
NMTAP	8	0	5
NMTAP	8	192	4
NMTAP	9	0	3
NMTAP	9	192	2
NMTAP	10	0	1
NMTAP	10	96	1
NMTAP	10	192	1
BRTAP	11	0	0
BRTAP	11	0	1
NMTAP	12	0	1
NMTAP	12	96	1
NMTAP	12	192	1
NMTAP	13	0	2
NMTAP	13	96	2
NMTAP	13	192	2
NMTAP	14	0	3
NMTAP	14	96	3
NMTAP	14	192	3
NMTAP	15	0	4
NMTAP	15	96	4
NMTAP	15	192	4
NMTAP	15	192	5
NMTAP	16	0	6
NMTAP	16	96	6
NMTAP	16	192	6
NMTAP	17	0	5
NMTAP	17	96	5
NMTAP	17	192	5
NMTAP	18	0	4
NMTAP	18	96	4
NMTAP	18	192	4
NMTAP	19	0	3
NMTAP	19	96	3
NMTAP	19	192	2
NMTAP	19	192	3
NMTAP	20	0	1
NMTAP	20	96	1
NMTAP	20	192	2
NMTAP	20	288	2
NMTAP	21	0	3
NMTAP	21	96	3
NMTAP	21	192	4
NMTAP	21	192	5
NMTAP	22	0	6
NMTAP	22	96	6
NMTAP	22	192	5
NMTAP	22	288	5
NMTAP	23	0	4
NMTAP	23	96	4
NMTAP	23	192	2
NMTAP	23	192	3
NMTAP	24	0	1
NMTAP	24	96	1
NMTAP	24	192	2
NMTAP	24	288	2
NMTAP	25	0	3
NMTAP	25	96	3
NMTAP	25	192	4
NMTAP	25	192	5
NMTAP	26	0	6
NMTAP	26	96	6
NMTAP	26	192	5
NMTAP	26	288	5
NMTAP	27	0	4
NMTAP	27	96	4
NMTAP	27	192	2
NMTAP	27	192	3
NMHLD	28	0	1	192
NMTAP	28	192	0
NMHLD	29	0	6	192
NMTAP	29	192	7
NMHLD	30	0	1	192
NMTAP	30	192	0
NMHLD	31	0	6	192
NMTAP	31	192	7
EXTAP	32	0	5
EXTAP	32	48	5
EXTAP	32	96	5
EXTAP	33	0	4
EXTAP	33	48	4
EXTAP	33	96	4
EXTAP	34	0	3
EXTAP	34	48	3
EXTAP	34	96	3
EXTAP	35	0	2
EXTAP	35	48	2
EXTAP	35	96	2
NMTAP	36	0	1
NMTAP	36	96	1
NMTAP	36	192	1
NMTAP	36	288	0
NMTAP	36	288	1
NMTAP	37	0	2
NMTAP	37	96	2
NMTAP	37	192	2
NMTAP	37	288	2
NMTAP	37	288	3
NMTAP	38	0	4
NMTAP	38	96	4
NMTAP	38	192	4
NMTAP	38	288	4
NMTAP	38	288	5
NMTAP	39	0	6
NMTAP	39	96	6
NMTAP	39	192	0
NMTAP	39	192	7
NMTAP	40	0	6
NMTAP	40	96	6
NMTAP	40	192	6
NMTAP	40	288	6
NMTAP	40	288	7
NMTAP	41	0	5
NMTAP	41	96	5
NMTAP	41	192	5
NMTAP	41	288	4
NMTAP	41	288	5
NMTAP	42	0	3
NMTAP	42	96	3
NMTAP	42	192	3
NMTAP	42	288	2
NMTAP	42	288	3
NMTAP	43	0	1
NMTAP	43	96	1
NMTAP	43	192	0
NMTAP	43	192	7
NMTAP	44	0	6
NMTAP	44	96	6
NMTAP	44	192	4
NMTAP	44	192	5
NMTAP	44	288	4
NMTAP	44	288	5
NMTAP	45	0	3
NMTAP	45	96	3
NMTAP	45	192	2
NMTAP	45	192	3
NMTAP	46	0	1
NMTAP	46	96	1
NMTAP	46	192	2
NMTAP	46	192	3
NMTAP	46	288	2
NMTAP	46	288	3
NMTAP	47	0	4
NMTAP	47	96	4
NMTAP	47	192	4
NMTAP	47	192	5
NMTAP	48	0	5
NMTAP	48	96	5
NMTAP	48	192	6
NMTAP	48	192	7
NMTAP	48	288	6
NMTAP	48	288	7
NMTAP	49	0	0
NMTAP	49	96	0
NMTAP	49	192	0
NMTAP	49	192	1
NMTAP	50	0	2
NMTAP	50	96	2
NMTAP	50	192	0
NMTAP	50	192	1
NMTAP	50	288	0
NMTAP	50	288	1
NMTAP	51	0	7
NMTAP	51	96	7
EXTAP	51	192	6
EXTAP	51	192	7
NMTAP	52	0	6
NMTAP	52	96	6
NMTAP	52	192	4
NMTAP	52	192	5
NMTAP	52	288	4
NMTAP	52	288	5
NMTAP	53	0	3
NMTAP	53	48	3
NMTAP	53	96	3
NMTAP	53	192	2
NMTAP	53	192	3
NMTAP	54	0	1
NMTAP	54	96	1
NMTAP	54	192	2
NMTAP	54	192	3
NMTAP	54	288	2
NMTAP	54	288	3
NMTAP	55	0	4
NMTAP	55	48	4
NMTAP	55	96	4
NMTAP	55	192	4
NMTAP	55	192	5
NMTAP	56	0	5
NMTAP	56	96	5
NMTAP	56	192	6
NMTAP	56	192	7
NMTAP	56	288	6
NMTAP	56	288	7
NMTAP	57	0	0
NMTAP	57	48	0
NMTAP	57	96	0
NMTAP	57	192	0
NMTAP	57	192	1
NMTAP	58	0	2
NMTAP	58	96	2
NMTAP	58	192	0
NMTAP	58	192	1
NMTAP	58	288	0
NMTAP	58	288	1
NMTAP	59	0	7
NMTAP	59	48	7
NMTAP	59	96	7
NMTAP	59	192	6
NMTAP	59	192	7
NMSTR	60	0	0
NMSI_	60	0	0	96	192	3
NMSTR	61	0	4
NMSI_	61	0	4	96	192	7
NMSTR	62	0	0
NMSI_	62	0	0	96	192	5
NMTAP	63	0	6
NMTAP	63	96	6
NMTAP	63	192	6
NMSTR	64	0	7
NMSI_	64	0	7	96	192	4
NMSTR	65	0	3
NMSI_	65	0	3	96	192	0
NMSTR	66	0	7
NMSI_	66	0	7	96	192	2
NMTAP	67	0	1
NMTAP	67	96	1
NMTAP	67	192	1
NMTTP	68	0	0	B	0	L1
NMTTP	68	96	1	B	0	L1
NMTTP	68	192	2	B	0	L1
NMTTP	69	0	7	B	0	L1
NMTTP	69	96	6	B	0	L1
NMTTP	69	192	5	B	0	L1
NMTTP	70	0	0	B	0	L1
NMTTP	70	96	1	B	0	L1
NMTTP	70	192	2	B	0	L1
NMTTP	70	192	3	B	0	L1
NMTTP	71	0	7	B	0	L1
NMTTP	71	96	6	B	0	L1
NMTTP	71	192	4	B	0	L1
NMTTP	71	192	5	B	0	L1
NMTTP	72	0	1	E	0	L1
NMTTP	72	96	2	E	0	L1
NMTTP	72	192	3	E	0	L1
NMTTP	72	288	4	E	0	L1
NMTTP	73	0	5	E	0	L1
NMTTP	73	96	6	E	0	L1
NMTTP	73	192	0	E	0	L1
NMTTP	73	192	1	E	0	L1
NMTTP	73	192	7	E	0	L1
NMTTP	74	0	5	B	0	L1
NMTTP	74	96	4	B	0	L1
NMTTP	74	192	3	B	0	L1
NMTTP	74	288	2	B	0	L1
NMTTP	75	0	0	C	1	L1
EXTAP	76	0	1
NMTAP	76	48	1
NMTAP	76	96	1
NMTAP	76	192	2
NMTAP	76	192	3
NMTAP	76	288	2
NMTAP	76	288	3
NMTAP	77	0	4
NMTAP	77	48	4
NMTAP	77	96	4
NMTAP	77	192	4
NMTAP	77	192	5
NMTAP	78	0	6
NMTAP	78	48	6
NMTAP	78	96	6
NMTAP	78	192	4
NMTAP	78	192	5
NMTAP	78	288	4
NMTAP	78	288	5
NMTAP	79	0	3
NMTAP	79	48	3
NMTAP	79	96	3
NMTAP	79	192	2
NMTAP	79	192	3
NMTAP	80	0	1
NMTAP	80	48	1
NMTAP	80	96	1
NMTAP	80	192	2
NMTAP	80	192	3
NMTAP	80	288	2
NMTAP	80	288	3
NMTAP	81	0	4
NMTAP	81	48	4
NMTAP	81	96	4
NMTAP	81	192	4
NMTAP	81	192	5
NMTAP	82	0	6
NMTAP	82	48	6
NMTAP	82	96	6
NMTAP	82	192	4
NMTAP	82	192	5
NMTAP	82	288	4
NMTAP	82	288	5
EXTAP	83	0	3
EXTAP	83	96	3
EXTAP	83	192	2
EXTAP	83	192	3
NMTAP	84	0	2
NMTAP	84	48	2
NMTAP	84	96	2
NMTAP	84	192	1
NMTAP	84	240	1
NMTAP	84	288	1
NMTAP	85	0	0
NMTAP	85	48	0
NMTAP	85	96	0
NMTAP	85	192	6
NMTAP	85	192	7
NMTAP	86	0	5
NMTAP	86	48	5
NMTAP	86	96	5
NMTAP	86	192	6
NMTAP	86	240	6
NMTAP	86	288	6
NMTAP	87	0	7
NMTAP	87	48	7
NMTAP	87	96	7
NMTAP	87	192	0
NMTAP	87	192	1
NMTAP	88	0	2
NMTAP	88	48	2
NMTAP	88	96	2
NMTAP	88	192	1
NMTAP	88	240	1
NMTAP	88	288	1
NMTAP	89	0	0
NMTAP	89	0	7
NMTAP	89	96	0
NMTAP	89	96	7
NMTAP	89	192	0
NMTAP	89	192	7
NMTAP	90	0	6
NMTAP	90	96	5
NMTAP	90	192	4
NMTAP	90	288	3
NMTAP	91	0	2
NMTAP	91	96	1
BRTAP	91	192	0
BRTAP	91	192	7
NMTAP	92	0	6
NMTAP	92	96	6
NMTAP	92	192	6
NMTAP	92	288	6
NMTAP	92	288	7
NMTAP	93	0	5
NMTAP	93	96	5
NMTAP	93	192	5
NMTAP	93	288	4
NMTAP	93	288	5
NMTAP	94	0	2
NMTAP	94	96	2
NMTAP	94	192	2
NMTAP	94	288	2
NMTAP	94	288	3
NMTAP	95	0	1
NMTAP	95	96	1
NMTAP	95	192	0
NMTAP	95	192	1
EXTAP	96	0	2
NMTAP	96	48	2
NMTAP	96	96	2
EXTAP	96	192	3
NMTAP	96	240	3
NMTAP	96	288	3
EXTAP	97	0	4
NMTAP	97	48	4
NMTAP	97	96	4
EXTAP	97	192	5
NMTAP	97	240	5
NMTAP	97	288	5
NMSTR	98	0	6
NMSI_	98	0	6	96	192	3
NMSTR	98	0	7
NMSI_	98	0	7	96	192	2
NMSTR	99	0	0
NMSI_	99	0	0	96	192	5
NMSTR	99	0	1
NMSI_	99	0	1	96	192	4
NMTAP	100	0	6
NMTAP	100	96	6
NMTAP	100	192	5
NMTAP	100	288	4
NMTAP	101	0	3
NMTAP	101	96	2
NMTAP	101	192	0
NMTAP	101	192	1
NMTAP	102	0	1
NMTAP	102	96	1
NMTAP	102	192	2
NMTAP	102	288	3
NMTAP	103	0	4
NMTAP	103	96	5
NMTAP	103	192	6
NMTAP	103	192	7
NMTAP	104	0	7
NMTAP	104	96	6
NMTAP	104	192	5
NMTAP	104	288	4
NMTAP	105	0	3
NMTAP	105	96	2
NMTAP	105	192	1
NMTAP	105	288	0
NMTAP	106	0	7
NMTAP	106	96	6
NMTAP	106	192	5
NMTAP	106	288	4
NMTAP	107	0	3
NMTAP	107	96	2
NMTAP	107	192	1
NMTAP	107	288	0
BRTAP	108	0	0
BRTAP	108	0	7

T_REC_TAP	336
T_REC_BRK	6
T_REC_XTP	27
T_REC_BXX	0
T_REC_HLD	4
T_REC_XHO	0
T_REC_BHO	0
T_REC_BXH	0
T_REC_STR	10
T_REC_BST	0
T_REC_XST	0
T_REC_XBS	0
T_REC_TTP	28
T_REC_THO	0
T_REC_SLD	10
T_REC_BSL	0
T_REC_ALL	421
T_NUM_TAP	401
T_NUM_BRK	6
T_NUM_HLD	4
T_NUM_SLD	10
T_NUM_ALL	421
T_JUDGE_TAP	407
T_JUDGE_HLD	16
T_JUDGE_SLD	10
T_JUDGE_ALL	433
TTM_EACHPAIRS	66
TTM_SCR_TAP	200500
TTM_SCR_BRK	15600
TTM_SCR_HLD	4000
TTM_SCR_SLD	15000
TTM_SCR_ALL	235100
TTM_SCR_S	227500
TTM_SCR_SS	234500
TTM_RAT_ACV	10025

