VERSION	0.00.00	1.04.00
FES_MODE	0
BPM_DEF	185.000	185.000	185.000	185.000
MET_DEF	4	4
RESOLUTION	384
CLK_DEF	384
COMPATIBLE_CODE	MA2

BPM	0	0	185.000
MET	0	0	4	4

NMTTP	1	0	4	E	0	M1
NMTTP	1	12	3	B	0	M1
NMTTP	1	24	2	B	0	M1
NMTTP	3	0	4	E	0	M1
NMTTP	3	12	4	B	0	M1
NMTTP	3	24	5	B	0	M1
NMTTP	4	0	3	B	0	M1
NMTTP	4	0	4	B	0	M1
NMTTP	4	12	2	B	0	M1
NMTTP	4	12	5	B	0	M1
NMTTP	4	24	2	E	0	M1
NMTTP	4	24	6	E	0	M1
EXHLD	5	0	2	864
EXTAP	5	0	5
NMTAP	5	96	5
NMTAP	5	192	4
NMTAP	5	288	4
NMTAP	6	0	3
NMTAP	6	96	3
NMTAP	6	192	4
NMTAP	6	288	4
NMTAP	7	0	5
NMHLD	7	96	5	768
NMTAP	7	192	3
NMTAP	7	288	3
NMTAP	8	0	4
NMTAP	8	96	4
NMTAP	8	192	3
NMTAP	8	288	3
NMTAP	9	0	2
NMHLD	9	96	2	672
NMTAP	9	192	4
NMTAP	9	288	4
NMTAP	10	0	3
NMTAP	10	96	3
NMTAP	10	192	4
NMTAP	10	288	4
NMSTR	11	0	5
NMSCR	11	0	5	96	288	1
NMTAP	11	96	4
NMTAP	11	192	3
NMTAP	11	288	2
NMHLD	11	336	2	336
CNSCL	12	0	1	0	288	5
EXTAP	13	0	1
NMHLD	13	96	1	672
NMTAP	13	192	2
NMTAP	13	288	2
NMTAP	14	0	0
NMTAP	14	96	0
NMTAP	14	192	7
NMTAP	14	288	7
NMTAP	15	0	6
NMHLD	15	96	6	672
NMTAP	15	192	5
NMTAP	15	288	5
NMTAP	16	0	7
NMTAP	16	96	7
NMTAP	16	192	0
NMTAP	16	288	0
NMTAP	17	0	1
NMHLD	17	96	1	672
NMTAP	17	192	2
NMTAP	17	288	2
NMTAP	18	0	0
NMTAP	18	96	0
NMTAP	18	192	7
NMTAP	18	288	7
NMTAP	19	0	6
NMTAP	19	48	5
NMTAP	19	96	4
NMTAP	19	144	3
NMTAP	19	192	2
NMTAP	19	240	1
NMTAP	19	288	0
NMTAP	19	336	7
NMSTR	20	0	7
NMSI_	20	0	7	96	48	3
NMTAP	20	96	2
NMSTR	20	144	2
NMSI_	20	144	2	96	48	6
NMTAP	20	240	5
NMTAP	20	288	5
EXTAP	21	0	0
EXTAP	21	48	0
EXTAP	21	144	2
EXTAP	21	144	6
EXTAP	21	192	2
EXTAP	21	192	6
NMTHO	21	288	0	288	C	0	M1
EXHLD	21	288	1	288
NMTAP	22	288	0
NMTAP	22	288	7
NMSTR	23	0	5
NMSCR	23	0	5	96	192	2
NMTTP	23	96	0	B	0	M1
NMTTP	23	96	7	B	0	M1
NMTTP	23	288	3	B	0	M1
NMTTP	23	288	4	B	0	M1
NMSTR	24	0	2
NMSCL	24	0	2	96	192	5
NMTTP	24	96	0	B	0	M1
NMTTP	24	96	7	B	0	M1
NMTTP	24	288	3	B	0	M1
NMTTP	24	288	4	B	0	M1
EXTAP	25	0	7
EXTAP	25	48	7
EXTAP	25	144	1
EXTAP	25	144	5
EXTAP	25	192	1
EXTAP	25	192	5
NMTHO	25	288	0	288	C	0	M1
EXHLD	25	288	2	288
NMTAP	26	288	0
NMTAP	26	288	7
NMSTR	27	0	6
NMSCL	27	0	6	96	192	1
NMTTP	27	96	3	B	0	M1
NMTTP	27	96	4	B	0	M1
NMTTP	27	288	0	B	0	M1
NMTTP	27	288	7	B	0	M1
NMSTR	28	0	1
NMSCR	28	0	1	96	192	6
NMTTP	28	96	3	B	0	M1
NMTTP	28	96	4	B	0	M1
NMTTP	28	288	0	B	0	M1
NMTTP	28	288	7	B	0	M1
EXHLD	29	0	4	96
NMTAP	29	96	1
NMHLD	29	192	3	96
NMTAP	29	192	5
NMTAP	29	240	6
NMTAP	29	288	6
NMTAP	30	0	2
NMHLD	30	0	4	96
NMTAP	30	96	1
NMHLD	30	192	3	96
NMTAP	30	192	5
NMTAP	30	240	6
NMTAP	30	288	6
NMSTR	31	0	2
NMSCR	31	0	2	96	96	5
NMTAP	31	0	3
NMTAP	31	96	6
NMSTR	31	144	6
NMSCR	31	144	6	96	96	1
NMSTR	31	240	2
NMSI_	31	240	2	96	48	6
NMTAP	32	48	4
NMTAP	32	96	3
NMTAP	32	96	5
NMTAP	32	144	3
NMTAP	32	192	2
NMTAP	32	192	4
NMTAP	32	240	4
NMTAP	32	288	3
NMTAP	32	288	5
EXSTR	33	0	0
NMSI_	33	0	0	96	48	4
EXTAP	33	0	7
NMTTP	33	96	6	E	0	M1
EXSTR	33	192	7
NMSI_	33	192	7	96	48	3
NMTTP	33	288	2	E	0	M1
EXSTR	34	0	0
NMSUR	34	0	0	96	48	4
NMTTP	34	96	5	B	0	M1
NMTTP	34	96	5	A	0	M1
EXSTR	34	192	7
NMSUL	34	192	7	96	48	3
NMTTP	34	288	2	B	0	M1
NMTTP	34	288	2	A	0	M1
NMTAP	35	0	0
NMTAP	35	0	1
NMTAP	35	96	6
NMTAP	35	96	7
NMTAP	35	192	5
NMTAP	35	216	4
NMTAP	35	240	5
NMTAP	35	264	4
NMTAP	35	288	5
NMTAP	35	312	4
NMTAP	35	336	5
NMTAP	35	360	4
EXSTR	36	0	5
NMSSR	36	0	5	96	192	1
BXHLD	37	0	3	96
BXHLD	37	0	4	96
BXHLD	37	144	2	96
BXHLD	37	144	6	96
BXHLD	37	288	1	336
BXSTR	37	288	5
NMSUR	37	288	5	96	96	2
NMTAP	38	192	3
NMTAP	38	240	3
NMTAP	38	336	4
NMTAP	38	336	5
NMHLD	39	0	4	96
NMHLD	39	0	5	96
NMHLD	39	144	6	96
NMHLD	39	144	7	96
NMTAP	39	288	0
NMTAP	39	288	1
NMSTR	40	0	3
NMSXR	40	0	3	96	96	3
NMTAP	40	0	4
NMSTR	40	96	3
BRSXL	40	96	3	96	96	3
BXHLD	41	0	3	96
BXHLD	41	0	4	96
BXHLD	41	144	1	96
BXHLD	41	144	5	96
BXSTR	41	288	2
NMSUL	41	288	2	96	96	5
BXHLD	41	288	6	336
NMTAP	42	192	4
NMTAP	42	240	4
NMTAP	42	336	2
NMTAP	42	336	3
NMHLD	43	0	2	96
NMHLD	43	0	3	96
NMHLD	43	144	0	96
NMHLD	43	144	1	96
NMTAP	43	288	6
NMSTR	43	288	7
NMSCR	43	288	7	96	96	3
NMSTR	44	0	3
NMSCR	44	0	3	96	96	7
NMSTR	44	96	7
BRSCR	44	96	7	96	96	3
NMTAP	44	192	3
NMTTP	44	288	0	B	0	M1
NMTTP	44	288	0	E	1	M1
NMTTP	44	288	7	B	0	M1
EXTAP	45	0	4
EXHLD	45	0	5	48
NMTAP	45	96	3
NMHLD	45	96	5	48
NMTAP	45	192	4
NMHLD	45	192	5	48
NMTAP	45	288	2
NMHLD	45	288	5	48
NMTAP	46	0	4
NMHLD	46	0	5	48
NMTAP	46	96	1
NMHLD	46	96	5	48
NMTAP	46	192	4
NMHLD	46	192	5	48
NMTAP	46	288	0
NMHLD	46	288	5	48
EXHLD	47	0	2	48
EXTAP	47	0	3
NMHLD	47	96	2	48
NMTAP	47	96	4
NMHLD	47	192	2	48
NMTAP	47	192	3
NMHLD	47	288	2	48
NMTAP	47	288	5
NMHLD	48	0	2	48
NMTAP	48	0	3
NMHLD	48	96	2	48
NMTAP	48	96	6
NMHLD	48	192	2	48
NMTAP	48	192	3
NMHLD	48	288	2	48
NMTAP	48	288	7
EXTAP	49	0	2
EXHLD	49	0	3	48
NMTAP	49	48	2
NMTAP	49	96	2
NMHLD	49	96	4	48
NMTAP	49	144	2
NMTAP	49	192	2
NMHLD	49	192	5	48
NMTAP	49	240	2
NMTAP	49	288	2
NMHLD	49	288	6	48
NMTAP	49	336	2
EXHLD	50	0	3	48
EXTAP	50	0	7
NMTAP	50	48	7
NMHLD	50	96	2	48
NMTAP	50	96	7
NMTAP	50	144	7
NMHLD	50	192	1	48
NMTAP	50	192	7
NMTAP	50	240	7
NMTAP	50	288	0
NMTAP	50	288	7
EXTAP	51	0	6
NMTAP	51	24	7
NMTAP	51	48	6
NMTAP	51	72	7
EXTAP	51	96	6
NMTAP	51	120	7
NMTAP	51	144	6
NMTAP	51	168	7
EXTAP	51	192	6
EXTAP	51	216	5
EXTAP	51	240	4
EXTAP	51	264	3
EXTAP	51	288	2
EXTAP	51	312	1
EXTAP	51	336	0
EXTAP	51	360	7
BXTAP	52	0	2
BXTAP	52	0	6
NMTAP	52	96	3
NMTAP	52	144	2
NMTAP	52	144	4
NMTAP	52	192	1
NMTAP	52	192	5
NMTAP	52	240	0
NMTAP	52	240	6
NMTTP	52	336	0	C	1	M1
NMHLD	52	336	5	768
NMTAP	53	96	0
NMTAP	53	144	0
NMTAP	53	192	7
NMTAP	53	240	0
NMSTR	53	336	1
NMSI_	53	336	1	96	48	6
NMSTR	54	144	4
NMSI_	54	144	4	96	48	1
NMTAP	54	336	0
EXTAP	55	0	0
EXTAP	55	0	6
NMTAP	55	96	1
NMTAP	55	144	1
NMTAP	55	192	7
NMSTR	55	240	0
NMSI_	55	240	0	96	48	4
NMSTR	55	336	6
NMSI_	55	336	6	96	48	3
NMSTR	56	48	2
NMSI_	56	48	2	96	48	6
NMSTR	56	144	5
NMSI_	56	144	5	96	48	0
NMTAP	56	240	1
NMTAP	56	336	3
EXTAP	57	0	2
EXTAP	57	0	4
NMTAP	57	96	6
NMTAP	57	144	6
NMTAP	57	192	0
NMSTR	57	240	7
NMSI_	57	240	7	96	48	3
NMSTR	57	336	1
NMSI_	57	336	1	96	48	4
NMSTR	58	48	5
NMSI_	58	48	5	96	48	1
NMSTR	58	144	2
NMSI_	58	144	2	96	48	7
NMTAP	58	240	6
NMTAP	58	336	4
EXTAP	59	0	3
EXTAP	59	0	5
NMTAP	59	96	1
NMTAP	59	144	1
NMTAP	59	192	7
NMTAP	59	240	0
NMTAP	59	240	7
NMTAP	59	336	4
NMTAP	59	336	5
BRTAP	60	0	4
BRTAP	60	0	5
BRTAP	60	96	2
BRTAP	60	96	3
NMTAP	60	192	1
NMTAP	60	216	0
NMTAP	60	240	1
BRTAP	60	288	2
BRTAP	60	288	7
EXTAP	61	0	3
EXTAP	61	0	4
NMTAP	61	96	1
NMTAP	61	144	1
NMTAP	61	192	7
NMSTR	61	240	0
NMSUR	61	240	0	96	48	4
NMSTR	61	336	6
NMSCL	61	336	6	96	48	3
NMSTR	62	48	2
NMSUL	62	48	2	96	48	6
NMSTR	62	144	5
NMSCR	62	144	5	96	48	0
NMTAP	62	240	1
NMTAP	62	336	3
EXTAP	63	0	2
EXTAP	63	0	4
NMTAP	63	96	6
NMTAP	63	144	6
NMTAP	63	192	0
NMSTR	63	240	7
NMSUL	63	240	7	96	48	3
NMSTR	63	336	1
NMSCR	63	336	1	96	48	4
NMSTR	64	48	5
NMSUR	64	48	5	96	48	1
NMSTR	64	144	2
NMSCL	64	144	2	96	48	7
NMTAP	64	240	6
NMTAP	64	336	4
EXTAP	65	0	3
EXTAP	65	0	5
NMTAP	65	96	1
NMTAP	65	144	1
NMTAP	65	192	7
NMSTR	65	240	0
BRSUR	65	240	0	96	48	4
NMSTR	65	336	6
BRSCL	65	336	6	96	48	3
NMSTR	66	48	2
BRSUL	66	48	2	96	48	6
NMSTR	66	144	5
BRSCR	66	144	5	96	48	0
NMTAP	66	240	1
NMTAP	66	336	2
BXHLD	67	0	1	384
BXSTR	67	0	3
NMSXR	67	0	3	96	192	7
NMHLD	68	0	6	240
NMTAP	68	96	2
NMTAP	68	144	3
NMTAP	68	192	4
NMTAP	68	240	5
NMTAP	68	336	6
NMTAP	68	336	7
NMSTR	69	0	0
NMSI_	69	0	0	96	48	4
NMTAP	69	48	7
NMTAP	69	96	6
NMSTR	69	144	5
NMSI_	69	144	5	96	48	3
NMTAP	69	192	2
NMTAP	69	240	1
NMSTR	69	288	0
NMSF_	69	288	0	96	96	4
NMTAP	70	192	2
NMTAP	70	192	6
NMTAP	70	240	2
NMTAP	70	240	6
NMTAP	70	336	1
NMTAP	70	336	5
NMTAP	71	0	1
NMSTR	71	0	5
NMSUR	71	0	5	96	48	1
NMTAP	71	96	3
NMTTP	71	96	5	A	1	M1
NMSTR	71	192	2
NMSUL	71	192	2	96	48	6
NMTTP	71	288	2	A	1	M1
NMTAP	71	288	4
NMTAP	72	0	5
NMTAP	72	48	4
NMTAP	72	96	3
NMTAP	72	144	2
NMTTP	72	192	0	B	0	M1
NMTTP	72	192	0	E	0	M1
NMTTP	72	192	7	B	0	M1
NMTTP	72	240	3	B	0	M1
NMTTP	72	240	4	B	0	M1
NMTTP	72	240	4	E	0	M1
NMSTR	73	0	7
NMSI_	73	0	7	96	48	3
NMTAP	73	48	0
NMTAP	73	96	1
NMSTR	73	144	2
NMSI_	73	144	2	96	48	4
NMTAP	73	192	5
NMTAP	73	240	6
NMSTR	73	288	7
NMSF_	73	288	7	96	96	3
NMTAP	74	192	1
NMTAP	74	192	5
NMTAP	74	240	2
NMTAP	74	240	4
NMTAP	74	336	3
NMTAP	74	336	6
BRSTR	75	0	4
BRSI_	75	0	4	96	48	0
BRSTR	75	0	5
BRSI_	75	0	5	96	48	0
NMSTR	75	192	2
NMSXL	75	192	2	96	96	3
NMSLL	75	192	2	96	96	3
NMTAP	76	96	1
NMTAP	76	96	4
NMTAP	76	144	2
NMTAP	76	168	3
NMTAP	76	192	2
BRTAP	76	240	0
BRTAP	76	240	1
BRTAP	76	288	0
BRTAP	76	288	7
NMSTR	77	0	0
NMSUR	77	0	0	96	48	4
NMTAP	77	48	7
NMTAP	77	96	6
NMSTR	77	144	5
NMSXR	77	144	5	96	48	3
NMTAP	77	192	2
NMTAP	77	240	1
NMSTR	77	288	0
NMSF_	77	288	0	96	96	4
NMTAP	78	192	2
NMTAP	78	192	6
NMSTR	78	240	2
NMSI_	78	240	2	96	48	6
NMTAP	78	240	6
NMTAP	78	336	5
NMTAP	79	0	5
NMTAP	79	96	0
NMTAP	79	96	4
NMTAP	79	144	1
NMTAP	79	192	2
NMTAP	79	192	6
NMTAP	79	240	5
NMSTR	79	288	0
NMSCL	79	288	0	96	48	5
NMTAP	79	288	4
EXSTR	80	0	0
NMSCR	80	0	0	96	48	3
EXHLD	80	0	6	192
EXSTR	80	96	0
NMSI_	80	96	0	96	48	4
EXTAP	80	192	0
NMTAP	80	288	1
NMTAP	80	288	7
EXTAP	81	0	2
EXTAP	81	0	3
NMTAP	81	48	2
NMTAP	81	48	3
NMTAP	81	96	1
NMTAP	81	96	4
NMTAP	81	144	1
NMTAP	81	144	4
NMTAP	81	192	0
NMTAP	81	192	5
NMTAP	81	240	0
NMTAP	81	240	5
NMTAP	81	288	6
NMTAP	81	288	7
NMTAP	81	336	6
NMTAP	81	336	7
EXTAP	82	0	5
NMTAP	82	24	4
NMTAP	82	48	5
NMTAP	82	72	4
NMTAP	82	96	5
NMTAP	82	120	4
NMTAP	82	144	5
NMTAP	82	168	4
NMTAP	82	192	5
NMTAP	82	216	4
NMTAP	82	240	5
EXTAP	82	288	3
EXTAP	82	288	6
EXSTR	83	0	2
NMSI_	83	0	2	96	48	6
EXSTR	83	0	3
NMSI_	83	0	3	96	48	7
NMTAP	83	48	2
NMTAP	83	48	3
EXSTR	83	192	4
NMSI_	83	192	4	96	48	0
EXSTR	83	192	5
NMSI_	83	192	5	96	48	1
NMTAP	83	240	4
NMTAP	83	240	5
NMSTR	84	0	6
NMSI_	84	0	6	96	48	3
NMTAP	84	0	7
NMSTR	84	96	1
NMSI_	84	96	1	96	48	4
NMTAP	84	96	6
NMTAP	84	192	0
NMTAP	84	192	1
BRTAP	84	288	2
BRSTR	84	288	7
BRSF_	84	288	7	96	576	3
NMSTR	87	0	1
NMSI_	87	0	1	96	48	3
CNSV_	87	144	3	0	96	4
CNSI_	87	240	4	0	48	6
NMHLD	88	0	1	288
NMSTR	88	0	4
NMSI_	88	0	4	96	96	0
CNSI_	88	192	0	0	96	2
NMTAP	89	0	3
NMHLD	89	0	4	144
NMHLD	89	144	2	144
NMSTR	89	288	0
NMSCL	89	288	0	96	192	3
NMTAP	91	0	2
NMSTR	91	0	3
NMSCR	91	0	3	96	192	0
NMSTR	92	0	3
NMSI_	92	0	3	96	96	7
NMHLD	92	0	6	336
CNSI_	92	192	7	0	144	5

T_REC_TAP	275
T_REC_BRK	11
T_REC_XTP	47
T_REC_BXX	2
T_REC_HLD	42
T_REC_XHO	9
T_REC_BHO	0
T_REC_BXH	11
T_REC_STR	58
T_REC_BST	3
T_REC_XST	11
T_REC_XBS	3
T_REC_TTP	46
T_REC_THO	2
T_REC_SLD	67
T_REC_BSL	9
T_REC_ALL	596
T_NUM_TAP	437
T_NUM_BRK	39
T_NUM_HLD	53
T_NUM_SLD	67
T_NUM_ALL	596
T_JUDGE_TAP	456
T_JUDGE_HLD	250
T_JUDGE_SLD	76
T_JUDGE_ALL	782
TTM_EACHPAIRS	112
TTM_SCR_TAP	218500
TTM_SCR_BRK	101400
TTM_SCR_HLD	53000
TTM_SCR_SLD	100500
TTM_SCR_ALL	473400
TTM_SCR_S	455450
TTM_SCR_SS	469500
TTM_RAT_ACV	10083

