VERSION	0.00.00	1.04.00
FES_MODE	0
BPM_DEF	185.000	185.000	185.000	185.000
MET_DEF	4	4
RESOLUTION	384
CLK_DEF	384
COMPATIBLE_CODE	MA2

BPM	0	0	185.000
MET	0	0	4	4

NMHLD	1	0	4	1152
NMHLD	3	0	3	384
EXHLD	5	0	2	576
EXTAP	5	0	4
NMTAP	5	96	4
NMTAP	5	192	4
NMTAP	5	288	4
NMTAP	6	0	3
NMTAP	6	96	3
NMTAP	6	192	4
NMTAP	6	288	4
NMTAP	7	0	3
NMHLD	7	0	5	576
NMTAP	7	96	3
NMTAP	7	192	3
NMTAP	7	288	3
NMTAP	8	0	4
NMTAP	8	96	4
NMTAP	8	192	3
NMTAP	8	288	3
NMHLD	9	0	2	672
NMTAP	9	0	4
NMTAP	9	96	4
NMTAP	9	192	3
NMTAP	9	288	3
NMTAP	10	0	4
NMTAP	10	96	4
NMTAP	10	192	3
NMTAP	10	288	3
NMTAP	11	0	4
NMTAP	11	96	4
NMTAP	11	192	3
NMTAP	11	192	5
NMTAP	11	288	3
NMTAP	11	288	5
NMTAP	12	0	6
NMTAP	12	96	5
NMTAP	12	192	2
NMTAP	12	192	4
NMTAP	13	0	3
EXHLD	13	0	5	576
NMTAP	13	96	3
NMTAP	13	192	3
NMTAP	13	288	3
NMTAP	14	0	4
NMTAP	14	96	4
NMTAP	14	192	3
NMTAP	14	288	3
NMHLD	15	0	2	576
NMTAP	15	0	4
NMTAP	15	96	4
NMTAP	15	192	4
NMTAP	15	288	4
NMTAP	16	0	3
NMTAP	16	96	3
NMTAP	16	192	4
NMTAP	16	288	4
NMTAP	17	0	3
NMHLD	17	0	5	192
NMTAP	17	96	3
NMTAP	17	192	4
NMTAP	17	288	3
NMHLD	18	0	2	192
NMTAP	18	0	4
NMTAP	18	96	4
NMTAP	18	192	3
NMTAP	18	288	4
NMTAP	19	0	3
NMTAP	19	0	5
NMTAP	19	96	3
NMTAP	19	96	5
NMTAP	19	192	2
NMTAP	19	192	4
NMTAP	19	288	2
NMTAP	19	288	4
NMSTR	20	0	1
NMSCR	20	0	1	96	144	4
NMSTR	20	0	5
NMSCR	20	0	5	96	144	0
EXTAP	21	0	0
EXTAP	21	48	0
EXTAP	21	144	1
EXTAP	21	144	7
EXTAP	21	192	1
EXTAP	21	192	7
EXHLD	21	288	2	288
EXTAP	21	288	6
NMTAP	22	192	3
NMTAP	22	288	2
NMTAP	22	288	3
NMSTR	23	0	1
NMSI_	23	0	1	96	96	5
NMSTR	23	192	6
NMSI_	23	192	6	96	96	2
NMSTR	24	0	1
NMSI_	24	0	1	96	96	5
NMTAP	24	192	6
NMTAP	24	288	6
EXTAP	25	0	7
EXTAP	25	48	7
EXTAP	25	144	0
EXTAP	25	144	6
EXTAP	25	192	0
EXTAP	25	192	6
EXTAP	25	288	1
EXHLD	25	288	5	288
NMTAP	26	192	4
NMTAP	26	288	4
NMTAP	26	288	5
NMSTR	27	0	6
NMSI_	27	0	6	96	96	2
NMSTR	27	192	1
NMSI_	27	192	1	96	96	5
NMSTR	28	0	6
NMSI_	28	0	6	96	96	2
NMTAP	28	192	1
NMTAP	28	288	1
NMTAP	29	0	1
NMTAP	29	0	4
NMTAP	29	96	2
NMTAP	29	96	3
NMTAP	29	192	5
NMTAP	29	240	5
NMTAP	29	288	4
NMTAP	30	0	3
NMTAP	30	0	6
NMTAP	30	96	4
NMTAP	30	96	5
NMTAP	30	192	2
NMTAP	30	240	2
NMTAP	30	288	3
NMTAP	31	0	1
NMTAP	31	0	4
NMTAP	31	96	0
NMTAP	31	96	5
NMTAP	31	192	6
NMTAP	31	240	6
NMTAP	31	288	7
NMTAP	32	0	3
NMTAP	32	0	6
NMTAP	32	96	2
NMTAP	32	96	7
NMTAP	32	192	1
NMTAP	32	240	1
NMTAP	32	288	0
NMHLD	33	0	2	96
NMTAP	33	0	7
NMTAP	33	96	7
NMTAP	33	192	1
NMTAP	33	288	1
NMTAP	33	288	3
NMTAP	34	0	0
NMHLD	34	0	4	96
NMTAP	34	96	0
NMTAP	34	192	1
NMTAP	34	288	2
NMTAP	34	288	3
NMTAP	35	0	4
NMTAP	35	48	4
NMTAP	35	96	3
NMTAP	35	144	3
NMTAP	35	192	5
NMTAP	35	240	5
NMTAP	35	288	2
NMTAP	35	336	2
BRSTR	36	0	6
NMSUL	36	0	6	96	192	2
BXHLD	37	0	0	96
BXHLD	37	0	1	96
BXHLD	37	144	2	96
BXHLD	37	144	7	96
BXTAP	37	288	3
BXHLD	37	288	6	288
NMTAP	38	192	4
NMTAP	38	240	4
NMTAP	38	336	3
NMTAP	38	336	5
NMHLD	39	0	3	96
NMHLD	39	0	5	96
NMHLD	39	144	3	96
NMHLD	39	144	5	96
NMTAP	39	288	3
NMTAP	39	288	5
NMTAP	40	0	6
NMTAP	40	96	7
EXTAP	40	192	0
EXTAP	40	192	6
EXTAP	40	240	0
EXTAP	40	240	6
BXHLD	41	0	6	96
BXHLD	41	0	7	96
BXHLD	41	144	0	96
BXHLD	41	144	5	96
BXHLD	41	288	1	288
BXTAP	41	288	4
NMTAP	42	192	3
NMTAP	42	240	3
NMTAP	42	336	2
NMTAP	42	336	4
NMHLD	43	0	2	96
NMHLD	43	0	4	96
NMHLD	43	144	2	96
NMHLD	43	144	4	96
NMTAP	43	288	2
NMTAP	43	288	4
NMTAP	44	0	1
NMTAP	44	96	0
EXTAP	44	192	1
EXTAP	44	192	7
EXTAP	44	240	1
EXTAP	44	240	7
EXHLD	45	0	5	96
NMTAP	45	96	4
NMTAP	45	192	4
NMTAP	45	192	5
NMTAP	45	288	3
NMTAP	45	288	4
NMHLD	46	0	2	96
NMTAP	46	96	3
NMTAP	46	192	2
NMTAP	46	192	3
NMTAP	46	288	3
NMTAP	46	288	4
NMHLD	47	0	5	96
NMTAP	47	96	4
NMTAP	47	192	3
NMTAP	47	192	6
NMTAP	47	288	3
NMTAP	47	288	6
NMHLD	48	0	2	96
NMTAP	48	96	3
NMTAP	48	192	1
NMTAP	48	192	4
NMTAP	48	288	1
NMTAP	48	288	4
NMHLD	49	0	2	96
NMHLD	49	96	1	96
NMHLD	49	192	0	96
NMHLD	49	288	7	96
NMHLD	50	0	6	96
NMHLD	50	96	5	96
NMTAP	50	192	4
NMTAP	50	288	4
NMTAP	50	288	5
NMTAP	51	0	3
NMTAP	51	48	3
NMTAP	51	96	4
NMTAP	51	144	4
NMTAP	51	192	2
NMTAP	51	240	2
NMSTR	51	288	5
NMSCR	51	288	5	96	192	2
EXTAP	52	288	3
EXTAP	52	288	4
BRTAP	53	0	1
BRTAP	53	0	5
NMTAP	53	96	2
NMTAP	53	144	2
NMTAP	53	192	3
NMHLD	53	240	1	96
NMTAP	53	336	0
NMTAP	54	48	6
NMTAP	54	48	7
NMTAP	54	144	4
NMTAP	54	144	5
NMTAP	54	240	2
NMTAP	54	240	3
NMTAP	54	336	1
NMTAP	54	336	4
NMTAP	55	0	1
NMTAP	55	0	4
NMTAP	55	96	5
NMTAP	55	144	5
NMTAP	55	192	4
NMHLD	55	240	6	96
NMTAP	55	336	7
NMTAP	56	48	0
NMTAP	56	48	1
NMTAP	56	144	2
NMTAP	56	144	3
NMTAP	56	240	4
NMTAP	56	240	5
NMTAP	56	336	3
NMTAP	56	336	6
NMTAP	57	0	3
NMTAP	57	0	6
NMTAP	57	96	6
NMTAP	57	144	6
NMTAP	57	192	7
NMHLD	57	240	5	96
NMTAP	57	336	4
NMTAP	58	48	2
NMTAP	58	48	3
NMTAP	58	144	0
NMTAP	58	144	1
NMTAP	58	240	6
NMTAP	58	240	7
NMTAP	58	336	0
NMTAP	58	336	5
EXTAP	59	0	0
EXTAP	59	0	5
NMTAP	59	96	1
NMTAP	59	144	1
NMTAP	59	192	3
NMHLD	59	240	3	96
NMTAP	59	336	2
BXTAP	60	0	2
BXTAP	60	0	3
BXTAP	60	96	4
BXTAP	60	96	5
NMTAP	60	192	6
NMTAP	60	240	6
NMTAP	60	288	3
NMTAP	60	288	6
EXTAP	61	0	0
EXTAP	61	0	7
NMTAP	61	96	1
NMTAP	61	144	1
NMTAP	61	192	3
NMHLD	61	240	2	96
NMHLD	61	336	0	96
NMHLD	62	48	7	96
NMHLD	62	144	5	96
NMTAP	62	240	4
NMTAP	62	336	3
NMTAP	62	336	6
NMTAP	63	0	3
NMTAP	63	0	6
NMTAP	63	96	5
NMTAP	63	144	5
NMTAP	63	192	4
NMHLD	63	240	6	96
NMHLD	63	336	1	96
NMHLD	64	48	3	96
NMHLD	64	144	4	96
NMTAP	64	240	6
NMTAP	64	336	6
NMTAP	64	336	7
NMTAP	65	0	6
NMTAP	65	0	7
NMTAP	65	96	0
NMTAP	65	144	0
NMTAP	65	192	7
NMHLD	65	240	1	96
EXTAP	65	336	0
NMTAP	66	48	2
NMTAP	66	48	3
NMTAP	66	144	4
NMTAP	66	144	5
NMTAP	66	240	6
NMTAP	66	240	7
NMTAP	66	336	0
NMTAP	66	336	5
NMTAP	67	0	0
NMTAP	67	0	5
BRTAP	67	96	1
BRTAP	67	96	4
NMTAP	67	192	2
NMTAP	67	192	3
NMTAP	67	288	3
NMTAP	67	288	4
NMHLD	68	0	2	192
NMTAP	68	0	5
NMTAP	68	192	7
NMTAP	68	288	0
NMTAP	68	288	6
BRTAP	69	0	2
BRTAP	69	0	3
NMTAP	69	96	0
NMTAP	69	96	7
NMTAP	69	192	4
NMTAP	69	192	5
NMTAP	69	288	1
NMTAP	69	288	3
NMTAP	70	0	6
NMTAP	70	0	7
NMTAP	70	96	4
NMTAP	70	96	5
NMTAP	70	192	0
NMTAP	70	192	1
NMTAP	70	288	3
NMTAP	70	288	4
NMTAP	71	0	2
NMSTR	71	0	7
BRSI_	71	0	7	96	48	3
NMSTR	71	192	0
BRSI_	71	192	0	96	48	4
NMTAP	71	192	5
NMTAP	72	0	6
NMTAP	72	0	7
NMTAP	72	96	6
NMTAP	72	96	7
NMTAP	72	192	0
NMTAP	72	192	5
NMTAP	72	288	0
NMTAP	72	288	5
NMTAP	73	0	2
NMTAP	73	0	3
NMTAP	73	96	0
NMTAP	73	96	7
NMTAP	73	192	4
NMTAP	73	192	5
NMTAP	73	288	1
NMTAP	73	288	3
NMTAP	74	0	0
NMTAP	74	0	7
NMTAP	74	96	4
NMTAP	74	96	6
NMTAP	74	192	2
NMTAP	74	192	3
NMTAP	74	288	1
NMTAP	74	288	4
NMSTR	75	0	0
NMSI_	75	0	0	96	48	4
NMTAP	75	0	5
NMTAP	75	192	2
NMSTR	75	192	7
NMSI_	75	192	7	96	48	3
NMTAP	76	0	0
NMTAP	76	0	1
NMTAP	76	96	0
NMTAP	76	96	1
NMTAP	76	192	7
NMTAP	76	240	7
NMTAP	76	288	0
NMTAP	76	288	7
NMTAP	77	0	1
NMTAP	77	0	6
NMTAP	77	96	4
NMTAP	77	96	5
NMTAP	77	192	1
NMTAP	77	192	2
NMTAP	77	288	6
NMTAP	77	288	7
NMTAP	78	0	0
NMTAP	78	0	5
NMTAP	78	96	1
NMTAP	78	96	2
NMTAP	78	192	4
NMTAP	78	192	5
NMTAP	78	288	3
NMTAP	78	288	6
NMTAP	79	0	0
NMSTR	79	0	1
NMSI_	79	0	1	96	48	5
NMSTR	79	192	6
NMSI_	79	192	6	96	48	2
NMTAP	79	192	7
NMTAP	80	0	0
NMTAP	80	0	1
NMTAP	80	96	2
NMTAP	80	96	7
NMTAP	80	192	6
NMTAP	80	192	7
NMTAP	80	288	0
NMTAP	80	288	5
NMTAP	81	0	1
NMTAP	81	48	1
NMTAP	81	96	7
NMTAP	81	144	7
NMTAP	81	192	0
NMTAP	81	240	0
NMTAP	81	288	6
NMTAP	81	336	6
NMTAP	82	0	0
NMTAP	82	24	7
NMTAP	82	48	0
NMTAP	82	72	7
NMTAP	82	96	0
NMTAP	82	120	7
NMTAP	82	144	0
NMTAP	82	168	7
NMTAP	82	192	0
NMTAP	82	216	7
NMTAP	82	240	0
NMTAP	82	264	7
BXTAP	82	288	0
EXTAP	83	0	0
EXTAP	83	0	1
EXTAP	83	48	0
EXTAP	83	48	1
BXTAP	83	96	2
BXTAP	83	96	7
EXTAP	83	192	6
EXTAP	83	192	7
EXTAP	83	240	6
EXTAP	83	240	7
BXTAP	83	288	0
BXTAP	83	288	5
NMSTR	84	0	0
NMSI_	84	0	0	96	48	4
NMSTR	84	96	7
NMSI_	84	96	7	96	48	3
NMTAP	84	192	0
NMTAP	84	288	2
NMTAP	84	288	4
BXTAP	85	0	1
BXTAP	85	0	5
NMTTP	87	0	0	B	0	M1
NMTTP	87	0	0	E	0	M1
NMTTP	87	0	0	A	0	M1
NMTTP	87	0	7	B	0	M1
NMTTP	87	0	7	A	0	M1
NMTTP	88	0	0	C	0	M1
NMTTP	88	0	3	B	0	M1
NMTTP	88	0	3	A	0	M1
NMTTP	88	0	4	B	0	M1
NMTTP	88	0	4	A	0	M1
NMTTP	89	0	5	A	0	M1
NMTTP	89	0	5	D	0	M1
NMTTP	89	0	6	A	0	M1
NMTTP	89	0	6	D	0	M1
NMTTP	89	0	7	D	0	M1
NMTTP	91	0	4	B	0	M1
NMTTP	91	0	5	B	0	M1
NMTTP	91	0	6	B	0	M1
NMTTP	91	0	7	B	0	M1
NMTHO	92	0	0	384	C	0	M1
NMTTP	92	0	3	B	0	M1
NMTTP	92	0	3	A	0	M1
NMTTP	92	0	4	B	0	M1
NMTTP	92	0	4	A	0	M1

T_REC_TAP	350
T_REC_BRK	6
T_REC_XTP	38
T_REC_BXX	13
T_REC_HLD	40
T_REC_XHO	5
T_REC_BHO	0
T_REC_BXH	10
T_REC_STR	17
T_REC_BST	1
T_REC_XST	0
T_REC_XBS	0
T_REC_TTP	23
T_REC_THO	1
T_REC_SLD	16
T_REC_BSL	2
T_REC_ALL	522
T_NUM_TAP	428
T_NUM_BRK	32
T_NUM_HLD	46
T_NUM_SLD	16
T_NUM_ALL	522
T_JUDGE_TAP	448
T_JUDGE_HLD	220
T_JUDGE_SLD	18
T_JUDGE_ALL	686
TTM_EACHPAIRS	146
TTM_SCR_TAP	214000
TTM_SCR_BRK	83200
TTM_SCR_HLD	46000
TTM_SCR_SLD	24000
TTM_SCR_ALL	367200
TTM_SCR_S	353100
TTM_SCR_SS	364000
TTM_RAT_ACV	10087

