VERSION	0.00.00	1.04.00
FES_MODE	0
BPM_DEF	135.000	135.000	135.000	135.000
MET_DEF	4	4
RESOLUTION	384
CLK_DEF	384
COMPATIBLE_CODE	MA2

BPM	0	0	135.000
MET	0	0	4	4

NMTAP	1	0	3
NMTAP	1	0	4
NMTAP	1	48	2
NMTAP	1	72	3
NMTAP	1	96	2
NMTAP	1	144	4
NMTAP	1	168	3
NMTAP	1	192	5
NMTAP	1	216	4
NMTAP	1	240	5
NMTAP	1	264	4
EXTAP	1	288	7
EXTAP	1	336	7
BRTAP	2	0	0
NMTAP	2	0	6
NMTAP	2	48	2
NMTAP	2	96	4
NMTAP	2	96	5
NMTAP	2	144	7
NMSTR	2	168	0
NMSCR	2	168	0	96	40	3
NMTAP	2	192	6
NMTAP	2	216	0
NMTAP	2	240	5
EXTAP	2	264	0
NMTAP	2	336	4
NMTAP	2	336	5
NMTAP	3	0	1
NMTAP	3	0	7
NMTAP	3	48	5
NMTAP	3	96	2
NMTAP	3	96	3
NMTAP	3	144	5
NMSTR	3	168	0
NMSCR	3	168	0	96	40	3
NMTAP	3	192	6
NMTAP	3	216	0
NMTAP	3	240	7
EXTAP	3	264	0
NMTAP	3	336	4
NMTAP	3	336	5
NMHLD	4	0	1	48
NMTAP	4	48	3
NMTAP	4	96	4
NMTAP	4	96	5
EXTAP	4	144	1
EXTAP	4	144	7
NMHLD	4	192	6	48
NMTAP	4	240	4
NMTAP	4	288	4
NMTAP	4	288	5
EXTAP	4	336	1
EXTAP	4	336	7
NMHLD	5	0	2	48
NMTAP	5	48	3
NMHLD	5	96	5	48
NMTAP	5	144	4
NMTAP	5	192	0
NMTAP	5	192	6
NMTAP	5	240	3
NMTAP	5	240	4
BRTAP	5	288	1
BRTAP	5	288	7
NMTAP	6	0	2
NMTAP	6	0	4
NMTAP	6	48	6
NMTAP	6	96	4
NMTAP	6	96	5
NMTAP	6	144	3
NMSTR	6	192	4
NMSI_	6	192	4	96	32	0
NMTAP	6	192	6
NMTAP	6	240	7
EXTAP	6	288	4
NMTAP	6	288	5
NMTAP	6	336	6
NMTAP	7	0	3
NMTAP	7	0	4
NMTAP	7	48	5
NMTAP	7	96	4
NMTAP	7	96	6
NMTAP	7	144	7
NMSTR	7	192	4
NMSI_	7	192	4	96	32	0
NMTAP	7	192	5
NMTAP	7	240	3
EXTAP	7	288	4
NMTAP	7	288	6
NMTAP	8	0	1
NMTAP	8	0	7
NMTAP	8	48	2
NMTAP	8	96	3
NMTAP	8	96	4
NMTAP	8	144	5
NMTAP	8	192	4
NMTAP	8	192	6
NMSTR	8	240	7
NMSCL	8	240	7	96	32	4
NMTAP	8	288	0
NMTAP	8	288	1
EXTAP	8	336	7
NMTAP	8	360	0
NMTAP	9	24	2
NMTAP	9	48	3
NMTAP	9	96	5
NMTAP	9	120	4
NMTAP	9	144	6
NMTAP	9	192	3
NMSTR	9	192	7
NMSCL	9	192	7	96	48	2
NMTAP	9	240	0
NMTAP	9	240	1
EXTAP	9	288	7
BRTAP	10	0	1
NMTAP	10	0	5
NMTAP	10	48	2
NMTAP	10	48	4
NMHLD	10	96	3	96
NMSTR	10	192	0
NMSI_	10	192	0	96	32	3
NMTAP	10	240	7
NMTAP	10	288	0
NMTAP	10	288	6
NMTAP	11	0	4
NMTAP	11	0	7
NMTAP	11	48	2
NMTAP	11	96	0
NMTAP	11	96	3
NMTAP	11	144	5
NMTAP	11	192	4
NMSTR	11	192	7
NMSI_	11	192	7	96	32	4
NMTAP	11	240	2
NMTAP	11	288	0
NMTAP	11	288	7
NMTAP	12	0	1
NMTAP	12	24	3
NMTAP	12	48	2
NMHLD	12	72	3	48
NMTAP	12	120	2
EXTAP	12	144	1
NMTAP	12	144	4
NMTAP	12	192	5
NMTAP	12	216	3
NMTAP	12	240	4
NMHLD	12	264	2	48
NMTAP	12	312	3
EXTAP	12	336	1
NMTAP	12	336	4
NMTAP	13	0	6
NMTAP	13	0	7
NMTAP	13	48	4
NMTAP	13	96	2
NMTAP	13	144	0
NMTAP	13	192	2
NMTAP	13	216	3
NMTAP	13	240	2
NMTAP	13	264	3
BRTAP	13	288	1
NMTAP	13	288	4
NMTAP	14	0	3
NMTAP	14	0	6
NMTAP	14	48	2
NMTAP	14	48	5
NMTAP	14	96	1
NMTAP	14	96	4
NMHLD	14	144	0	48
NMSTR	14	192	7
NMSI_	14	192	7	96	32	3
NMTAP	14	240	0
NMTAP	14	240	6
NMTAP	14	288	7
NMTAP	15	0	4
NMTAP	15	0	6
NMTAP	15	48	5
NMTAP	15	96	1
NMTAP	15	96	3
NMTAP	15	144	2
NMHLD	15	192	4	48
NMSTR	15	192	6
NMSI_	15	192	6	96	24	4
NMTAP	15	240	7
NMTAP	15	288	6
NMTAP	16	0	2
NMTAP	16	0	3
NMTAP	16	48	1
NMTAP	16	96	4
NMTAP	16	96	5
NMTAP	16	144	6
NMSTR	16	192	7
NMSF_	16	192	7	96	32	3
NMTAP	16	240	0
NMTAP	16	240	6
BRTAP	16	288	7
NMTAP	17	0	1
NMTAP	17	24	0
NMTAP	17	48	1
NMTAP	17	96	3
NMTAP	17	96	4
NMTAP	17	144	6
NMSTR	17	168	7
BRSF_	17	168	7	96	32	3
EXTAP	17	192	6
NMTTP	17	272	0	C	1	M1
NMHLD	18	0	0	96
NMTAP	18	48	7
NMHLD	18	96	6	96
NMTAP	18	144	4
NMHLD	18	192	3	192
NMTAP	18	240	5
NMTAP	18	288	4
NMTAP	18	336	2
NMHLD	19	0	1	144
NMTAP	19	96	2
NMTAP	19	144	2
NMTAP	19	192	0
NMTAP	19	192	3
NMTAP	19	240	4
NMTAP	19	240	7
EXHLD	19	288	5	48
EXHLD	19	288	6	48
NMTAP	20	0	4
NMTAP	20	0	7
NMTAP	20	48	0
NMTAP	20	48	3
EXHLD	20	96	1	48
EXHLD	20	96	2	48
NMTAP	20	192	0
NMTAP	20	240	6
NMTAP	20	288	4
NMTAP	20	336	2
NMSTR	21	0	1
NMSI_	21	0	1	96	32	4
NMTAP	21	0	3
NMTAP	21	48	0
NMTAP	21	96	1
NMTAP	21	96	5
NMTAP	21	144	6
NMTAP	21	192	0
NMSTR	21	192	1
NMSI_	21	192	1	96	32	3
NMSI_	21	192	1	96	32	5
NMTAP	21	240	7
BRTAP	21	288	1
NMHLD	22	0	6	96
NMTAP	22	48	4
NMHLD	22	96	1	96
NMTAP	22	144	3
NMSTR	22	192	5
NMSCL	22	192	5	96	32	2
NMTAP	22	240	5
NMTAP	22	288	0
NMSTR	23	0	1
NMSI_	23	0	1	96	24	7
NMTAP	23	48	1
NMSTR	23	96	5
NMSI_	23	96	5	96	24	3
NMTAP	23	144	5
NMTAP	23	192	2
NMTAP	23	240	0
NMTAP	23	288	1
NMTAP	23	288	7
NMTAP	23	336	1
NMTAP	23	336	7
NMTAP	24	0	4
NMTAP	24	0	5
NMTAP	24	48	2
NMTAP	24	48	3
NMSTR	24	96	1
NMSCL	24	96	1	96	32	6
NMSTR	24	144	6
NMSCR	24	144	6	96	32	1
NMTAP	24	288	4
NMTAP	24	336	3
NMTAP	24	336	4
NMTAP	25	0	0
NMTAP	25	0	1
NMTAP	25	48	6
NMTAP	25	48	7
NMTAP	25	96	4
NMTAP	25	96	5
NMTAP	25	144	2
NMTAP	25	144	3
NMSTR	25	192	1
BRSCL	25	192	1	96	48	6
NMSTR	25	192	5
BRSUR	25	192	5	96	48	2
NMTAP	25	240	1
NMTAP	25	240	5
EXHLD	26	0	3	48
EXHLD	26	0	4	48
NMTAP	26	96	3
NMTAP	26	96	4
NMTAP	26	144	2
NMTAP	26	192	1
NMTAP	26	240	0
NMTAP	26	288	1
NMTAP	26	288	7
NMTAP	26	336	2
NMTAP	26	336	6
NMSTR	27	0	3
NMSI_	27	0	3	96	24	1
NMSTR	27	0	5
NMSI_	27	0	5	96	24	7
NMTAP	27	48	4
NMSTR	27	192	3
NMSI_	27	192	3	96	24	1
NMSTR	27	192	5
NMSI_	27	192	5	96	24	7
NMTAP	27	240	4
NMTAP	28	0	1
NMTAP	28	0	7
NMTAP	28	48	6
NMTAP	28	96	4
NMTAP	28	96	5
NMTAP	28	144	2
NMSTR	28	168	3
NMSI_	28	168	3	96	32	7
NMTAP	28	192	1
NMTAP	28	240	1
NMTAP	28	264	3
NMTAP	28	336	4
NMTAP	28	336	6
NMTAP	29	0	1
NMTAP	29	0	7
NMTAP	29	48	0
NMTAP	29	96	4
NMTAP	29	96	6
NMTAP	29	144	5
NMTAP	29	192	2
NMSTR	29	192	3
BRSI_	29	192	3	96	32	7
NMTAP	29	240	1
NMTAP	29	264	3
NMHLD	30	0	4	48
NMHLD	30	0	6	48
NMTAP	30	72	4
NMTAP	30	72	6
NMTAP	30	120	3
NMTAP	30	120	5
NMTAP	30	168	2
NMTAP	30	192	2
NMTAP	30	240	5
NMTAP	30	264	4
NMTAP	30	288	5
NMTAP	30	312	4
EXTAP	30	336	7
NMTAP	31	0	4
NMTAP	31	0	6
NMTAP	31	48	0
NMTAP	31	96	4
NMTAP	31	96	6
NMTAP	31	144	1
NMTAP	31	192	4
NMTAP	31	192	6
NMTAP	31	240	2
NMTAP	31	288	5
NMTAP	31	312	4
NMTAP	31	336	3
EXTAP	31	336	7
NMTAP	32	0	2
NMTAP	32	48	1
NMTAP	32	48	3
NMTAP	32	96	4
NMTAP	32	144	3
NMTAP	32	144	5
NMTAP	32	192	6
NMTAP	32	216	4
NMTAP	32	240	5
NMTAP	32	264	4
EXTAP	32	288	7
NMTAP	32	336	0
NMTAP	32	336	6
NMTAP	33	0	1
NMTAP	33	0	5
NMTAP	33	48	2
NMTAP	33	48	4
NMTAP	33	96	3
NMTAP	33	144	1
NMTAP	33	144	5
NMTAP	33	192	6
NMTAP	33	216	4
NMTAP	33	240	5
NMTAP	33	264	4
BRTAP	33	288	7
NMTTP	34	0	0	C	1	M1
NMHLD	34	0	1	288
NMTTP	34	96	7	E	0	M1
NMTTP	34	192	6	E	0	M1
NMTTP	34	288	5	E	0	M1
NMTTP	35	0	0	E	0	M1
NMTTP	35	0	4	E	0	M1
NMTTP	35	96	3	E	0	M1
NMTTP	35	96	7	E	0	M1
NMTTP	35	192	2	E	0	M1
NMTTP	35	192	6	E	0	M1
NMTTP	35	288	1	E	0	M1
NMTTP	35	288	5	E	0	M1
NMTTP	36	0	0	E	0	M1
NMHLD	36	0	6	288
NMTTP	36	96	1	E	0	M1
NMTTP	36	192	2	E	0	M1
NMTTP	36	288	3	E	0	M1
NMTTP	37	0	0	E	0	M1
NMTTP	37	0	4	E	0	M1
NMTTP	37	96	1	E	0	M1
NMTTP	37	96	5	E	0	M1
NMTTP	37	192	2	E	0	M1
NMTTP	37	192	6	E	0	M1
NMTTP	37	288	0	C	0	M1
NMTTP	37	288	0	E	0	M1
NMTTP	37	288	4	E	0	M1
NMTTP	38	0	0	B	0	M1
NMTTP	38	48	1	B	0	M1
NMTTP	38	96	2	B	0	M1
NMTTP	38	144	3	B	0	M1
NMTTP	38	192	4	B	0	M1
NMTTP	38	240	5	B	0	M1
NMTTP	38	288	6	B	0	M1
NMTTP	38	336	7	B	0	M1
NMTTP	39	0	1	E	0	M1
NMTTP	39	48	2	E	0	M1
NMTTP	39	96	3	E	0	M1
NMTTP	39	144	4	E	0	M1
NMTTP	39	192	5	E	0	M1
NMTTP	39	240	6	E	0	M1
NMTTP	39	288	7	E	0	M1
NMTTP	39	336	0	E	0	M1
NMTTP	40	0	1	D	0	M1
NMTTP	40	48	2	D	0	M1
NMTTP	40	96	3	D	0	M1
NMTTP	40	144	4	D	0	M1
NMTTP	40	192	5	D	0	M1
NMTTP	40	240	6	D	0	M1
NMTTP	40	288	7	D	0	M1
NMTTP	40	336	0	D	0	M1
NMTTP	41	0	1	A	0	M1
NMTTP	41	48	2	A	0	M1
NMTTP	41	96	3	A	0	M1
NMTTP	41	144	4	A	0	M1
NMTTP	41	192	5	A	0	M1
NMTTP	41	240	6	A	0	M1
NMTAP	41	288	0
NMTAP	41	300	1
NMTAP	41	312	2
NMTAP	41	324	3
NMTAP	41	336	4
NMTAP	41	348	5
NMTAP	41	360	6
NMTAP	41	372	7
EXTAP	42	0	0
NMTHO	42	0	0	384	C	0	M1
NMTAP	43	0	2
NMTAP	43	96	1
NMTAP	43	192	0
NMTAP	43	240	5
NMTAP	43	264	4
NMTAP	43	288	5
NMTAP	43	336	3
NMTAP	43	336	7
NMTAP	44	0	1
NMTAP	44	48	2
NMTAP	44	96	4
NMTAP	44	144	3
NMSTR	44	192	5
NMSCL	44	192	5	96	32	2
NMTAP	44	240	6
EXTAP	44	288	7
EXTAP	44	336	7
NMTAP	45	0	0
NMTAP	45	0	1
NMTAP	45	48	7
NMTAP	45	96	1
NMTAP	45	144	3
NMSTR	45	192	5
NMSCL	45	192	5	96	32	2
NMTAP	45	240	6
EXTAP	45	240	7
EXTAP	45	288	7
NMHLD	46	0	0	48
NMTAP	46	0	1
NMHLD	46	72	1	48
NMTAP	46	72	2
NMTAP	46	144	2
NMTAP	46	144	3
NMTAP	46	192	0
NMHLD	46	192	1	48
NMTAP	46	264	1
NMHLD	46	264	2	48
NMTAP	46	336	2
NMTAP	46	336	3
NMTAP	47	0	6
NMTAP	47	24	4
NMTAP	47	48	5
NMTAP	47	72	4
NMTAP	47	96	6
NMTAP	47	120	4
NMTAP	47	144	5
NMTAP	47	168	4
NMTAP	47	192	6
NMTAP	47	216	4
NMTAP	47	240	5
NMTAP	47	264	4
BRTAP	47	288	7
NMTAP	47	312	7
NMTAP	48	0	2
NMTAP	48	0	3
NMTAP	48	48	1
NMTAP	48	96	4
NMTAP	48	96	5
NMTAP	48	144	6
NMTAP	48	192	2
NMSTR	48	192	3
NMSUR	48	192	3	96	32	7
NMTAP	48	240	0
NMTAP	48	288	0
NMHLD	49	0	1	48
NMTAP	49	48	3
NMHLD	49	96	6	48
NMTAP	49	144	4
NMHLD	49	192	2	48
NMTAP	49	240	0
NMHLD	49	288	5	48
NMTAP	49	336	7
EXHLD	50	0	0	48
NMHLD	50	0	6	48
EXTAP	50	72	0
NMTAP	50	72	6
NMTAP	50	120	1
NMTAP	50	120	5
NMTAP	50	168	2
NMTAP	50	192	3
NMTAP	50	240	3
NMTAP	50	240	4
BRTAP	50	288	6
BRTAP	50	288	7
BRTAP	50	336	0
BRTAP	50	336	5
NMTAP	51	0	1
NMTAP	51	0	7
NMTAP	51	48	2
NMTAP	51	72	4
NMTAP	51	96	3
NMTAP	51	120	5
NMTAP	51	144	4
NMTAP	51	192	6
NMTAP	51	192	7
NMTAP	51	240	3
NMTAP	51	240	4
NMTAP	51	288	0
NMTAP	51	288	1
EXSTR	52	0	0
NMSI_	52	0	0	96	24	6
EXSTR	52	48	0
NMSI_	52	48	0	96	24	2
EXSTR	52	96	0
NMSI_	52	96	0	96	32	4
EXSTR	52	144	0
NMSI_	52	144	0	96	32	3
EXSTR	52	192	0
NMSI_	52	192	0	96	32	5
EXSTR	52	240	0
NMSI_	52	240	0	96	32	4
EXSTR	52	288	0
NMSI_	52	288	0	96	24	6
EXSTR	52	336	0
NMSI_	52	336	0	96	32	3
EXSTR	53	0	0
NMSI_	53	0	0	96	32	5
EXSTR	53	48	0
NMSI_	53	48	0	96	24	2
EXSTR	53	96	0
NMSI_	53	96	0	96	32	4
EXSTR	53	144	0
NMSCR	53	144	0	96	32	3
EXSTR	53	192	0
NMSCL	53	192	0	96	32	5
EXSTR	53	240	0
NMSI_	53	240	0	96	32	4
EXTAP	53	288	0
BXTAP	53	336	0
NMTAP	54	0	7
NMTAP	54	48	7
NMTAP	54	96	6
NMTAP	54	144	6
NMSTR	54	192	5
NMSCR	54	192	5	96	72	3
NMTAP	54	240	5
NMTAP	54	288	4
NMTAP	55	0	0
NMTAP	55	48	2
NMTAP	55	96	4
NMTAP	55	144	6
NMSTR	55	192	0
BRSCL	55	192	0	96	32	5
BRSCR	55	192	0	96	32	3
NMTAP	55	240	0
NMTAP	56	0	4
NMTAP	56	48	3
NMTAP	56	48	5
NMTAP	56	96	2
EXTAP	56	144	1
EXTAP	56	144	3
NMTAP	56	192	2
NMTAP	56	240	2
EXTAP	56	288	0
EXTAP	56	288	4
NMTAP	57	0	5
NMTAP	57	24	4
NMTAP	57	48	5
NMTAP	57	96	3
NMTAP	57	96	6
NMTAP	57	144	3
NMTAP	57	144	6
NMTAP	57	192	2
NMTAP	57	216	3
NMTAP	57	240	2
NMTAP	57	288	1
NMTAP	57	288	4
NMTAP	57	336	1
NMTAP	57	336	4
EXHLD	58	0	0	48
EXHLD	58	0	7	48
NMTAP	58	72	0
NMTAP	58	72	7
NMTAP	58	120	2
NMTAP	58	144	3
NMTAP	58	168	2
EXHLD	58	192	1	48
EXHLD	58	192	7	48
NMTAP	58	264	1
NMTAP	58	264	7
NMTAP	58	312	5
NMTAP	58	336	4
NMTAP	58	360	5
EXHLD	59	0	0	48
EXHLD	59	0	6	48
NMTAP	59	72	0
NMTAP	59	72	6
NMTAP	59	120	3
NMTAP	59	144	4
NMTAP	59	168	3
NMTAP	59	240	3
NMTAP	59	240	4
BRTAP	59	288	1
BRTAP	59	288	6
NMTTP	60	288	0	A	0	M1
NMTTP	60	288	0	D	1	M1
NMTTP	60	288	1	A	0	M1
NMTTP	60	288	1	D	0	M1
NMTTP	60	288	6	A	0	M1
NMTTP	60	288	7	A	0	M1
NMTTP	60	288	7	D	0	M1
BRTAP	61	0	2
NMTAP	61	24	3
NMTAP	61	48	2
NMTAP	61	72	3
BRTAP	61	96	0
NMTAP	61	144	1
NMTAP	61	144	7
BRTAP	61	192	2
NMTAP	61	216	3
NMTAP	61	240	2
EXTAP	61	264	7
NMTAP	61	312	0
NMTAP	61	312	6
NMTAP	61	360	1
NMTAP	61	360	5
BRTAP	62	0	1
BRTAP	62	0	5
NMTAP	62	48	3
BRTAP	62	96	2
BRTAP	62	96	6
NMTAP	62	144	4
BRTAP	62	192	1
NMTAP	62	216	0
NMTAP	62	240	1
EXSTR	62	264	7
NMSI_	62	264	7	96	32	3
BRTAP	63	0	1
NMTAP	63	48	0
NMTAP	63	48	1
BRTAP	63	96	5
NMTAP	63	144	4
NMTAP	63	144	5
BRSTR	63	192	2
NMSI_	63	192	2	96	24	4
NMSTR	63	240	6
NMSI_	63	240	6	96	32	2
BRTAP	64	0	1
NMTAP	64	48	0
NMTAP	64	48	1
BRTAP	64	96	6
NMTAP	64	144	6
NMTAP	64	144	7
BRSTR	64	192	2
NMSI_	64	192	2	96	24	4
NMSTR	64	240	6
NMSI_	64	240	6	96	32	2
BRTAP	64	288	2
EXTAP	64	336	6
BRTAP	65	0	1
NMTAP	65	48	1
BRHLD	65	96	1	48
NMTAP	65	144	0
BRTAP	65	192	2
NMTAP	65	240	1
NMTAP	65	240	3
BRTAP	65	288	0
NMTAP	65	336	1
NMTAP	65	336	7
BRTAP	66	0	6
NMTAP	66	48	6
BRHLD	66	96	6	48
NMTAP	66	144	7
BRTAP	66	192	5
NMTAP	66	240	4
NMTAP	66	240	6
BRTAP	66	288	7
NMTAP	66	336	0
NMTAP	66	336	6
BRHLD	67	0	1	48
NMTTP	67	48	3	E	0	M1
NMTTP	67	48	3	D	0	M1
BRHLD	67	96	6	48
NMTTP	67	144	5	E	0	M1
NMTTP	67	144	5	D	0	M1
BRHLD	67	192	0	48
NMTTP	67	240	2	E	0	M1
NMTTP	67	240	2	D	0	M1
BRHLD	67	288	7	48
NMTTP	67	336	6	E	0	M1
NMTTP	67	336	6	D	0	M1
BRSTR	68	0	0
NMSCR	68	0	0	96	96	7
NMTTP	68	192	0	C	0	M1
NMTTP	68	240	3	E	0	M1
NMTTP	68	240	4	E	0	M1
NMTTP	68	240	5	E	0	M1
NMTTP	68	288	0	A	0	M1
NMTTP	68	288	0	D	1	M1
NMTTP	68	288	1	A	0	M1
NMTTP	68	288	1	D	0	M1
NMTTP	68	288	6	A	0	M1
NMTTP	68	288	7	A	0	M1
NMTTP	68	288	7	D	0	M1
NMTAP	69	0	3
NMTAP	69	0	4
NMSTR	69	48	2
NMSI_	69	48	2	96	32	5
NMTAP	69	48	5
NMTAP	69	96	1
NMTAP	69	96	6
EXTAP	69	144	2
NMSTR	69	192	1
NMSI_	69	192	1	96	32	6
NMSTR	69	240	2
NMSI_	69	240	2	96	32	5
EXTAP	69	288	1
EXTAP	69	336	2
NMHLD	70	0	7	48
NMTAP	70	72	0
NMTAP	70	72	7
NMTAP	70	120	1
NMTAP	70	120	6
NMTAP	70	168	2
NMTAP	70	168	5
NMTAP	70	192	2
NMTAP	70	192	5
NMTAP	70	240	3
NMTAP	70	240	4
EXTAP	70	288	0
EXTAP	70	288	7
NMHLD	70	336	1	96
NMHLD	71	0	6	96
NMTAP	71	96	1
NMTAP	71	144	6
NMSTR	71	192	2
NMSLR	71	192	2	96	48	7
NMSTR	71	192	3
NMSCR	71	192	3	96	48	6
NMTAP	71	240	2
NMTAP	71	240	3
NMTAP	72	0	1
NMTAP	72	48	0
NMTAP	72	48	1
NMTAP	72	96	6
NMTAP	72	144	6
NMTAP	72	144	7
NMSTR	72	192	4
NMSCL	72	192	4	96	48	1
NMSTR	72	192	5
NMSLL	72	192	5	96	48	0
NMTAP	72	240	4
NMTAP	72	240	5
EXTAP	73	0	6
EXTAP	73	0	7
EXTAP	73	48	0
EXTAP	73	48	1
NMTAP	73	96	2
NMTAP	73	120	3
NMTAP	73	144	2
EXTAP	73	192	0
EXTAP	73	192	7
NMTAP	73	240	5
NMTAP	73	264	4
NMTAP	73	288	5
NMTAP	73	312	4
NMTAP	73	336	7
NMTAP	74	0	0
NMSTR	74	0	1
NMSI_	74	0	1	96	24	3
NMTAP	74	48	3
NMTAP	74	96	1
NMSTR	74	96	6
NMSI_	74	96	6	96	24	4
NMTAP	74	144	4
NMTAP	74	192	6
NMTAP	74	192	7
NMTAP	74	240	3
NMTAP	74	288	0
NMTAP	74	288	7
NMTAP	74	312	0
NMTAP	74	312	7
NMTAP	75	0	2
NMTAP	75	24	3
NMSTR	75	48	1
NMSI_	75	48	1	96	32	5
NMTAP	75	96	0
NMTAP	75	96	2
NMTAP	75	144	1
NMTAP	75	192	4
NMSTR	75	240	6
NMSI_	75	240	6	96	32	2
NMTAP	75	288	5
NMTAP	75	288	7
NMTAP	75	336	6
EXTAP	76	0	0
EXTAP	76	48	2
EXTAP	76	48	4
EXTAP	76	96	7
EXTAP	76	144	3
EXTAP	76	144	5
EXSTR	76	192	0
BRSI_	76	192	0	96	32	4
EXTAP	76	192	7
NMTAP	76	240	3
NMTAP	76	240	4
BRTAP	76	288	0
BRTAP	76	288	7
NMTTP	77	0	0	B	0	M1
NMTTP	77	0	0	C	1	M1
NMTTP	77	0	0	A	0	M1
NMTTP	77	0	4	B	0	M1
NMTTP	77	0	4	A	0	M1

T_REC_TAP	502
T_REC_BRK	36
T_REC_XTP	49
T_REC_HLD	37
T_REC_XHO	13
T_REC_STR	45
T_REC_BST	3
T_REC_XST	16
T_REC_TTP	87
T_REC_THO	1
T_REC_SLD	66
T_REC_ALL	855
T_NUM_TAP	699
T_NUM_BRK	39
T_NUM_HLD	51
T_NUM_SLD	66
T_NUM_ALL	855
T_JUDGE_TAP	738
T_JUDGE_HLD	80
T_JUDGE_SLD	66
T_JUDGE_ALL	884
TTM_EACHPAIRS	175
TTM_SCR_TAP	349500
TTM_SCR_BRK	101400
TTM_SCR_HLD	51000
TTM_SCR_SLD	99000
TTM_SCR_ALL	600900
TTM_SCR_S	579100
TTM_SCR_SS	597000
TTM_RAT_ACV	10065

