VERSION	0.00.00	1.04.00
FES_MODE	0
BPM_DEF	135.000	135.000	135.000	135.000
MET_DEF	4	4
RESOLUTION	384
CLK_DEF	384
COMPATIBLE_CODE	MA2

BPM	0	0	135.000
MET	0	0	4	4

NMTAP	1	0	2
NMTAP	1	96	3
NMTAP	1	192	4
BXTAP	1	288	1
BXTAP	1	288	5
EXHLD	2	0	0	672
NMTAP	2	96	4
NMSTR	2	192	3
NMSI_	2	192	3	96	48	5
NMTAP	3	0	6
NMTAP	3	96	4
NMSTR	3	192	7
NMSI_	3	192	7	96	48	5
NMTAP	4	0	2
NMTAP	4	96	0
NMTAP	4	96	6
NMTAP	4	192	5
NMTAP	4	288	1
NMTAP	4	288	7
NMTAP	5	0	2
NMTAP	5	48	2
NMTAP	5	96	3
NMTAP	5	192	3
NMTAP	5	192	4
EXTAP	5	288	0
EXTAP	5	288	5
EXHLD	6	0	7	672
NMTAP	6	96	3
NMSTR	6	192	4
NMSI_	6	192	4	96	48	2
NMTAP	7	0	1
NMTAP	7	96	3
NMSTR	7	192	0
NMSI_	7	192	0	96	48	2
NMTAP	8	0	5
NMSTR	8	96	3
NMSXL	8	96	3	96	144	3
NMSXR	8	96	3	96	144	3
EXTAP	9	48	3
EXTAP	9	96	3
NMTAP	9	192	3
NMTAP	9	192	4
BXTAP	9	288	0
BXTAP	9	288	7
EXHLD	10	0	1	672
EXTAP	10	0	6
NMTAP	10	96	4
NMSTR	10	192	2
NMSI_	10	192	2	96	48	5
NMTAP	10	240	2
NMTAP	11	0	6
NMTAP	11	96	3
NMSTR	11	192	7
NMSI_	11	192	7	96	48	4
NMTAP	11	240	7
NMTAP	12	0	3
NMTAP	12	96	0
NMTAP	12	96	6
NMTAP	12	192	4
NMTAP	12	288	1
NMTAP	12	288	7
NMTAP	13	0	2
NMTAP	13	48	2
NMTAP	13	96	3
NMTAP	13	192	3
NMTAP	13	192	4
EXTAP	13	288	2
EXTAP	13	288	7
EXTAP	14	0	1
EXHLD	14	0	6	672
NMTAP	14	96	3
NMSTR	14	192	5
NMSI_	14	192	5	96	48	2
NMTAP	14	240	5
NMTAP	15	0	1
NMTAP	15	96	4
NMSTR	15	192	0
NMSI_	15	192	0	96	48	3
NMTAP	15	240	0
NMTAP	16	0	4
NMTAP	16	96	3
NMTAP	16	96	5
NMTAP	16	192	0
NMTAP	16	240	0
NMTAP	16	288	1
NMTAP	16	288	7
NMTAP	17	0	4
NMTAP	17	0	6
NMTAP	17	96	2
NMTAP	17	96	3
BXSTR	17	192	0
NMSI_	17	192	0	96	48	3
BXSTR	17	192	6
NMSI_	17	192	6	96	48	3
EXSTR	18	0	2
NMSCL	18	0	2	96	96	7
EXHLD	18	0	3	96
NMTAP	18	192	6
NMTAP	18	288	6
NMHLD	19	0	4	96
NMSTR	19	0	5
NMSCR	19	0	5	96	96	0
NMTAP	19	192	1
NMTAP	19	288	1
NMTAP	19	288	7
NMHLD	20	0	2	96
NMTAP	20	48	3
NMTAP	20	96	4
NMHLD	20	192	4	96
NMTAP	20	240	3
NMTAP	20	288	2
NMTAP	21	0	2
NMTAP	21	0	3
NMTAP	21	96	4
NMTAP	21	96	6
NMTAP	21	192	0
NMTAP	21	192	7
EXTAP	21	288	1
EXTAP	21	288	4
EXSTR	22	0	2
NMSCL	22	0	2	96	96	6
EXHLD	22	0	3	96
NMTAP	22	192	5
NMTAP	22	288	5
NMHLD	23	0	4	96
NMSTR	23	0	5
NMSCR	23	0	5	96	96	1
NMTAP	23	192	2
NMTAP	23	288	2
NMTAP	24	0	2
NMTAP	24	0	3
NMTAP	24	96	4
NMTAP	24	96	5
NMHLD	24	192	6	96
NMTAP	24	240	7
NMTAP	24	288	0
NMTAP	25	0	4
NMTAP	25	0	5
NMTAP	25	96	2
NMTAP	25	96	3
NMHLD	25	192	1	48
NMTAP	25	240	0
BXTAP	25	288	2
BXTAP	25	288	7
EXSTR	26	0	1
NMSI_	26	0	1	96	48	5
NMSTR	26	96	7
NMSI_	26	96	7	96	48	3
NMSTR	26	192	0
NMSI_	26	192	0	96	48	4
NMTAP	26	288	5
NMSTR	27	0	6
NMSI_	27	0	6	96	48	2
NMSTR	27	96	0
NMSI_	27	96	0	96	48	4
NMTAP	27	192	7
NMTAP	27	240	7
EXTAP	27	288	1
EXTAP	27	288	6
NMHLD	28	0	3	96
NMTAP	28	48	5
NMHLD	28	96	4	96
NMTAP	28	144	2
NMTAP	28	192	3
EXTAP	28	240	3
EXTAP	28	240	5
EXTAP	28	336	1
EXTAP	28	336	7
NMHLD	29	0	0	96
NMTAP	29	48	6
NMHLD	29	96	7	96
NMTAP	29	144	1
NMTAP	29	192	0
EXTAP	29	288	2
EXTAP	29	288	3
EXSTR	30	0	6
NMSI_	30	0	6	96	48	2
NMSTR	30	96	0
NMSI_	30	96	0	96	48	4
NMSTR	30	192	7
NMSI_	30	192	7	96	48	3
NMTAP	30	288	2
NMSTR	31	0	1
NMSI_	31	0	1	96	48	5
NMSTR	31	96	7
NMSI_	31	96	7	96	48	3
NMSTR	31	192	0
NMSI_	31	192	0	96	48	4
NMTAP	31	288	5
NMHLD	32	0	5	96
NMTAP	32	48	3
NMHLD	32	96	4	96
NMTAP	32	144	6
NMTAP	32	192	5
NMTAP	32	240	4
NMTAP	32	240	5
NMTAP	32	288	3
NMTAP	32	288	6
NMHLD	33	0	1	96
NMTAP	33	48	7
NMHLD	33	96	0	96
NMTAP	33	144	2
EXTAP	33	192	1
BXTAP	33	288	0
BXTAP	33	288	5
NMHLD	34	0	2	768
NMTTP	34	96	0	B	0	M1
NMTTP	34	192	6	B	0	M1
NMTTP	34	288	1	B	0	M1
NMTTP	35	0	5	B	0	M1
NMTTP	35	96	2	B	0	M1
NMTTP	35	192	4	B	0	M1
NMTTP	35	288	3	B	0	M1
NMHLD	36	0	5	288
NMTTP	36	96	7	B	0	M1
NMTTP	36	192	1	B	0	M1
NMTTP	36	288	0	C	0	M1
NMTTP	37	0	3	E	0	M1
NMTTP	37	0	5	E	0	M1
NMTTP	37	96	2	E	0	M1
NMTTP	37	96	6	E	0	M1
NMTTP	37	192	1	E	0	M1
NMTTP	37	192	7	E	0	M1
NMTAP	38	0	3
NMTAP	38	48	3
NMTAP	38	96	4
NMTAP	38	144	4
NMTAP	38	192	5
NMTAP	38	240	5
NMTAP	38	288	6
NMTAP	38	336	6
NMTAP	39	0	7
NMTAP	39	48	7
NMTAP	39	96	0
NMTAP	39	144	0
NMTAP	39	192	1
NMTAP	39	240	1
NMTAP	39	288	2
NMTAP	39	336	2
NMSTR	40	0	3
BRSUR	40	0	3	96	240	4
CNSCR	40	336	4	0	336	3
NMSTR	42	0	7
NMSF_	42	0	7	96	192	3
BRTAP	43	0	2
BRTAP	43	96	1
BRTAP	43	192	0
NMTAP	43	288	3
NMTAP	43	288	5
NMTAP	43	336	3
NMTAP	43	336	5
EXSTR	44	0	1
NMSCR	44	0	1	96	48	3
NMSTR	44	96	4
NMSCR	44	96	4	96	48	6
NMTAP	44	192	7
NMTAP	44	288	0
NMSTR	45	0	6
NMSCL	45	0	6	96	48	4
NMSTR	45	96	3
NMSCL	45	96	3	96	48	1
NMTAP	45	192	0
EXTAP	45	288	1
EXTAP	45	288	7
NMHLD	46	0	2	72
NMHLD	46	72	3	72
NMTAP	46	144	4
NMHLD	46	192	5	72
NMHLD	46	264	6	72
NMTAP	46	336	7
NMTAP	47	0	0
NMTAP	47	0	7
NMTAP	47	96	1
NMTAP	47	96	2
NMHLD	47	192	3	48
NMHLD	47	192	4	48
EXTAP	47	288	1
EXTAP	47	288	7
EXSTR	48	0	6
NMSCL	48	0	6	96	48	4
NMSTR	48	96	3
NMSCL	48	96	3	96	48	1
NMTAP	48	192	0
NMTAP	48	288	7
NMSTR	49	0	1
NMSCR	49	0	1	96	48	3
NMSTR	49	96	4
NMSCR	49	96	4	96	48	6
NMTAP	49	192	7
EXTAP	49	288	0
EXTAP	49	288	6
NMHLD	50	0	1	72
NMHLD	50	72	2	72
NMTAP	50	144	3
NMTAP	50	192	3
NMTAP	50	192	4
NMTAP	50	240	3
NMTAP	50	240	4
BXTAP	50	288	1
BXTAP	50	288	6
BXTAP	50	336	1
BXTAP	50	336	6
NMTAP	51	0	5
NMTAP	51	48	4
NMTAP	51	96	3
NMTAP	51	144	2
BXTAP	51	192	0
BXTAP	51	192	7
BXTAP	51	240	3
BXTAP	51	240	4
BXTAP	51	288	0
BXTAP	51	288	7
EXSTR	52	0	0
NMSI_	52	0	0	96	48	5
EXSTR	52	0	1
NMSI_	52	0	1	96	48	4
NMTAP	52	48	0
NMTAP	52	48	1
NMSTR	52	192	6
NMSI_	52	192	6	96	48	3
NMSTR	52	192	7
NMSI_	52	192	7	96	48	2
NMTAP	52	240	6
NMTAP	52	240	7
NMSTR	53	0	1
NMSI_	53	0	1	96	48	6
NMSTR	53	0	2
NMSI_	53	0	2	96	48	5
NMTAP	53	48	1
NMTAP	53	48	2
NMSTR	53	192	0
NMSI_	53	192	0	96	48	3
NMSTR	53	192	7
NMSI_	53	192	7	96	48	4
NMTAP	53	240	0
NMTAP	53	240	7
NMHLD	54	0	2	288
NMTAP	54	96	4
NMTAP	54	192	0
NMTAP	54	240	0
NMHLD	54	288	7	288
NMTAP	55	0	1
NMTAP	55	96	5
NMTAP	55	192	3
NMTAP	55	240	2
EXTAP	55	288	1
EXTAP	55	288	4
EXSTR	56	0	6
NMSI_	56	0	6	96	48	3
EXSTR	56	0	7
NMSI_	56	0	7	96	48	3
NMTAP	56	48	6
NMTAP	56	48	7
NMTAP	56	192	4
NMTAP	56	240	5
NMTAP	56	288	3
NMTAP	56	288	6
NMSTR	57	0	0
NMSI_	57	0	0	96	48	4
NMSTR	57	0	1
NMSI_	57	0	1	96	48	4
NMTAP	57	48	0
NMTAP	57	48	1
NMTAP	57	192	3
NMTAP	57	240	2
NMHLD	57	288	1	48
NMHLD	57	288	4	48
EXTAP	58	0	2
EXTAP	58	0	3
EXTAP	58	72	1
EXTAP	58	72	3
EXTAP	58	144	2
EXTAP	58	144	3
EXTAP	58	192	4
EXTAP	58	192	5
EXTAP	58	264	4
EXTAP	58	264	6
EXTAP	58	336	4
EXTAP	58	336	5
EXTAP	59	0	2
EXTAP	59	0	3
EXTAP	59	72	1
EXTAP	59	72	3
EXTAP	59	144	2
EXTAP	59	144	3
EXTAP	59	240	3
EXTAP	59	240	4
BXTAP	59	288	1
BXTAP	59	288	6
NMTTP	60	288	3	B	0	M1
NMTTP	60	288	3	E	0	M1
NMTTP	60	288	4	B	0	M1
NMTTP	60	288	4	E	1	M1
NMTTP	60	288	5	E	0	M1
EXSTR	61	0	1
NMSI_	61	0	1	96	48	3
NMTAP	61	48	1
NMSTR	61	96	7
NMSI_	61	96	7	96	48	5
NMTAP	61	144	7
NMSTR	61	192	0
NMSI_	61	192	0	96	48	4
NMTAP	61	240	0
NMTAP	61	288	7
NMSTR	62	0	6
NMSI_	62	0	6	96	48	4
NMTAP	62	48	6
NMSTR	62	96	0
NMSI_	62	96	0	96	48	2
NMTAP	62	144	0
NMSTR	62	192	7
NMSI_	62	192	7	96	48	3
NMTAP	62	240	7
NMTAP	62	288	0
NMTAP	63	0	1
NMTAP	63	48	2
NMTAP	63	96	3
NMTAP	63	144	4
NMTAP	63	192	4
NMTAP	63	192	5
NMTAP	63	240	3
NMTAP	63	240	6
NMTAP	63	288	2
NMTAP	63	288	7
NMTAP	64	0	2
NMTAP	64	48	1
NMTAP	64	96	0
NMTAP	64	144	7
NMTAP	64	192	6
NMTAP	64	192	7
EXTAP	64	288	1
EXTAP	64	288	3
EXSTR	65	0	6
NMSI_	65	0	6	96	48	4
NMTAP	65	48	6
NMSTR	65	96	0
NMSI_	65	96	0	96	48	2
NMTAP	65	144	0
NMSTR	65	192	7
NMSI_	65	192	7	96	48	3
NMTAP	65	240	7
NMTAP	65	288	0
NMSTR	66	0	1
NMSI_	66	0	1	96	48	3
NMTAP	66	48	1
NMSTR	66	96	7
NMSI_	66	96	7	96	48	5
NMTAP	66	144	7
NMSTR	66	192	0
NMSI_	66	192	0	96	48	4
NMTAP	66	240	0
NMTAP	66	288	7
NMHLD	67	0	6	96
NMTAP	67	48	4
NMHLD	67	96	4	96
NMTAP	67	144	3
NMHLD	67	192	3	96
NMTAP	67	240	1
NMHLD	67	288	1	96
NMTAP	67	336	0
NMTAP	68	0	0
NMTAP	68	96	6
NMTAP	68	96	7
NMTAP	68	192	3
NMTAP	68	192	4
NMTAP	68	240	3
NMTAP	68	240	4
BXTAP	68	288	1
BXTAP	68	288	6
BRTAP	69	0	4
BRTAP	69	0	5
BRTAP	69	48	3
BRTAP	69	48	4
BRTAP	69	96	2
BRTAP	69	96	3
NMSTR	69	192	0
NMSI_	69	192	0	96	48	3
NMSI_	69	192	0	96	48	5
NMTAP	69	240	0
NMSTR	70	0	4
NMSCL	70	0	4	96	48	2
NMSCR	70	0	4	96	48	6
NMTAP	70	48	4
NMSTR	70	192	3
NMSI_	70	192	3	96	48	0
NMSTR	70	192	4
NMSI_	70	192	4	96	48	7
NMTAP	70	240	3
NMTAP	70	240	4
NMHLD	71	0	1	96
NMTAP	71	48	0
NMHLD	71	96	2	96
NMTAP	71	144	0
NMTAP	71	192	1
NMTAP	71	240	1
NMTAP	71	240	2
NMTAP	71	288	0
NMTAP	71	288	3
NMHLD	72	0	5	96
NMTAP	72	48	6
NMHLD	72	96	4	96
NMTAP	72	144	6
NMTAP	72	192	5
NMTAP	72	240	4
NMTAP	72	240	5
EXTAP	72	288	2
EXTAP	72	288	7
EXSTR	73	0	0
NMSCL	73	0	0	96	96	4
NMSCR	73	0	0	96	96	4
NMTAP	73	48	0
NMTAP	73	288	3
NMTAP	73	288	5
NMTAP	73	336	3
NMTAP	73	336	5
NMSTR	74	0	4
NMSI_	74	0	4	96	48	1
NMSI_	74	0	4	96	48	7
NMTAP	74	48	4
NMSTR	74	192	0
NMSI_	74	192	0	96	48	4
NMSTR	74	192	6
NMSI_	74	192	6	96	48	3
NMTAP	74	240	0
NMTAP	74	240	6
EXTAP	75	0	2
EXTAP	75	0	3
NMTAP	75	48	2
NMTAP	75	48	3
EXTAP	75	96	1
EXTAP	75	96	4
NMTAP	75	144	1
NMTAP	75	144	4
EXTAP	75	192	0
EXTAP	75	192	5
NMTAP	75	240	0
NMTAP	75	240	5
EXTAP	75	288	6
EXTAP	75	288	7
EXTAP	76	0	0
EXTAP	76	0	2
EXTAP	76	96	5
EXTAP	76	96	7
NMTAP	76	192	3
NMTAP	76	192	4
NMTAP	76	240	3
NMTAP	76	240	4
BXSTR	76	288	0
NMSI_	76	288	0	96	48	4
BXSTR	76	288	7
NMSI_	76	288	7	96	48	3

T_REC_TAP	248
T_REC_BRK	9
T_REC_XTP	63
T_REC_BXX	22
T_REC_HLD	36
T_REC_XHO	6
T_REC_BHO	0
T_REC_BXH	0
T_REC_STR	53
T_REC_BST	0
T_REC_XST	13
T_REC_XBS	4
T_REC_TTP	21
T_REC_THO	0
T_REC_SLD	74
T_REC_BSL	1
T_REC_ALL	550
T_NUM_TAP	398
T_NUM_BRK	36
T_NUM_HLD	42
T_NUM_SLD	74
T_NUM_ALL	550
T_JUDGE_TAP	433
T_JUDGE_HLD	153
T_JUDGE_SLD	75
T_JUDGE_ALL	661
TTM_EACHPAIRS	114
TTM_SCR_TAP	199000
TTM_SCR_BRK	93600
TTM_SCR_HLD	42000
TTM_SCR_SLD	111000
TTM_SCR_ALL	445600
TTM_SCR_S	428750
TTM_SCR_SS	442000
TTM_RAT_ACV	10081

