VERSION	0.00.00	1.04.00
FES_MODE	0
BPM_DEF	163.000	163.000	163.000	163.000
MET_DEF	4	4
RESOLUTION	384
CLK_DEF	384
COMPATIBLE_CODE	MA2

BPM	0	0	163.000
MET	0	0	4	4

NMTAP	1	0	3
NMTAP	1	48	4
NMTAP	1	96	3
NMTAP	1	144	5
NMTAP	1	192	3
NMTAP	1	240	6
NMSTR	1	288	3
NMSXR	1	288	3	96	192	7
NMTAP	1	336	7
BXTAP	2	288	0
BXTAP	2	288	6
NMTAP	3	0	5
NMTAP	3	48	4
NMTAP	3	96	3
NMTAP	3	96	5
NMTAP	3	144	6
NMTAP	3	192	3
NMSTR	3	192	5
NMSCL	3	192	5	96	48	3
NMTAP	4	0	2
NMTAP	4	48	3
NMTAP	4	96	2
NMTAP	4	96	4
NMTAP	4	144	1
NMSTR	4	192	2
NMSCR	4	192	2	96	48	4
NMTAP	4	192	4
NMTAP	5	0	5
NMTAP	5	48	4
NMTAP	5	96	3
NMTAP	5	96	5
NMTAP	5	144	6
NMTAP	5	192	3
NMSTR	5	192	5
NMSCR	5	192	5	96	96	0
NMSTR	5	288	0
NMSCR	5	288	0	96	96	3
NMSTR	6	0	3
NMSCR	6	0	3	96	96	6
NMTAP	6	96	6
NMTAP	6	192	1
NMTAP	6	288	0
NMTAP	6	288	7
NMTAP	7	0	6
NMTAP	7	48	7
NMTAP	7	96	0
NMTAP	7	96	6
NMTAP	7	144	5
NMTAP	7	192	0
NMSTR	7	192	6
NMSCR	7	192	6	96	48	0
NMTAP	8	0	1
NMTAP	8	48	0
NMTAP	8	96	1
NMTAP	8	96	7
NMTAP	8	144	2
NMSTR	8	192	1
NMSCL	8	192	1	96	48	7
NMTAP	8	192	7
NMTAP	9	0	6
NMTAP	9	48	7
NMTAP	9	96	0
NMTAP	9	96	6
NMTAP	9	144	5
NMTAP	9	192	0
NMSTR	9	192	6
NMSUR	9	192	6	96	96	2
NMSTR	9	288	2
NMSUR	9	288	2	96	96	6
NMSTR	10	0	6
NMSLR	10	0	6	96	96	2
NMSTR	10	96	2
NMSLR	10	96	2	96	96	6
NMTAP	10	192	6
NMTAP	10	288	0
NMSTR	11	0	6
NMSI_	11	0	6	96	48	4
NMHLD	11	48	6	192
EXTAP	11	240	4
EXTAP	11	288	4
EXTAP	11	288	6
NMSTR	12	0	7
NMSI_	12	0	7	96	48	4
NMHLD	12	48	7	192
EXTAP	12	240	4
EXTAP	12	288	4
EXTAP	12	288	7
NMSTR	13	0	6
NMSI_	13	0	6	96	48	3
NMHLD	13	48	6	192
EXTAP	13	240	3
EXTAP	13	288	3
EXTAP	13	288	6
NMTAP	13	336	2
NMTAP	14	0	1
NMTTP	14	48	7	E	0	M1
NMTTP	14	96	0	B	0	M1
NMTTP	14	144	0	C	0	M1
NMTTP	14	192	2	E	0	M1
NMTTP	14	240	4	E	0	M1
NMTTP	14	288	3	D	0	M1
NMSTR	15	0	1
NMSI_	15	0	1	96	48	3
NMHLD	15	48	1	192
EXTAP	15	240	3
EXTAP	15	288	1
EXTAP	15	288	3
NMSTR	16	0	0
NMSI_	16	0	0	96	48	3
NMHLD	16	48	0	192
EXTAP	16	240	3
EXTAP	16	288	0
EXTAP	16	288	3
NMHLD	17	0	1	96
NMTAP	17	48	2
NMHLD	17	96	3	96
NMTAP	17	144	2
NMHLD	17	192	1	96
NMTAP	17	240	2
NMTAP	17	288	3
NMTAP	17	336	2
NMTAP	18	0	1
NMTAP	18	0	3
NMTAP	18	48	1
NMTAP	18	48	3
NMTAP	18	96	0
NMTAP	18	96	4
NMTAP	18	144	0
NMTAP	18	144	4
NMTAP	18	192	5
NMTAP	18	192	7
NMTAP	18	336	3
BRTAP	19	0	4
BRTAP	19	0	6
NMTAP	19	48	7
NMSTR	19	96	0
NMSI_	19	96	0	96	48	5
NMSTR	19	96	1
NMSI_	19	96	1	96	48	4
NMTAP	19	144	2
NMTAP	19	144	7
EXTAP	19	192	0
EXTAP	19	192	1
NMTAP	19	288	3
NMTAP	19	336	2
NMTAP	20	0	1
NMTAP	20	0	7
NMTAP	20	48	6
NMSTR	20	96	4
NMSI_	20	96	4	96	48	1
NMSTR	20	96	5
NMSI_	20	96	5	96	48	0
NMTAP	20	144	3
NMTAP	20	144	6
EXTAP	20	192	4
EXTAP	20	192	5
NMHLD	20	288	2	96
NMTAP	21	0	0
NMTAP	21	48	7
NMTAP	21	96	6
NMTAP	21	144	3
NMSTR	21	168	4
NMSCR	21	168	4	96	48	7
NMTAP	21	240	2
NMTAP	21	288	1
NMSTR	21	336	0
NMSCR	21	336	0	96	48	3
NMTAP	22	48	4
NMTAP	22	96	5
NMTAP	22	144	6
NMTAP	22	192	4
NMTAP	22	192	7
NMTAP	22	288	0
NMTAP	22	288	5
BRTAP	23	0	1
BRTAP	23	0	3
NMTAP	23	48	0
NMSTR	23	96	6
NMSI_	23	96	6	96	48	3
NMSTR	23	96	7
NMSI_	23	96	7	96	48	2
NMTAP	23	144	0
NMTAP	23	144	5
EXTAP	23	192	6
EXTAP	23	192	7
NMTAP	23	288	4
NMTAP	23	336	5
NMTAP	24	0	0
NMTAP	24	0	6
NMTAP	24	48	1
NMSTR	24	96	2
NMSI_	24	96	2	96	48	7
NMSTR	24	96	3
NMSI_	24	96	3	96	48	6
NMTAP	24	144	1
NMTAP	24	144	4
EXTAP	24	192	2
EXTAP	24	192	3
NMHLD	24	288	5	96
NMTAP	25	0	7
NMTAP	25	48	0
NMTAP	25	96	1
NMTAP	25	144	4
NMSTR	25	168	3
NMSCL	25	168	3	96	48	0
NMTAP	25	240	5
NMTAP	25	288	6
NMSTR	25	336	7
NMSCL	25	336	7	96	48	4
NMTAP	26	48	3
NMTAP	26	96	2
NMTAP	26	144	1
NMTAP	26	192	0
NMTAP	26	192	3
NMTAP	26	288	2
NMTAP	26	288	5
NMTAP	27	0	2
NMHLD	27	0	3	96
NMTAP	27	48	0
NMHLD	27	96	2	96
NMTAP	27	144	0
NMHLD	27	192	3	96
NMTAP	27	240	0
NMTAP	27	288	1
NMTAP	27	336	2
NMTAP	28	0	3
NMTAP	28	48	4
NMTAP	28	96	5
NMTAP	28	144	5
NMTAP	28	192	4
NMTAP	28	192	6
NMTAP	28	288	3
NMTAP	28	288	4
NMHLD	29	0	4	96
NMTAP	29	0	5
NMTAP	29	48	7
NMHLD	29	96	5	96
NMTAP	29	144	7
NMHLD	29	192	4	48
NMTAP	29	240	7
NMTAP	29	288	6
BRHLD	29	336	2	240
BRHLD	29	336	5	240
NMTAP	30	288	3
NMTAP	30	288	4
NMHLD	31	0	4	672
NMTTP	31	96	2	A	0	M1
NMTTP	31	144	3	B	0	M1
NMTTP	31	192	2	E	0	M1
NMTTP	31	240	0	C	0	M1
NMTTP	31	288	1	E	0	M1
NMTTP	31	336	7	B	0	M1
NMTTP	32	48	6	B	0	M1
NMTTP	32	48	6	E	0	M1
NMTTP	32	144	0	A	0	M1
NMTTP	32	192	1	A	0	M1
NMTTP	32	240	2	A	0	M1
NMTTP	32	288	3	A	0	M1
NMTTP	32	288	4	E	0	M1
NMHLD	33	0	3	672
NMTTP	33	96	5	A	0	M1
NMTTP	33	144	4	B	0	M1
NMTTP	33	192	6	E	0	M1
NMTTP	33	240	0	C	0	M1
NMTTP	33	288	7	E	0	M1
NMTTP	33	336	0	B	0	M1
NMTTP	34	48	1	B	0	M1
NMTTP	34	48	2	E	0	M1
NMTTP	34	144	7	A	0	M1
NMTTP	34	192	6	A	0	M1
NMTTP	34	240	5	A	0	M1
NMTTP	34	288	4	E	0	M1
NMTTP	34	288	4	A	0	M1
NMHLD	35	0	5	672
NMTTP	35	96	2	A	0	M1
NMTTP	35	144	3	B	0	M1
NMTTP	35	192	2	E	0	M1
NMTTP	35	240	0	C	0	M1
NMTTP	35	288	1	E	0	M1
NMTTP	35	336	7	B	0	M1
NMTTP	36	48	6	B	0	M1
NMTTP	36	48	6	E	0	M1
NMTTP	36	144	0	A	0	M1
NMTTP	36	192	1	A	0	M1
NMTTP	36	240	2	A	0	M1
NMTTP	36	288	3	A	0	M1
NMTTP	36	288	4	E	0	M1
NMHLD	37	0	2	240
NMTTP	37	96	5	A	0	M1
NMTTP	37	144	4	B	0	M1
NMTTP	37	192	6	E	0	M1
NMTTP	37	240	0	C	0	M1
EXTAP	37	288	7
EXTAP	37	336	7
EXTAP	38	48	1
EXTAP	38	64	2
EXTAP	38	80	3
EXTAP	38	96	4
NMTAP	38	144	7
NMSTR	38	192	7
NMSF_	38	192	7	96	48	3
BXTAP	38	288	7
EXSTR	39	96	1
NMSCR	39	96	1	96	192	5
NMTAP	39	96	5
NMTAP	39	192	7
NMTAP	39	288	7
NMTAP	40	0	0
CNSCL	40	0	5	0	192	1
NMTAP	40	96	0
NMTAP	40	192	7
NMTAP	40	288	7
NMSTR	41	0	6
NMSCL	41	0	6	96	288	2
NMTAP	41	96	1
NMTAP	41	192	0
NMTAP	41	288	0
CNSCR	42	0	2	0	96	6
NMTAP	42	0	7
NMTAP	42	96	7
NMTAP	42	192	0
NMTAP	42	192	7
NMSTR	42	288	0
NMSI_	42	288	0	96	80	2
NMTAP	43	0	7
CNSI_	43	80	2	0	80	7
NMTAP	43	96	6
CNSI_	43	160	7	0	80	3
NMTAP	43	192	5
NMSTR	43	288	4
NMSI_	43	288	4	96	48	6
NMTAP	44	0	3
CNSI_	44	48	6	0	48	3
NMTAP	44	96	2
CNSI_	44	96	3	0	144	7
NMTAP	44	192	1
NMTAP	44	288	0
NMSTR	45	0	6
NMSI_	45	0	6	96	48	4
NMHLD	45	0	7	96
EXTAP	45	96	6
NMSTR	45	192	2
NMSI_	45	192	2	96	48	0
NMHLD	45	192	3	96
EXTAP	45	288	2
NMSTR	46	0	6
NMSI_	46	0	6	96	48	2
NMHLD	46	0	7	96
EXTAP	46	96	6
NMTAP	46	192	0
NMTTP	46	288	0	B	0	M1
NMTTP	46	288	0	C	0	M1
NMTTP	46	288	4	B	0	M1
NMSTR	47	0	6
NMSCL	47	0	6	96	48	4
NMHLD	47	48	6	192
EXTAP	47	240	4
EXTAP	47	288	4
EXTAP	47	288	6
NMSTR	48	0	7
NMSCL	48	0	7	96	48	4
NMHLD	48	48	7	192
EXTAP	48	240	4
EXTAP	48	288	4
EXTAP	48	288	7
NMSTR	49	0	6
NMSCL	49	0	6	96	48	3
NMHLD	49	48	6	192
EXTAP	49	240	3
EXTAP	49	288	3
EXTAP	49	288	6
NMTAP	49	336	2
NMTAP	50	0	1
NMTTP	50	48	5	D	0	M1
NMTTP	50	96	4	E	0	M1
NMTTP	50	144	6	E	0	M1
NMTTP	50	192	0	C	0	M1
NMTTP	50	240	7	B	0	M1
NMTTP	50	288	1	E	0	M1
NMSTR	51	0	1
NMSCR	51	0	1	96	48	3
NMHLD	51	48	1	192
EXTAP	51	240	3
EXTAP	51	288	1
EXTAP	51	288	3
NMSTR	52	0	0
NMSCR	52	0	0	96	48	3
NMHLD	52	48	0	192
EXTAP	52	240	3
EXTAP	52	288	0
EXTAP	52	288	3
NMTAP	53	0	1
NMHLD	53	0	3	96
NMTAP	53	48	2
NMHLD	53	96	1	96
NMTAP	53	144	2
NMHLD	53	192	3	96
NMTAP	53	240	2
NMTAP	53	288	1
NMTAP	53	336	2
NMTAP	54	0	1
NMTAP	54	0	2
NMTAP	54	48	0
NMTAP	54	48	3
NMTAP	54	96	4
NMTAP	54	96	7
NMTAP	54	144	5
NMTAP	54	144	6
NMTAP	54	192	5
NMTAP	54	192	6
BRTAP	54	288	0
BRTAP	54	288	3
NMTTP	55	0	7	E	0	M1
NMTTP	55	96	7	E	0	M1
NMTTP	55	192	7	E	0	M1
NMTTP	55	288	7	E	0	M1
NMTTP	56	0	1	A	0	M1
NMTTP	56	0	7	E	0	M1
NMTTP	56	96	1	B	0	M1
NMTTP	56	96	7	E	0	M1
NMTTP	56	192	0	C	0	M1
NMTTP	56	192	7	E	0	M1
NMTTP	56	288	5	B	0	M1
NMTTP	56	288	7	E	0	M1
NMTTP	57	0	3	E	0	M1
NMTTP	57	0	5	A	0	M1
NMTTP	57	96	3	E	0	M1
NMTTP	57	96	5	B	0	M1
NMTTP	57	192	0	C	0	M1
NMTTP	57	192	3	E	0	M1
NMTTP	57	288	1	B	0	M1
NMTTP	57	288	3	E	0	M1
EXTAP	58	0	0
EXTAP	58	0	7
EXTAP	58	96	4
EXTAP	58	96	5
EXTAP	58	192	2
EXTAP	58	192	7
NMTAP	59	0	0
NMTTP	59	0	6	B	0	M1
NMTAP	59	96	0
NMTTP	59	96	6	B	0	M1
NMTAP	59	192	1
NMTTP	59	192	6	B	0	M1
NMTAP	59	288	1
NMTTP	59	288	6	B	0	M1
NMTAP	60	0	2
NMTTP	60	0	6	B	0	M1
NMTAP	60	96	2
NMTTP	60	96	6	B	0	M1
NMTAP	60	192	3
NMTTP	60	192	6	B	0	M1
NMTAP	60	288	3
NMTTP	60	288	6	B	0	M1
NMTAP	61	0	2
NMTAP	61	48	2
NMTAP	61	96	4
NMTAP	61	144	4
NMTAP	61	192	1
NMTAP	61	216	5
NMTAP	61	240	1
NMTAP	61	264	5
NMTAP	61	288	0
NMTAP	61	312	6
NMTAP	61	336	0
NMTAP	61	360	6
BXTAP	62	0	1
BXTAP	62	0	5
NMSTR	62	96	1
NMSI_	62	96	1	96	48	6
NMSTR	62	96	5
NMSI_	62	96	5	96	48	2
BXTAP	62	192	1
BXTAP	62	192	5
NMTTP	63	0	0	D	0	M1
NMTTP	63	96	1	E	0	M1
NMTTP	63	96	7	E	0	M1
NMTTP	63	192	2	B	0	M1
NMTTP	63	192	2	A	0	M1
NMTTP	63	192	5	B	0	M1
NMTTP	63	192	5	A	0	M1
NMSTR	63	288	3
BRSCL	63	288	3	96	48	0
NMSTR	63	288	4
BRSCR	63	288	4	96	48	7
BXTAP	64	0	3
BXTAP	64	0	4
NMTTP	64	12	2	A	0	M1
NMTTP	64	12	5	A	0	M1
NMTTP	64	24	2	D	0	M1
NMTTP	64	24	6	D	0	M1
NMTTP	64	36	1	A	0	M1
NMTTP	64	36	6	A	0	M1
NMTTP	64	48	1	D	0	M1
NMTTP	64	48	7	D	0	M1
NMTAP	65	0	4
NMTAP	65	0	5
NMTAP	65	48	4
NMTAP	65	48	5
NMTAP	65	96	6
NMTAP	65	96	7
NMTAP	65	144	6
NMTAP	65	144	7
EXTAP	65	192	0
EXTAP	65	204	1
EXTAP	65	216	2
EXTAP	65	228	3
EXTAP	65	240	4
EXTAP	65	252	5
EXTAP	65	264	6
EXTAP	65	276	7
BXTAP	65	288	0
NMTAP	66	0	5
NMTAP	66	48	6
NMTAP	66	96	7
NMTAP	66	144	1
NMSTR	66	168	0
NMSCL	66	168	0	96	48	5
NMTAP	66	240	2
NMTAP	66	288	3
NMSTR	66	336	4
NMSCL	66	336	4	96	48	1
NMTAP	67	48	1
NMTAP	67	96	0
NMTAP	67	144	7
NMTAP	67	192	4
NMTAP	67	192	6
NMTAP	67	288	3
NMTAP	67	288	4
BRTAP	68	0	5
BRTAP	68	0	7
NMTAP	68	48	4
NMSTR	68	96	2
NMSI_	68	96	2	96	48	7
NMSTR	68	96	3
NMSI_	68	96	3	96	48	6
NMTAP	68	144	1
NMTAP	68	144	4
EXTAP	68	192	2
EXTAP	68	192	3
NMTAP	68	288	0
NMTAP	68	336	1
NMTAP	69	0	2
NMTAP	69	0	4
NMTAP	69	48	5
NMSTR	69	96	6
NMSI_	69	96	6	96	48	3
NMSTR	69	96	7
NMSI_	69	96	7	96	48	2
NMTAP	69	144	0
NMTAP	69	144	5
EXTAP	69	192	6
EXTAP	69	192	7
NMHLD	69	288	1	96
NMTAP	70	0	4
NMTAP	70	48	3
NMTAP	70	96	2
NMTAP	70	144	0
NMSTR	70	168	1
NMSCR	70	168	1	96	48	4
NMTAP	70	240	7
NMTAP	70	288	6
NMSTR	70	336	5
NMSCR	70	336	5	96	48	0
NMTAP	71	48	0
NMTAP	71	96	1
NMTAP	71	144	2
NMTAP	71	192	3
NMTAP	71	192	4
NMTAP	71	288	1
NMTAP	71	288	4
NMTAP	72	0	2
NMHLD	72	0	3	96
NMTAP	72	48	0
NMHLD	72	96	2	96
NMTAP	72	144	0
NMHLD	72	192	3	96
NMTAP	72	240	0
NMTAP	72	288	1
NMTAP	72	336	2
NMTAP	73	0	3
NMTAP	73	48	4
NMTAP	73	96	5
NMTAP	73	144	5
NMTAP	73	192	4
NMTAP	73	192	6
NMTAP	73	288	3
NMTAP	73	288	4
NMHLD	74	0	4	96
NMTAP	74	0	5
NMTAP	74	48	7
NMHLD	74	96	5	96
NMTAP	74	144	7
NMHLD	74	192	4	48
NMTAP	74	240	7
NMTAP	74	288	6
NMTAP	74	336	0
NMTAP	74	336	5
BRSTR	75	0	0
BRSXR	75	0	0	96	48	6
BRSTR	75	0	5
BRSXL	75	0	5	96	48	7
CNSUR	75	144	6	0	144	2
CNSUL	75	144	7	0	144	3
NMTAP	76	0	4
NMTAP	76	0	5
NMTAP	76	48	4
NMTAP	76	48	5
NMTAP	76	96	2
NMTAP	76	96	3
NMTAP	76	144	2
NMTAP	76	144	3
NMTAP	76	192	5
NMTAP	76	192	7
NMTAP	76	240	5
NMTAP	76	240	7
NMTAP	76	288	0
NMTAP	76	288	1
NMTAP	76	336	0
NMTAP	76	336	1
NMTAP	77	48	3
NMTAP	77	48	4
NMSTR	77	96	1
NMSI_	77	96	1	96	48	4
NMSTR	77	96	6
NMSI_	77	96	6	96	48	3
BXTAP	77	192	1
BXTAP	77	192	6
NMTTP	77	288	0	B	0	M1
NMTTP	77	288	0	E	0	M1
NMTTP	77	288	0	A	0	M1
NMTTP	77	288	7	B	0	M1
NMTTP	77	288	7	A	0	M1

T_REC_TAP	278
T_REC_BRK	8
T_REC_XTP	65
T_REC_BXX	12
T_REC_HLD	38
T_REC_XHO	0
T_REC_BHO	2
T_REC_BXH	0
T_REC_STR	55
T_REC_BST	2
T_REC_XST	1
T_REC_XBS	0
T_REC_TTP	106
T_REC_THO	0
T_REC_SLD	54
T_REC_BSL	4
T_REC_ALL	625
T_NUM_TAP	505
T_NUM_BRK	28
T_NUM_HLD	38
T_NUM_SLD	54
T_NUM_ALL	625
T_JUDGE_TAP	527
T_JUDGE_HLD	143
T_JUDGE_SLD	58
T_JUDGE_ALL	728
TTM_EACHPAIRS	108
TTM_SCR_TAP	252500
TTM_SCR_BRK	72800
TTM_SCR_HLD	38000
TTM_SCR_SLD	81000
TTM_SCR_ALL	444300
TTM_SCR_S	428300
TTM_SCR_SS	441500
TTM_RAT_ACV	10063

