VERSION	0.00.00	1.04.00
FES_MODE	0
BPM_DEF	163.000	163.000	163.000	163.000
MET_DEF	4	4
RESOLUTION	384
CLK_DEF	384
COMPATIBLE_CODE	MA2

BPM	0	0	163.000
MET	0	0	4	4

NMHLD	2	0	2	96
NMHLD	2	0	5	96
NMTAP	2	192	2
NMTAP	2	192	5
EXTAP	2	336	3
EXTAP	3	0	3
NMTAP	3	96	4
NMTAP	3	192	3
NMTAP	3	192	5
EXTAP	3	336	4
EXTAP	4	0	4
NMTAP	4	96	5
NMTAP	4	192	4
NMTAP	4	192	6
EXTAP	4	336	4
EXHLD	5	0	4	96
NMTAP	5	96	3
NMHLD	5	192	2	96
NMTAP	5	288	3
NMTAP	6	0	3
NMTAP	6	96	2
NMTAP	6	192	1
NMTAP	6	192	3
EXTAP	6	336	4
EXTAP	7	0	4
NMTAP	7	96	3
NMTAP	7	192	2
NMTAP	7	192	4
EXTAP	7	336	3
EXTAP	8	0	3
NMTAP	8	96	2
NMTAP	8	192	1
NMTAP	8	192	3
EXTAP	8	336	3
EXHLD	9	0	3	96
NMTAP	9	96	4
NMHLD	9	192	5	96
NMTAP	9	288	4
NMTAP	10	0	4
NMTAP	10	96	5
NMTAP	10	192	4
NMTAP	10	192	6
NMHLD	10	288	5	96
NMHLD	11	0	4	288
NMTAP	11	96	5
NMHLD	11	288	6	96
NMHLD	12	0	5	288
NMTAP	12	96	6
NMHLD	12	288	7	96
NMHLD	13	0	0	288
NMTAP	13	96	6
NMSTR	13	288	6
NMSUR	13	288	6	96	192	3
NMHLD	14	288	2	96
NMHLD	15	0	3	288
NMTAP	15	96	2
NMHLD	15	288	1	96
NMHLD	16	0	2	288
NMTAP	16	96	1
NMHLD	16	288	0	96
NMHLD	17	0	7	288
NMTAP	17	96	1
NMTAP	17	192	1
NMTAP	17	288	1
NMTAP	18	0	0
NMTAP	18	0	6
NMTAP	18	96	0
NMTAP	18	96	6
BXTAP	18	192	1
BXTAP	18	192	5
EXTAP	18	336	7
EXTAP	19	0	7
NMTAP	19	96	0
NMTAP	19	96	1
NMTAP	19	192	2
NMHLD	19	288	2	96
NMTAP	20	0	3
EXTAP	20	96	4
EXTAP	20	144	4
NMTAP	20	192	3
NMTAP	20	192	4
NMHLD	20	288	5	96
NMTAP	21	0	4
NMTAP	21	96	4
NMTAP	21	96	5
NMTAP	21	192	5
NMTAP	21	192	6
NMTAP	21	288	6
NMTAP	21	288	7
NMHLD	22	0	0	96
NMTAP	22	96	7
EXTAP	22	144	0
EXTAP	22	192	0
BRTAP	22	288	1
NMTAP	23	0	0
NMTAP	23	0	7
NMTAP	23	96	6
NMTAP	23	96	7
NMTAP	23	192	5
NMHLD	23	288	5	96
NMTAP	24	0	4
EXTAP	24	96	3
EXTAP	24	144	3
NMTAP	24	192	3
NMTAP	24	192	4
NMHLD	24	288	2	96
BRTAP	25	0	3
NMTAP	25	96	2
NMTAP	25	96	3
NMTAP	25	192	1
NMTAP	25	192	2
NMTAP	25	288	0
NMTAP	25	288	1
NMHLD	26	0	7	96
NMTAP	26	96	0
EXTAP	26	144	7
EXTAP	26	192	7
NMTAP	26	288	6
NMTAP	27	0	5
NMTAP	27	0	7
NMTAP	27	96	4
NMTAP	27	96	6
NMTAP	27	192	3
NMTAP	27	192	5
NMTAP	27	288	4
NMTAP	27	288	6
NMTAP	28	0	3
NMTAP	28	0	5
NMTAP	28	96	4
NMTAP	28	144	4
EXTAP	28	192	2
EXTAP	28	192	3
NMHLD	28	288	0	48
NMTAP	29	0	0
NMTAP	29	96	1
NMTAP	29	96	3
NMTAP	29	192	2
NMTAP	29	192	4
NMTAP	29	288	5
NMTAP	29	336	5
EXHLD	30	48	6	96
NMTAP	30	144	7
BXTAP	30	192	7
NMTTP	31	0	2	B	0	M1
NMTTP	31	0	4	B	0	M1
NMTTP	32	0	3	B	0	M1
NMTTP	32	0	5	B	0	M1
NMSTR	33	0	1
NMSCR	33	0	1	96	96	3
NMSTR	33	0	4
NMSCR	33	0	4	96	96	6
NMSTR	34	0	3
NMSCL	34	0	3	96	96	1
NMSTR	34	0	6
NMSCL	34	0	6	96	96	4
NMSTR	35	0	1
NMSCR	35	0	1	96	96	3
NMSTR	35	0	4
NMSCR	35	0	4	96	96	6
NMTAP	35	288	3
NMTAP	35	288	6
NMSTR	36	0	3
NMSCL	36	0	3	96	96	1
NMSTR	36	0	6
NMSCL	36	0	6	96	96	4
NMTAP	36	288	1
NMTAP	36	288	4
NMSTR	37	0	1
NMSCR	37	0	1	96	96	3
NMSTR	37	0	4
NMSCR	37	0	4	96	96	6
NMTAP	37	288	3
NMTAP	37	288	6
NMSTR	38	0	3
NMSCL	38	0	3	96	96	1
NMSTR	38	0	6
NMSCL	38	0	6	96	96	4
NMTAP	38	288	1
NMTAP	38	288	4
NMTAP	39	0	2
NMSTR	39	96	1
NMSI_	39	96	1	96	192	4
NMTAP	40	0	5
NMSTR	40	96	6
NMSI_	40	96	6	96	192	3
NMTAP	41	0	2
NMHLD	41	96	2	96
NMTAP	41	192	3
NMTAP	41	288	3
NMTAP	42	0	4
NMTAP	42	0	5
NMTAP	42	96	5
NMTAP	42	192	2
NMTAP	42	192	3
NMTAP	42	288	2
NMTAP	43	0	1
NMSTR	43	96	1
NMSCL	43	96	1	96	192	6
NMTAP	44	0	5
NMSTR	44	96	5
NMSCL	44	96	5	96	192	2
NMHLD	45	0	1	192
NMHLD	45	192	2	192
NMTAP	46	0	3
NMTAP	46	96	2
NMTAP	46	96	4
NMTAP	46	192	3
NMHLD	46	288	2	96
NMHLD	47	0	3	288
NMTAP	47	96	2
NMHLD	47	288	1	96
NMHLD	48	0	2	288
NMTAP	48	96	1
NMHLD	48	288	0	96
NMHLD	49	0	7	288
NMTAP	49	96	1
NMSTR	49	288	1
NMSUL	49	288	1	96	192	4
NMHLD	50	288	5	96
NMHLD	51	0	4	288
NMTAP	51	96	5
NMHLD	51	288	6	96
NMHLD	52	0	5	288
NMTAP	52	96	6
NMHLD	52	288	7	96
NMHLD	53	0	0	288
NMTAP	53	96	6
NMTAP	53	192	6
NMTAP	53	288	6
NMTAP	54	0	1
NMTAP	54	0	7
NMTAP	54	96	1
NMTAP	54	96	7
NMTAP	54	192	2
NMTAP	54	192	6
BRTAP	54	288	4
NMTTP	55	0	3	E	0	M1
NMTTP	55	192	5	E	0	M1
NMTTP	56	0	3	E	0	M1
NMTTP	56	192	5	E	0	M1
NMTTP	57	0	2	B	0	M1
NMTTP	57	0	3	E	0	M1
NMTTP	57	96	1	B	0	M1
NMTTP	57	192	5	B	0	M1
NMTTP	57	192	5	E	0	M1
NMTTP	57	288	6	B	0	M1
NMTTP	58	0	2	B	0	M1
NMTTP	58	0	3	E	0	M1
NMTTP	58	96	1	B	0	M1
NMTTP	58	192	0	C	0	M1
NMTTP	58	192	3	B	0	M1
NMTTP	58	192	4	B	0	M1
NMHLD	59	0	7	96
NMTAP	59	96	0
NMTAP	59	192	1
NMHLD	59	288	2	96
NMHLD	60	0	3	96
NMTAP	60	96	4
NMTAP	60	192	5
NMHLD	60	288	6	96
NMTAP	61	0	7
NMTAP	61	96	6
NMTAP	61	192	0
NMTAP	61	192	7
EXTAP	61	288	1
EXHLD	61	336	1	144
NMTAP	62	96	0
NMTAP	62	192	1
NMTAP	62	192	7
NMHLD	63	0	1	48
NMHLD	63	0	7	48
NMHLD	63	96	1	48
NMHLD	63	96	7	48
BRTAP	63	192	1
BRTAP	63	192	7
EXTAP	63	336	0
EXTAP	64	0	0
NMTAP	64	96	6
NMTAP	64	96	7
NMTAP	64	192	5
NMHLD	64	288	5	96
NMTAP	65	0	4
EXTAP	65	96	3
EXTAP	65	144	3
NMTAP	65	192	3
NMTAP	65	192	4
NMHLD	65	288	2	96
BRTAP	66	0	3
NMTAP	66	96	2
NMTAP	66	96	3
NMTAP	66	192	1
NMTAP	66	192	2
NMTAP	66	288	0
NMTAP	66	288	1
NMHLD	67	0	7	96
NMTAP	67	96	0
EXTAP	67	144	7
EXTAP	67	192	7
BRTAP	67	288	0
BRTAP	67	288	1
NMTAP	68	0	1
NMTAP	68	0	2
NMTAP	68	96	2
NMTAP	68	96	3
NMTAP	68	192	3
NMTAP	68	192	4
NMHLD	68	288	3	96
NMTAP	69	0	4
EXTAP	69	96	4
EXTAP	69	144	4
NMTAP	69	192	3
NMTAP	69	192	4
NMHLD	69	288	5	96
BRTAP	70	0	4
NMTAP	70	96	4
NMTAP	70	96	5
NMTAP	70	192	5
NMTAP	70	192	6
NMTAP	70	288	6
NMTAP	70	288	7
NMHLD	71	0	0	96
NMTAP	71	96	7
EXTAP	71	144	0
EXTAP	71	192	0
NMTAP	71	288	6
NMTAP	72	0	5
NMTAP	72	0	7
NMTAP	72	96	4
NMTAP	72	96	6
NMTAP	72	192	3
NMTAP	72	192	5
NMTAP	72	288	4
NMTAP	72	288	6
NMTAP	73	0	3
NMTAP	73	0	5
NMTAP	73	96	4
NMTAP	73	144	4
EXTAP	73	192	3
EXTAP	73	192	4
NMHLD	73	288	2	48
NMHLD	73	288	3	48
NMTAP	74	0	1
NMTAP	74	0	4
NMHLD	74	96	2	96
NMHLD	74	192	1	96
NMTAP	74	288	0
NMTAP	75	0	0
NMTAP	75	0	1
NMTAP	75	96	2
NMTAP	75	96	3
NMTAP	75	192	4
NMTAP	75	192	5
NMTAP	75	288	6
NMTAP	75	288	7
NMHLD	76	0	1	288
NMHLD	76	0	4	288
NMTTP	77	96	0	B	0	M1
NMTTP	77	96	0	E	0	M1
NMTTP	77	96	7	B	0	M1
NMTTP	77	192	1	B	0	M1
NMTTP	77	192	2	B	0	M1
NMTTP	77	192	5	B	0	M1
NMTTP	77	192	6	B	0	M1
NMTTP	77	288	3	B	0	M1
NMTTP	77	288	3	E	0	M1
NMTTP	77	288	4	B	0	M1
NMTTP	77	288	4	E	0	M1
NMTTP	77	288	5	E	0	M1

T_REC_TAP	191
T_REC_BRK	9
T_REC_XTP	35
T_REC_BXX	3
T_REC_HLD	58
T_REC_XHO	4
T_REC_BHO	0
T_REC_BXH	0
T_REC_STR	18
T_REC_BST	0
T_REC_XST	0
T_REC_XBS	0
T_REC_TTP	32
T_REC_THO	0
T_REC_SLD	18
T_REC_BSL	0
T_REC_ALL	368
T_NUM_TAP	276
T_NUM_BRK	12
T_NUM_HLD	62
T_NUM_SLD	18
T_NUM_ALL	368
T_JUDGE_TAP	288
T_JUDGE_HLD	178
T_JUDGE_SLD	18
T_JUDGE_ALL	484
TTM_EACHPAIRS	77
TTM_SCR_TAP	138000
TTM_SCR_BRK	31200
TTM_SCR_HLD	62000
TTM_SCR_SLD	27000
TTM_SCR_ALL	258200
TTM_SCR_S	249300
TTM_SCR_SS	257000
TTM_RAT_ACV	10046

