VERSION	0.00.00	1.04.00
FES_MODE	0
BPM_DEF	132.000	132.000	132.000	132.000
MET_DEF	4	4
RESOLUTION	384
CLK_DEF	384
COMPATIBLE_CODE	MA2

BPM	0	0	132.000
MET	0	0	4	4

NMHLD	2	0	4	48
NMTAP	2	48	2
NMHLD	2	96	4	48
NMTAP	2	144	3
NMHLD	2	192	4	48
NMTTP	2	240	4	E	0	M1
NMHLD	2	288	4	48
NMTAP	2	336	5
NMHLD	3	0	4	48
NMTAP	3	48	5
NMHLD	3	96	4	48
NMTTP	3	144	4	E	0	M1
NMHLD	3	192	4	48
NMTAP	3	240	3
NMHLD	3	288	4	48
NMTAP	3	336	3
NMHLD	4	0	3	48
NMTAP	4	48	5
NMHLD	4	96	3	48
NMTAP	4	144	4
NMHLD	4	192	3	48
NMTTP	4	240	4	E	0	M1
NMHLD	4	288	3	48
NMTAP	4	336	2
NMHLD	5	0	3	48
NMTAP	5	48	2
NMHLD	5	96	3	48
NMTTP	5	144	4	E	0	M1
NMHLD	5	192	3	48
NMTAP	5	240	4
NMHLD	5	288	3	48
NMTAP	5	336	4
NMHLD	6	0	4	48
NMTTP	6	48	4	E	0	M1
NMHLD	6	96	5	48
NMTAP	6	144	3
NMHLD	6	192	4	48
NMTTP	6	240	4	E	0	M1
NMHLD	6	288	3	48
NMTAP	6	336	5
NMHLD	7	0	4	48
NMTTP	7	48	4	E	0	M1
NMHLD	7	96	5	48
NMTAP	7	144	3
NMHLD	7	192	4	48
NMTTP	7	240	4	E	0	M1
NMHLD	7	288	4	48
NMTAP	7	336	3
NMHLD	8	0	3	48
NMTTP	8	48	4	E	0	M1
NMHLD	8	96	2	48
NMTAP	8	144	4
NMHLD	8	192	3	48
NMTTP	8	240	4	E	0	M1
NMHLD	8	288	4	48
NMTAP	8	336	2
NMHLD	9	0	3	48
NMTTP	9	48	4	E	0	M1
NMSTR	9	96	4
NMSSL	9	96	4	96	144	0
NMTAP	9	144	4
NMTAP	9	192	3
NMSTR	10	0	1
NMSI_	10	0	1	96	48	4
NMTAP	10	48	2
NMTAP	10	48	4
NMTAP	10	96	1
NMTAP	10	96	5
NMTAP	10	144	6
NMTAP	10	176	6
NMTAP	10	192	4
NMTAP	10	224	4
NMTAP	10	240	3
NMTAP	10	272	3
NMTAP	10	288	1
NMTAP	10	320	1
NMTAP	10	336	7
NMSTR	11	0	0
NMSI_	11	0	0	96	48	5
NMTAP	11	48	3
NMSTR	11	96	0
NMSI_	11	96	0	96	48	3
NMTAP	11	144	4
NMSTR	11	192	0
NMSI_	11	192	0	96	48	4
NMTAP	11	240	5
NMTAP	11	288	0
NMTAP	11	336	5
NMSTR	12	0	6
NMSI_	12	0	6	96	48	3
NMTAP	12	48	3
NMTAP	12	48	5
NMTAP	12	96	2
NMTAP	12	96	6
NMTAP	12	144	1
NMTAP	12	176	1
NMTAP	12	192	3
NMTAP	12	224	3
NMTAP	12	240	4
NMTAP	12	272	4
NMTAP	12	288	6
NMTAP	12	320	6
NMTAP	12	336	0
NMSTR	13	0	7
NMSI_	13	0	7	96	48	2
NMTAP	13	48	4
NMSTR	13	96	7
NMSV_	13	96	7	96	48	5
NMTAP	13	144	3
NMSTR	13	192	7
NMSI_	13	192	7	96	48	3
NMTAP	13	240	2
NMTAP	13	288	7
NMTAP	13	336	2
NMSTR	14	0	1
NMSI_	14	0	1	96	48	4
NMTAP	14	48	2
NMTAP	14	48	4
NMTAP	14	96	1
NMTAP	14	96	5
NMTAP	14	144	6
NMTAP	14	176	6
NMTAP	14	192	4
NMTAP	14	224	4
NMTAP	14	240	3
NMTAP	14	272	3
NMTAP	14	288	1
NMTAP	14	320	1
NMTAP	14	336	7
NMSTR	15	0	0
NMSI_	15	0	0	96	48	5
NMTAP	15	48	3
NMSTR	15	96	0
NMSI_	15	96	0	96	48	3
NMTAP	15	144	4
NMSTR	15	192	0
NMSI_	15	192	0	96	48	4
NMTAP	15	240	5
NMTAP	15	288	0
NMTAP	15	336	5
NMSTR	16	0	6
NMSI_	16	0	6	96	48	3
NMTAP	16	48	3
NMTAP	16	48	5
NMTAP	16	96	2
NMTAP	16	96	6
NMTAP	16	144	1
NMTAP	16	176	1
NMTAP	16	192	3
NMTAP	16	224	3
NMTAP	16	240	2
NMSTR	16	288	3
NMSCL	16	288	3	96	48	0
NMTAP	16	288	4
NMSTR	17	0	3
NMSCR	17	0	3	96	48	6
EXTAP	17	0	5
EXTAP	17	96	1
NMSTR	17	96	3
NMSI_	17	96	3	96	48	7
NMSTR	17	192	3
NMSI_	17	192	3	96	48	0
NMSI_	17	192	3	96	48	6
EXTAP	17	192	5
EXTAP	17	288	3
NMHLD	18	0	6	96
NMTAP	18	48	4
NMHLD	18	96	3	96
NMTAP	18	144	4
NMTAP	18	192	5
NMTAP	18	224	5
NMTAP	18	240	4
NMTAP	18	272	4
NMTAP	18	288	3
NMTAP	18	320	3
NMTAP	18	336	4
NMTAP	18	368	4
NMHLD	19	0	6	96
NMTAP	19	48	4
NMHLD	19	96	2	96
NMTAP	19	144	4
NMTAP	19	192	5
NMTAP	19	224	5
NMTAP	19	240	4
NMTAP	19	272	4
NMTAP	19	288	3
NMTAP	19	320	3
NMTAP	19	336	4
NMTAP	19	368	4
NMHLD	20	0	6	96
NMTAP	20	48	4
NMHLD	20	96	3	96
NMTAP	20	144	4
NMTAP	20	192	5
NMTAP	20	224	5
NMTAP	20	240	4
NMTAP	20	272	4
NMTAP	20	288	3
NMTAP	20	320	3
NMTAP	20	336	4
NMTAP	20	368	4
NMHLD	21	0	6	96
NMTAP	21	48	4
NMHLD	21	96	2	96
NMTAP	21	144	4
NMHLD	21	192	5	48
NMTAP	21	240	4
NMTAP	21	288	3
NMTAP	21	288	6
NMHLD	22	0	1	96
NMTAP	22	48	3
NMHLD	22	96	4	96
NMTAP	22	144	3
NMTAP	22	192	2
NMTAP	22	224	2
NMTAP	22	240	3
NMTAP	22	272	3
NMTAP	22	288	4
NMTAP	22	320	4
NMTAP	22	336	3
NMTAP	22	368	3
NMHLD	23	0	1	96
NMTAP	23	48	3
NMHLD	23	96	5	96
NMTAP	23	144	3
NMTAP	23	192	2
NMTAP	23	224	2
NMTAP	23	240	3
NMTAP	23	272	3
NMTAP	23	288	4
NMTAP	23	320	4
NMTAP	23	336	3
NMTAP	23	368	3
NMHLD	24	0	1	96
NMTAP	24	48	3
NMHLD	24	96	4	96
NMTAP	24	144	3
NMTAP	24	192	2
NMTAP	24	224	2
NMTAP	24	240	3
NMTAP	24	272	3
NMTAP	24	288	4
NMTAP	24	320	4
NMTAP	24	336	5
NMTAP	25	0	4
NMHLD	25	0	5	48
NMTAP	25	48	4
NMHLD	25	96	2	48
NMTAP	25	96	3
NMTAP	25	144	3
NMTAP	25	192	0
NMHLD	25	192	1	48
NMTAP	25	240	0
NMHLD	25	288	6	48
NMTAP	25	288	7
NMTAP	25	336	7
NMSTR	26	0	0
NMSCR	26	0	0	96	96	4
NMTAP	26	48	0
NMTAP	26	96	4
NMTAP	26	144	5
NMTAP	26	192	6
NMTAP	26	224	6
NMTAP	26	240	7
NMTAP	26	272	7
NMTAP	26	288	0
NMTAP	26	320	0
NMTAP	26	336	1
NMSTR	27	0	2
NMSCR	27	0	2	96	96	6
NMTAP	27	48	2
NMTAP	27	96	6
NMTAP	27	144	7
NMTAP	27	192	0
NMTAP	27	224	0
NMTAP	27	240	1
NMTAP	27	272	1
NMTAP	27	288	2
NMTAP	27	320	2
NMTAP	27	336	3
NMSTR	28	0	4
NMSCR	28	0	4	96	96	0
NMTAP	28	48	4
NMTAP	28	96	0
NMTAP	28	144	1
NMTAP	28	192	2
NMTAP	28	224	2
NMTAP	28	240	3
NMTAP	28	272	3
NMTAP	28	288	4
NMTAP	28	320	4
NMTAP	28	336	5
NMTAP	29	0	6
NMTAP	29	0	7
NMTAP	29	48	2
NMTAP	29	48	3
NMTAP	29	96	0
NMTAP	29	96	1
NMTAP	29	144	4
NMTAP	29	144	5
NMTAP	29	192	0
NMTAP	29	192	7
NMTAP	29	240	3
NMTAP	29	240	4
NMTAP	29	288	2
NMTAP	29	288	5
NMSTR	30	0	7
NMSCL	30	0	7	96	96	3
NMTAP	30	48	7
NMTAP	30	96	3
NMTAP	30	144	2
NMTAP	30	192	1
NMTAP	30	224	1
NMTAP	30	240	0
NMTAP	30	272	0
NMTAP	30	288	7
NMTAP	30	320	7
NMTAP	30	336	6
NMSTR	31	0	5
NMSCL	31	0	5	96	96	1
NMTAP	31	48	5
NMTAP	31	96	1
NMTAP	31	144	0
NMTAP	31	192	7
NMTAP	31	224	7
NMTAP	31	240	6
NMTAP	31	272	6
NMTAP	31	288	5
NMTAP	31	320	5
NMTAP	31	336	4
NMSTR	32	0	3
NMSCL	32	0	3	96	96	7
NMTAP	32	48	3
NMTAP	32	96	7
NMTAP	32	144	6
NMTAP	32	192	5
NMTAP	32	224	5
NMTAP	32	240	4
NMTAP	32	272	4
NMTAP	32	288	3
NMTAP	32	320	3
NMTAP	32	336	2
NMHLD	33	0	1	48
NMHLD	33	0	3	48
NMHLD	33	96	4	48
NMHLD	33	96	6	48
NMTAP	33	192	2
NMTAP	33	192	4
NMTAP	33	240	2
NMTAP	33	240	4
NMTAP	33	288	1
NMTAP	33	288	5
NMTAP	34	0	3
NMHLD	34	0	6	48
NMTAP	34	48	3
NMHLD	34	96	1	48
NMTAP	34	96	4
NMTAP	34	144	4
NMTAP	34	192	3
NMHLD	34	192	5	48
NMTAP	34	240	3
NMSTR	34	288	2
NMSCL	34	288	2	96	96	6
NMTAP	34	288	4
NMTAP	34	336	4
NMTAP	35	0	3
NMTAP	35	48	3
NMTAP	35	96	4
CNSLR	35	96	6	0	96	2
NMTAP	35	144	4
NMTAP	35	192	3
NMTAP	35	240	3
NMHLD	35	288	2	48
NMTAP	35	288	4
NMTAP	35	336	5
NMTAP	36	0	3
NMSTR	36	0	7
NMSI_	36	0	7	96	48	4
NMTAP	36	48	4
NMTAP	36	96	3
NMTAP	36	144	2
NMSTR	36	192	3
NMSI_	36	192	3	96	48	0
NMTAP	36	240	4
NMSTR	36	288	5
NMSUL	36	288	5	96	144	3
NMTAP	36	336	4
NMTAP	37	144	0
NMTAP	37	192	0
NMTAP	37	240	1
NMTAP	37	240	7
NMTAP	37	288	2
NMTAP	37	288	6
NMHLD	38	0	1	48
NMTAP	38	0	4
NMTAP	38	48	4
NMTAP	38	96	3
NMHLD	38	96	6	48
NMTAP	38	144	3
NMHLD	38	192	2	48
NMTAP	38	192	4
NMTAP	38	240	4
NMTAP	38	288	3
NMSTR	38	288	5
NMSI_	38	288	5	96	96	1
NMTAP	38	336	3
NMTAP	39	0	4
NMTAP	39	48	4
CNSI_	39	96	1	0	48	7
NMTAP	39	96	3
NMTAP	39	144	3
NMTAP	39	192	4
NMTAP	39	240	4
NMTAP	39	288	3
NMTAP	39	288	5
NMTAP	39	336	3
NMTAP	40	0	1
NMTAP	40	0	4
NMTAP	40	48	3
NMTAP	40	96	4
NMTAP	40	96	6
NMTAP	40	144	3
NMTAP	40	176	3
NMTAP	40	192	5
NMTAP	40	224	5
NMTAP	40	240	2
NMSTR	40	288	0
NMSCR	40	288	0	96	96	3
NMSTR	40	288	7
NMSCL	40	288	7	96	96	4
NMTAP	40	336	3
NMTAP	40	336	4
NMTAP	41	192	3
NMTAP	41	192	4
BRSTR	41	288	1
NMSI_	41	288	1	96	48	3
BRTAP	41	288	6
NMSTR	42	0	5
NMSLR	42	0	5	96	96	3
NMTAP	42	48	4
NMTAP	42	96	0
NMTAP	42	144	0
NMTAP	42	192	1
NMTAP	42	240	2
NMTAP	42	272	2
NMSTR	42	288	3
NMSI_	42	288	3	96	48	6
NMTAP	42	336	1
NMSTR	43	0	0
NMSI_	43	0	0	96	48	4
NMTAP	43	48	1
NMTAP	43	96	5
CNSI_	43	144	4	0	48	2
NMTAP	43	144	5
NMTAP	43	192	6
NMTAP	43	240	7
NMSTR	43	288	0
NMSI_	43	288	0	96	48	3
NMSTR	43	336	0
NMSI_	43	336	0	96	48	5
NMSTR	44	0	0
NMSI_	44	0	0	96	48	4
NMTAP	44	144	5
NMTAP	44	176	5
NMTAP	44	192	3
NMTAP	44	240	2
NMTAP	44	240	4
NMSTR	44	288	1
NMSI_	44	288	1	96	48	6
NMSTR	44	288	5
NMSI_	44	288	5	96	48	2
NMTAP	44	336	0
NMTAP	44	336	6
CNSI_	45	48	2	0	48	4
CNSI_	45	48	6	0	48	0
NMTAP	45	192	7
NMTAP	45	224	7
NMTAP	45	240	0
NMSTR	45	288	6
NMSI_	45	288	6	96	48	4
NMTAP	45	336	3
NMSTR	46	0	2
NMSLL	46	0	2	96	96	4
NMTAP	46	48	3
NMTAP	46	96	7
NMTAP	46	144	7
NMTAP	46	192	6
NMTAP	46	240	5
NMTAP	46	272	5
NMSTR	46	288	4
NMSI_	46	288	4	96	48	1
NMTAP	46	336	6
NMSTR	47	0	7
NMSI_	47	0	7	96	48	3
NMTAP	47	48	6
NMTAP	47	96	0
NMTAP	47	144	0
CNSI_	47	144	3	0	48	6
NMSTR	47	240	0
NMSI_	47	240	0	96	48	4
NMSTR	47	240	1
NMSI_	47	240	1	96	48	5
NMTAP	47	288	2
NMTAP	47	288	3
EXTAP	47	336	0
EXTAP	47	336	1
NMTAP	48	48	6
NMTAP	48	96	3
NMTAP	48	96	5
NMTAP	48	144	1
NMTAP	48	192	0
NMSTR	48	240	6
NMSI_	48	240	6	96	48	2
NMSTR	48	240	7
NMSI_	48	240	7	96	48	3
NMTAP	48	288	4
NMTAP	48	288	5
EXTAP	48	336	6
EXTAP	48	336	7
NMTAP	49	48	1
NMSTR	49	96	0
NMSUL	49	96	0	96	48	3
NMSTR	49	96	7
BRSUR	49	96	7	96	48	4
NMTAP	49	144	1
NMTAP	49	144	6
NMSTR	49	288	0
NMSXL	49	288	0	96	96	0
NMTAP	49	288	6
NMHLD	50	0	3	192
NMSTR	50	192	4
NMSI_	50	192	4	96	48	7
NMTAP	50	240	5
NMSTR	50	288	6
NMSUL	50	288	6	96	96	1
NMHLD	51	0	4	192
NMSTR	51	192	3
BRSI_	51	192	3	96	48	7
NMTAP	51	240	2
NMSTR	51	288	1
NMSXL	51	288	1	96	96	1
NMHLD	52	0	3	192
NMTAP	52	192	4
NMTAP	52	240	5
BRHLD	52	288	0	288
NMTAP	52	288	6
NMTTP	53	0	7	A	0	M1
NMTTP	53	0	7	D	0	M1
NMTTP	53	48	1	E	0	M1
NMTTP	53	48	1	A	0	M1
NMTTP	53	96	6	B	0	M1
NMTTP	53	96	6	E	0	M1
NMTTP	53	144	2	B	0	M1
NMTTP	53	144	2	A	0	M1
NMTTP	53	192	4	E	0	M1
NMTTP	53	192	4	A	0	M1
NMSTR	53	288	5
NMSXL	53	288	5	96	96	3
NMHLD	54	0	4	192
NMSTR	54	192	3
NMSUR	54	192	3	96	48	7
NMTAP	54	240	2
NMSTR	54	288	1
NMSXL	54	288	1	96	96	0
NMHLD	55	0	3	192
NMSTR	55	192	4
NMSXR	55	192	4	96	96	0
NMTAP	55	240	5
NMTAP	55	288	6
NMTAP	56	0	7
NMSTR	56	96	3
NMSCL	56	96	3	96	48	0
NMSTR	56	96	4
NMSCR	56	96	4	96	48	7
NMTAP	56	144	3
NMTAP	56	144	4
NMTAP	56	288	1
NMTAP	56	288	6
BRTAP	56	336	1
BRTAP	56	336	6
NMTAP	57	48	5
NMTAP	57	96	3
NMTAP	57	144	1
NMSTR	57	192	0
NMSCR	57	192	0	96	48	4
NMSTR	57	240	4
NMSCL	57	240	4	96	48	0
NMHLD	57	288	5	1632
NMSTR	59	288	3
NMSI_	59	288	3	96	48	1
NMSTR	60	96	4
NMSI_	60	96	4	96	48	6
NMSTR	60	288	3
NMSI_	60	288	3	96	48	1
NMTAP	61	192	3
NMHLD	61	288	2	1152
NMTTP	62	96	4	B	0	M1
NMTTP	62	96	4	E	0	M1
NMTTP	62	288	3	B	0	M1
NMTTP	62	288	4	E	0	M1
NMTTP	63	96	4	B	0	M1
NMTTP	63	96	4	E	0	M1
NMTTP	63	288	3	B	0	M1
NMTTP	63	288	4	E	0	M1
NMTTP	64	96	4	B	0	M1
NMTTP	64	96	4	E	0	M1
NMTTP	64	288	4	E	0	M1
NMSTR	65	0	3
NMSCL	65	0	3	96	48	0
NMSTR	65	0	5
NMSCR	65	0	5	96	48	0
NMTAP	65	32	3
NMTAP	65	32	5
NMTAP	65	64	3
NMTAP	65	64	5
NMSTR	65	192	0
NMSI_	65	192	0	96	48	3
NMSI_	65	192	0	96	48	5
EXTAP	65	288	0
NMSTR	66	0	2
NMSCL	66	0	2	96	48	7
NMSTR	66	0	4
NMSCR	66	0	4	96	48	7
NMTAP	66	32	2
NMTAP	66	32	4
NMTAP	66	64	2
NMTAP	66	64	4
EXTAP	66	192	7
BRSTR	66	288	2
NMSCR	66	288	2	96	48	4
BRTAP	66	288	6
NMTAP	66	336	1
NMTAP	67	0	2
NMSTR	67	0	7
NMSUL	67	0	7	96	48	3
NMTAP	67	48	6
NMSTR	67	96	1
NMSI_	67	96	1	96	48	7
NMTAP	67	96	7
NMTAP	67	144	2
NMTAP	67	192	1
NMSTR	67	192	4
NMSCR	67	192	4	96	48	7
NMTAP	67	240	3
NMSTR	67	288	2
NMSI_	67	288	2	96	48	5
NMTAP	67	288	4
NMTAP	67	336	1
NMTAP	68	0	2
NMSTR	68	0	6
NMSI_	68	0	6	96	48	0
NMTAP	68	48	7
NMSTR	68	96	3
NMSCL	68	96	3	96	48	0
NMTAP	68	96	6
NMTAP	68	144	4
NMTAP	68	192	3
NMSTR	68	192	5
NMSI_	68	192	5	96	48	2
NMTAP	68	240	4
NMSTR	68	288	0
BRSCR	68	288	0	96	48	3
NMTAP	68	288	5
NMSTR	68	336	0
BRSCL	68	336	0	96	48	5
NMSTR	69	0	0
BRSI_	69	0	0	96	48	4
NMTAP	69	144	6
NMSTR	69	192	7
NMSI_	69	192	7	96	48	4
NMTAP	69	240	6
NMSTR	69	288	1
NMSCR	69	288	1	96	96	6
NMTAP	69	288	7
NMTAP	69	336	0
NMTTP	70	0	0	C	1	M1
NMTAP	70	0	1
CNSV_	70	96	6	0	48	0
NMTAP	70	192	7
NMTAP	70	224	7
NMTAP	70	240	0
NMSTR	70	288	5
NMSCL	70	288	5	96	48	3
NMTAP	70	336	6
NMSTR	71	0	0
NMSUR	71	0	0	96	48	4
NMTAP	71	0	5
NMTAP	71	48	1
NMTAP	71	96	0
NMSTR	71	96	6
NMSI_	71	96	6	96	48	0
NMTAP	71	144	5
NMSTR	71	192	3
NMSCL	71	192	3	96	48	0
NMTAP	71	192	6
NMTAP	71	240	4
NMTAP	71	288	3
NMSTR	71	288	5
NMSI_	71	288	5	96	48	2
NMTAP	71	336	6
NMSTR	72	0	1
BRSI_	72	0	1	96	48	4
NMTAP	72	0	5
NMSTR	72	48	0
BRSI_	72	48	0	96	48	5
BRTAP	72	96	1
BRTAP	72	144	0
NMSTR	72	240	1
NMSCL	72	240	1	96	48	5
NMSTR	72	240	7
NMSI_	72	240	7	96	48	3
NMTAP	72	288	3
NMTAP	72	288	4
BRTAP	72	336	1
BRTAP	72	336	7
NMTAP	73	48	2
NMTAP	73	96	2
NMTAP	73	144	3
NMTAP	73	192	4
NMSTR	73	240	0
NMSI_	73	240	0	96	48	4
NMSTR	73	240	6
NMSCR	73	240	6	96	48	2
NMTAP	73	288	3
NMTAP	73	288	4
BRTAP	73	336	0
BRTAP	73	336	6
NMTAP	74	48	5
NMTAP	74	96	5
NMTAP	74	144	4
NMTAP	74	192	3
NMSTR	74	240	2
NMSCR	74	240	2	96	48	6
NMSTR	74	240	4
NMSI_	74	240	4	96	48	0
NMTAP	74	288	0
NMTAP	74	288	7
BRTAP	74	336	2
BRTAP	74	336	4
NMTAP	75	48	0
NMTAP	75	96	0
NMTAP	75	144	7
NMTAP	75	192	6
NMSTR	75	240	3
NMSI_	75	240	3	96	48	7
NMSTR	75	240	5
NMSCL	75	240	5	96	48	1
NMTAP	75	288	0
NMTAP	75	288	7
BRTAP	75	336	3
BRTAP	75	336	5
NMTAP	76	48	7
NMSTR	76	96	7
NMSI_	76	96	7	96	48	3
NMSTR	76	144	0
NMSI_	76	144	0	96	48	4
NMSTR	76	192	7
NMSI_	76	192	7	96	48	5
NMSTR	76	240	0
NMSI_	76	240	0	96	48	2
NMSTR	76	288	7
NMSI_	76	288	7	96	48	3
NMTAP	76	336	0
NMSTR	77	0	7
BRSF_	77	0	7	96	48	3
BRTAP	77	96	7

T_REC_TAP	422
T_REC_BRK	15
T_REC_XTP	10
T_REC_BXX	0
T_REC_HLD	66
T_REC_XHO	0
T_REC_BHO	1
T_REC_BXH	0
T_REC_STR	103
T_REC_BST	2
T_REC_XST	0
T_REC_XBS	0
T_REC_TTP	33
T_REC_THO	0
T_REC_SLD	99
T_REC_BSL	8
T_REC_ALL	759
T_NUM_TAP	568
T_NUM_BRK	26
T_NUM_HLD	66
T_NUM_SLD	99
T_NUM_ALL	759
T_JUDGE_TAP	585
T_JUDGE_HLD	157
T_JUDGE_SLD	107
T_JUDGE_ALL	849
TTM_EACHPAIRS	99
TTM_SCR_TAP	284000
TTM_SCR_BRK	67600
TTM_SCR_HLD	66000
TTM_SCR_SLD	148500
TTM_SCR_ALL	566100
TTM_SCR_S	546600
TTM_SCR_SS	563500
TTM_RAT_ACV	10046

