VERSION	0.00.00	1.04.00
FES_MODE	0
BPM_DEF	132.000	132.000	132.000	132.000
MET_DEF	4	4
RESOLUTION	384
CLK_DEF	384
COMPATIBLE_CODE	MA2

BPM	0	0	132.000
MET	0	0	4	4

NMTAP	2	0	4
NMHLD	2	48	5	720
NMTAP	2	144	4
NMTAP	2	240	4
NMTAP	2	336	4
NMTAP	3	48	3
NMTAP	3	144	3
NMTAP	3	240	3
NMTAP	3	336	3
NMTAP	4	0	3
NMHLD	4	48	2	720
NMTAP	4	144	3
NMTAP	4	240	3
NMTAP	4	336	3
NMTAP	5	48	4
NMTAP	5	144	4
NMTAP	5	240	4
NMTAP	5	336	4
NMTAP	6	0	4
NMHLD	6	48	5	720
NMTAP	6	144	4
NMTAP	6	240	4
NMTAP	6	336	4
NMTAP	7	48	3
NMTAP	7	144	3
NMTAP	7	240	3
NMTAP	7	336	3
NMTAP	8	0	3
NMHLD	8	48	2	288
NMTAP	8	144	3
NMTAP	8	240	3
NMTAP	8	336	3
NMSTR	9	0	3
NMSUR	9	0	3	96	144	4
NMTAP	10	0	0
NMTAP	10	0	7
NMTAP	10	48	6
NMHLD	10	96	4	48
NMHLD	10	96	5	48
NMTAP	10	192	3
NMTAP	10	240	3
NMTAP	10	288	4
NMTAP	10	336	4
NMHLD	11	0	1	96
NMTAP	11	48	0
NMHLD	11	96	7	96
NMTAP	11	144	0
NMHLD	11	192	1	96
NMTAP	11	240	0
NMTAP	11	288	7
NMTAP	12	0	0
NMTAP	12	0	7
NMTAP	12	48	1
NMHLD	12	96	2	48
NMHLD	12	96	3	48
NMTAP	12	192	4
NMTAP	12	240	4
NMTAP	12	288	3
NMTAP	12	336	3
NMHLD	13	0	6	96
NMTAP	13	48	7
NMHLD	13	96	0	96
NMTAP	13	144	7
NMHLD	13	192	6	96
NMTAP	13	240	7
NMTAP	13	288	0
NMTAP	14	0	0
NMTAP	14	0	7
NMTAP	14	48	6
NMHLD	14	96	3	48
NMHLD	14	96	5	48
NMTAP	14	192	2
NMTAP	14	240	2
NMTAP	14	288	4
NMTAP	14	336	4
NMHLD	15	0	2	96
NMTAP	15	48	0
NMHLD	15	96	6	96
NMTAP	15	144	0
NMHLD	15	192	2	96
NMTAP	15	240	0
NMTAP	15	288	6
NMTAP	16	0	0
NMTAP	16	0	7
NMTAP	16	48	1
NMHLD	16	96	2	48
NMHLD	16	96	4	48
NMTAP	16	192	5
NMTAP	16	240	5
NMTAP	16	288	3
NMTAP	16	336	3
EXTAP	17	0	2
EXTAP	17	0	4
EXTAP	17	96	4
EXTAP	17	96	6
EXTAP	17	192	0
EXTAP	17	192	1
EXTAP	17	288	6
EXTAP	17	288	7
NMHLD	18	0	5	96
NMTAP	18	48	4
NMHLD	18	96	3	96
NMTAP	18	144	4
NMHLD	18	192	6	96
NMTAP	18	240	4
NMHLD	18	288	3	96
NMTAP	18	336	4
NMHLD	19	0	5	96
NMTAP	19	48	4
NMHLD	19	96	2	96
NMTAP	19	144	4
NMHLD	19	192	6	96
NMTAP	19	240	4
NMHLD	19	288	3	96
NMTAP	19	336	4
NMHLD	20	0	5	96
NMTAP	20	48	4
NMHLD	20	96	3	96
NMTAP	20	144	4
NMHLD	20	192	6	96
NMTAP	20	240	4
NMHLD	20	288	3	96
NMTAP	20	336	5
NMSTR	21	0	7
NMSI_	21	0	7	96	48	3
NMSTR	21	96	1
NMSI_	21	96	1	96	48	5
NMTAP	21	192	6
NMTAP	21	240	6
NMTAP	21	288	4
NMHLD	22	0	2	96
NMTAP	22	48	3
NMHLD	22	96	4	96
NMTAP	22	144	3
NMHLD	22	192	1	96
NMTAP	22	240	3
NMHLD	22	288	4	96
NMTAP	22	336	3
NMHLD	23	0	2	96
NMTAP	23	48	3
NMHLD	23	96	5	96
NMTAP	23	144	3
NMHLD	23	192	1	96
NMTAP	23	240	3
NMHLD	23	288	4	96
NMTAP	23	336	3
NMHLD	24	0	2	96
NMTAP	24	48	3
NMHLD	24	96	4	96
NMTAP	24	144	3
NMHLD	24	192	1	96
NMTAP	24	240	3
NMHLD	24	288	4	96
NMTAP	24	336	2
NMTAP	25	0	0
NMTAP	25	48	0
NMTAP	25	96	5
NMTAP	25	144	5
NMTAP	25	192	3
NMTAP	25	240	3
NMTAP	25	288	2
NMHLD	25	288	6	288
NMTTP	26	0	6	E	0	M1
NMTTP	26	48	5	E	0	M1
NMTTP	26	96	4	E	0	M1
NMTTP	26	144	3	E	0	M1
NMHLD	26	192	2	192
NMTTP	26	240	1	E	0	M1
NMTTP	26	288	0	E	0	M1
NMTTP	26	336	7	E	0	M1
NMHLD	27	0	5	192
NMTTP	27	48	5	E	0	M1
NMTTP	27	96	4	E	0	M1
NMTTP	27	144	3	E	0	M1
NMHLD	27	192	1	192
NMTTP	27	240	0	E	0	M1
NMTTP	27	288	7	E	0	M1
NMTTP	27	336	6	E	0	M1
NMHLD	28	0	4	192
NMTTP	28	48	3	E	0	M1
NMTTP	28	96	2	E	0	M1
NMTTP	28	144	1	E	0	M1
NMHLD	28	192	0	192
NMTTP	28	240	5	E	0	M1
NMTTP	28	288	6	E	0	M1
NMTTP	28	336	7	E	0	M1
NMSTR	29	0	7
NMSCL	29	0	7	96	48	4
NMSTR	29	96	2
NMSCL	29	96	2	96	48	7
NMSTR	29	192	5
NMSCL	29	192	5	96	48	2
NMHLD	29	288	1	288
NMTTP	30	0	2	E	0	M1
NMTTP	30	48	3	E	0	M1
NMTTP	30	96	4	E	0	M1
NMTTP	30	144	5	E	0	M1
NMHLD	30	192	5	192
NMTTP	30	240	7	E	0	M1
NMTTP	30	288	0	E	0	M1
NMTTP	30	336	1	E	0	M1
NMHLD	31	0	2	192
NMTTP	31	48	3	E	0	M1
NMTTP	31	96	4	E	0	M1
NMTTP	31	144	5	E	0	M1
NMHLD	31	192	6	192
NMTTP	31	240	0	E	0	M1
NMTTP	31	288	1	E	0	M1
NMTTP	31	336	2	E	0	M1
NMHLD	32	0	3	192
NMTTP	32	48	5	E	0	M1
NMTTP	32	96	6	E	0	M1
NMTTP	32	144	7	E	0	M1
NMHLD	32	192	7	192
NMTTP	32	240	3	E	0	M1
NMTTP	32	288	2	E	0	M1
NMTTP	32	336	1	E	0	M1
NMHLD	33	0	0	288
NMTAP	33	96	3
NMTAP	33	144	3
NMTAP	33	192	4
NMTAP	33	240	4
NMTAP	33	288	5
NMSTR	34	0	6
NMSI_	34	0	6	96	48	3
NMSTR	34	96	2
NMSI_	34	96	2	96	48	7
NMTAP	34	192	5
NMTAP	34	240	5
NMTAP	34	288	3
NMTAP	34	336	3
NMTAP	35	0	7
NMTAP	35	48	7
NMTAP	35	96	2
NMTAP	35	144	2
NMTAP	35	192	1
NMTAP	35	192	3
NMSTR	35	288	0
NMSV_	35	288	0	96	48	5
NMSTR	35	288	1
NMSCR	35	288	1	96	48	4
NMTAP	35	336	0
NMTAP	35	336	1
NMSTR	36	96	6
NMSCL	36	96	6	96	48	3
NMSTR	36	96	7
NMSV_	36	96	7	96	48	2
NMTAP	36	144	6
NMTAP	36	144	7
NMSTR	36	288	0
NMSV_	36	288	0	96	48	5
NMSTR	36	288	1
NMSCR	36	288	1	96	48	4
NMTAP	36	336	0
NMTAP	36	336	1
NMTAP	37	96	6
NMTAP	37	96	7
NMTAP	37	192	4
NMTAP	37	192	5
NMTAP	37	240	4
NMTAP	37	240	5
NMTAP	37	288	3
NMTAP	37	288	6
NMSTR	38	0	1
NMSI_	38	0	1	96	48	4
NMSTR	38	96	5
NMSI_	38	96	5	96	48	0
NMTAP	38	192	2
NMTAP	38	240	2
NMTAP	38	288	4
NMTAP	38	336	4
NMTAP	39	0	0
NMTAP	39	48	0
NMTAP	39	96	5
NMTAP	39	144	5
NMTAP	39	192	4
NMTAP	39	192	6
NMTAP	39	288	5
NMHLD	39	336	5	48
NMTAP	40	0	7
NMHLD	40	48	7	48
NMTAP	40	96	0
NMHLD	40	144	0	48
NMTAP	40	192	2
NMTAP	40	240	2
NMSTR	40	288	3
NMSCL	40	288	3	96	96	0
NMSTR	40	288	4
NMSCR	40	288	4	96	96	7
NMTAP	40	336	3
NMTAP	40	336	4
BRTAP	41	192	0
BRTAP	41	192	7
NMSTR	41	288	1
NMSI_	41	288	1	96	48	4
NMTAP	41	288	6
NMSTR	42	0	7
NMSCL	42	0	7	96	96	2
NMTAP	42	48	7
NMTAP	42	96	1
NMHLD	42	144	1	96
EXTAP	42	240	3
EXTAP	42	288	1
EXSTR	42	288	3
NMSI_	42	288	3	96	48	7
NMSTR	43	0	0
NMSCR	43	0	0	96	96	5
NMTAP	43	48	0
NMTAP	43	96	7
NMHLD	43	144	7	96
NMTAP	43	240	4
NMTAP	43	288	4
NMSTR	44	0	6
NMSCR	44	0	6	96	48	1
NMTAP	44	48	6
NMSTR	44	96	2
NMSCR	44	96	2	96	48	5
NMTAP	44	144	2
NMSTR	44	192	6
NMSCR	44	192	6	96	48	1
NMTAP	44	240	6
NMSTR	44	288	2
NMSXR	44	288	2	96	192	4
NMTAP	44	336	2
NMTAP	45	0	5
NMTAP	45	192	6
NMSTR	45	288	7
NMSI_	45	288	7	96	48	3
NMTAP	45	336	7
NMSTR	46	0	0
NMSCR	46	0	0	96	96	5
NMTAP	46	48	0
NMTAP	46	96	6
NMHLD	46	144	6	96
EXTAP	46	240	4
EXSTR	46	288	4
NMSI_	46	288	4	96	48	0
EXTAP	46	288	6
NMTAP	47	0	7
NMTAP	47	48	7
EXTAP	47	96	0
EXTAP	47	96	6
EXTAP	47	144	1
EXTAP	47	144	5
NMSTR	47	240	0
NMSI_	47	240	0	96	48	4
NMSTR	47	240	1
NMSI_	47	240	1	96	48	3
EXTAP	47	336	0
EXTAP	47	336	1
NMTAP	48	48	5
NMTAP	48	96	5
NMTAP	48	144	4
NMTAP	48	192	6
NMSTR	48	240	6
NMSI_	48	240	6	96	48	4
NMSTR	48	240	7
NMSI_	48	240	7	96	48	3
EXTAP	48	336	6
EXTAP	48	336	7
NMTAP	49	48	2
NMSTR	49	96	2
NMSCR	49	96	2	96	48	5
NMHLD	49	192	6	96
NMTAP	49	288	4
NMTAP	50	0	5
NMTAP	50	48	5
NMSTR	50	96	0
NMSXL	50	96	0	96	96	0
NMTAP	50	144	0
NMTAP	50	192	4
NMTAP	50	288	5
NMTAP	51	0	6
NMTAP	51	48	6
NMTAP	51	96	4
NMTAP	51	144	3
NMSTR	51	192	2
NMSCR	51	192	2	96	48	5
NMTAP	51	240	2
NMTAP	51	288	6
NMTAP	52	0	7
NMTAP	52	48	7
NMTAP	52	96	0
NMTAP	52	144	1
NMSTR	52	192	2
BRSI_	52	192	2	96	48	7
NMSTR	52	192	5
BRSI_	52	192	5	96	48	0
NMTAP	52	240	2
NMTAP	52	240	5
NMTAP	53	0	6
NMTAP	53	48	4
NMTAP	53	96	3
NMTAP	53	144	1
NMTAP	53	192	6
NMTAP	53	240	4
NMTAP	53	288	3
NMTAP	53	336	1
NMSTR	54	0	0
NMSCL	54	0	0	96	48	5
NMSCR	54	0	0	96	48	3
NMTAP	54	48	0
NMSTR	54	192	7
NMSCL	54	192	7	96	48	4
NMSCR	54	192	7	96	48	2
NMTAP	54	240	7
NMSTR	55	0	0
NMSCR	55	0	0	96	48	3
NMSTR	55	0	4
NMSCR	55	0	4	96	48	7
NMTAP	55	48	0
NMTAP	55	48	4
NMSTR	55	192	3
NMSCL	55	192	3	96	48	0
NMSTR	55	192	7
NMSCL	55	192	7	96	48	4
NMTAP	55	240	3
NMTAP	55	240	7
NMSTR	56	0	0
NMSI_	56	0	0	96	48	3
NMSI_	56	0	0	96	48	4
NMTAP	56	0	4
NMTAP	56	192	2
NMTAP	56	192	5
NMTAP	56	288	1
NMTAP	56	288	6
NMTAP	56	336	1
NMHLD	56	336	6	96
NMTAP	57	48	4
NMTAP	57	96	3
NMTAP	57	144	2
NMTAP	57	192	1
NMSTR	57	192	7
NMSI_	57	192	7	96	48	3
NMTAP	57	288	2
NMHLD	58	0	1	768
NMTAP	59	96	4
NMTAP	59	288	4
NMHLD	60	0	6	768
NMTAP	60	96	4
NMTAP	60	288	4
NMTAP	61	96	3
NMTAP	61	288	3
NMHLD	62	0	2	384
NMTTP	62	96	3	E	0	M1
NMTTP	62	288	4	E	0	M1
NMHLD	63	0	5	384
NMTTP	63	96	5	E	0	M1
NMTTP	63	288	4	E	0	M1
NMHLD	64	0	2	288
NMTTP	64	96	3	E	0	M1
NMTTP	64	288	4	E	0	M1
NMTAP	65	0	3
NMTAP	65	0	5
NMTAP	65	32	3
NMTAP	65	32	5
NMHLD	65	64	3	224
NMHLD	65	64	5	128
BRTAP	66	0	2
BRTAP	66	0	4
BRTAP	66	32	2
BRTAP	66	32	4
BRHLD	66	64	2	128
BRHLD	66	64	4	128
NMSTR	66	288	7
NMSI_	66	288	7	96	48	3
NMSTR	67	0	1
NMSCR	67	0	1	96	48	4
NMTAP	67	48	1
NMSTR	67	96	6
NMSCR	67	96	6	96	48	1
NMTAP	67	144	6
NMTAP	67	192	3
NMTAP	67	240	3
NMTAP	67	288	7
NMTAP	67	336	7
NMSTR	68	0	6
NMSCL	68	0	6	96	48	3
NMTAP	68	48	6
NMSTR	68	96	1
NMSCL	68	96	1	96	48	6
NMTAP	68	144	1
NMTAP	68	192	4
NMTAP	68	240	4
NMTAP	68	288	0
NMTAP	68	336	0
NMTAP	69	0	1
NMTAP	69	0	7
NMTAP	69	48	2
NMTAP	69	48	6
NMTAP	69	96	3
NMTAP	69	96	5
NMTAP	69	144	0
NMTAP	69	144	6
NMTAP	69	192	1
NMTAP	69	192	5
NMTAP	69	240	2
NMTAP	69	240	4
NMSTR	69	288	1
NMSCL	69	288	1	96	96	6
NMSTR	69	288	5
NMSCL	69	288	5	96	96	2
NMTAP	69	336	1
NMTAP	69	336	5
NMTAP	70	192	7
NMTAP	70	240	7
NMSTR	70	288	0
NMSI_	70	288	0	96	48	4
NMTAP	70	336	0
NMSTR	71	0	6
NMSCL	71	0	6	96	48	3
NMTAP	71	48	6
NMSTR	71	96	1
NMSCL	71	96	1	96	48	6
NMTAP	71	144	1
NMTAP	71	192	4
NMTAP	71	240	4
NMTAP	71	288	0
NMTAP	71	336	0
BXSTR	72	0	1
BRSI_	72	0	1	96	48	5
BXSTR	72	48	7
BRSI_	72	48	7	96	48	3
NMSTR	72	240	0
NMSI_	72	240	0	96	48	4
NMSTR	72	240	1
NMSI_	72	240	1	96	48	3
NMTAP	72	336	0
NMTAP	72	336	1
NMTAP	73	48	5
NMTAP	73	96	5
NMTAP	73	144	4
NMTAP	73	192	6
NMSTR	73	240	6
NMSI_	73	240	6	96	48	4
NMSTR	73	240	7
NMSI_	73	240	7	96	48	3
NMTAP	73	336	6
NMTAP	73	336	7
NMTAP	74	48	2
NMTAP	74	96	2
NMTAP	74	144	3
NMTAP	74	192	1
NMSTR	74	240	0
NMSI_	74	240	0	96	48	5
NMSTR	74	240	1
NMSI_	74	240	1	96	48	4
BXTAP	74	336	0
BXTAP	74	336	1
NMTAP	75	48	6
NMTAP	75	96	6
NMTAP	75	144	4
NMTAP	75	192	5
NMSTR	75	240	6
NMSI_	75	240	6	96	48	3
NMSTR	75	240	7
NMSI_	75	240	7	96	48	2
BXTAP	75	336	6
BXTAP	75	336	7
NMTAP	76	48	0
NMSTR	76	96	7
NMSCL	76	96	7	96	48	4
NMTAP	76	144	7
NMSTR	76	192	3
NMSCL	76	192	3	96	48	0
NMTAP	76	240	3
NMSTR	76	288	4
BRSI_	76	288	4	96	48	7
NMTAP	76	336	4
BRSTR	77	0	0
NMSI_	77	0	0	96	48	4
BXTAP	77	96	0
BXTAP	77	96	7

T_REC_TAP	279
T_REC_BRK	6
T_REC_XTP	20
T_REC_BXX	6
T_REC_HLD	73
T_REC_XHO	0
T_REC_BHO	2
T_REC_BXH	0
T_REC_STR	65
T_REC_BST	1
T_REC_XST	2
T_REC_XBS	2
T_REC_TTP	44
T_REC_THO	0
T_REC_SLD	68
T_REC_BSL	5
T_REC_ALL	573
T_NUM_TAP	410
T_NUM_BRK	22
T_NUM_HLD	73
T_NUM_SLD	68
T_NUM_ALL	573
T_JUDGE_TAP	425
T_JUDGE_HLD	264
T_JUDGE_SLD	73
T_JUDGE_ALL	762
TTM_EACHPAIRS	71
TTM_SCR_TAP	205000
TTM_SCR_BRK	57200
TTM_SCR_HLD	73000
TTM_SCR_SLD	102000
TTM_SCR_ALL	437200
TTM_SCR_S	421950
TTM_SCR_SS	435000
TTM_RAT_ACV	10050

