VERSION	0.00.00	1.04.00
FES_MODE	0
BPM_DEF	132.000	132.000	132.000	132.000
MET_DEF	4	4
RESOLUTION	384
CLK_DEF	384
COMPATIBLE_CODE	MA2

BPM	0	0	132.000
MET	0	0	4	4

NMHLD	2	0	3	2784
NMTAP	6	96	4
NMTAP	6	288	4
NMTAP	7	96	4
NMTAP	7	288	4
NMTAP	8	96	4
NMTAP	8	288	4
NMTAP	9	96	4
EXTAP	9	192	3
EXTAP	9	192	4
EXTAP	9	288	2
EXTAP	9	288	5
BRTAP	10	0	2
NMTAP	10	96	2
NMTAP	10	96	3
NMTAP	10	192	5
NMTAP	10	288	4
NMTAP	10	288	5
NMTAP	11	0	2
NMTAP	11	96	1
NMTAP	11	96	3
NMTAP	11	192	0
NMTAP	11	240	0
NMTAP	11	288	0
NMTAP	11	288	7
NMTAP	12	0	5
NMTAP	12	96	4
NMTAP	12	96	5
NMTAP	12	192	2
NMTAP	12	288	2
NMTAP	12	288	3
NMTAP	13	0	5
NMTAP	13	96	4
NMTAP	13	96	6
NMTAP	13	192	7
NMTAP	13	240	7
NMTAP	13	288	0
NMTAP	13	288	7
NMTAP	14	0	2
NMTAP	14	96	1
NMTAP	14	96	3
NMTAP	14	192	5
NMTAP	14	288	4
NMTAP	14	288	6
NMTAP	15	0	2
NMTAP	15	96	1
NMTAP	15	96	3
NMTAP	15	192	1
NMTAP	15	240	1
NMTAP	15	288	0
NMTAP	15	288	1
NMTAP	16	0	2
NMTAP	16	96	1
NMTAP	16	96	3
NMTAP	16	192	5
NMTAP	16	288	4
NMTAP	16	288	6
EXTAP	17	0	6
EXTAP	17	0	7
EXTAP	17	96	0
EXTAP	17	96	1
EXTAP	17	192	2
EXTAP	17	192	5
EXTAP	17	288	3
EXTAP	17	288	4
NMSTR	18	0	2
NMSI_	18	0	2	96	96	4
NMTAP	18	192	5
NMTAP	18	288	5
NMSTR	19	0	6
NMSI_	19	0	6	96	96	3
NMTAP	19	192	2
NMTAP	19	288	2
NMSTR	20	0	1
NMSI_	20	0	1	96	96	4
NMTAP	20	192	5
NMTAP	20	288	5
NMTAP	21	0	4
NMTAP	21	0	6
NMTAP	21	96	4
NMTAP	21	96	6
NMTAP	21	192	5
NMTAP	21	288	4
NMTAP	21	288	6
NMSTR	22	0	5
NMSI_	22	0	5	96	96	2
NMTAP	22	192	1
NMTAP	22	288	1
NMTAP	22	288	3
NMSTR	23	0	2
NMSI_	23	0	2	96	96	5
NMTAP	23	192	6
NMTAP	23	288	4
NMTAP	23	288	6
NMSTR	24	0	5
NMSCL	24	0	5	96	96	2
NMTAP	24	192	1
NMHLD	24	288	1	288
NMTAP	25	0	0
NMTAP	25	96	0
NMTAP	25	192	7
NMTAP	25	288	1
NMTAP	25	288	7
NMSTR	26	0	2
NMSI_	26	0	2	96	96	4
NMTAP	26	192	5
NMTAP	26	240	5
NMTAP	26	288	4
NMTAP	26	288	5
NMSTR	27	0	6
NMSI_	27	0	6	96	96	3
NMTAP	27	192	2
NMTAP	27	240	2
NMTAP	27	288	2
NMTAP	27	288	3
NMSTR	28	0	1
NMSI_	28	0	1	96	96	5
NMTAP	28	192	6
NMTAP	28	240	6
NMTAP	28	288	4
NMTAP	28	288	6
NMHLD	29	0	5	96
NMHLD	29	96	7	96
NMHLD	29	192	6	96
NMTAP	29	288	4
NMSTR	30	0	5
NMSI_	30	0	5	96	96	0
NMTAP	30	192	1
NMTAP	30	240	1
NMTAP	30	288	0
NMTAP	30	288	1
NMSTR	31	0	2
NMSI_	31	0	2	96	96	7
NMTAP	31	192	6
NMTAP	31	240	6
NMTAP	31	288	6
NMTAP	31	288	7
NMSTR	32	0	5
NMSCL	32	0	5	96	96	2
NMSTR	32	192	1
NMSUR	32	192	1	96	96	5
NMTAP	33	0	6
NMTAP	33	48	6
NMTAP	33	96	6
NMTAP	33	96	7
NMTAP	33	192	0
NMTAP	33	192	5
NMTTP	34	0	1	E	0	M1
NMTTP	34	96	0	C	0	M1
NMTTP	34	192	5	E	0	M1
NMTTP	34	288	4	E	0	M1
NMTTP	34	288	6	E	0	M1
NMTTP	35	0	7	E	0	M1
NMTTP	35	96	0	C	0	M1
NMTTP	35	192	3	E	0	M1
NMTAP	35	288	1
NMHLD	36	0	1	96
NMHLD	36	0	3	96
NMHLD	36	192	2	96
NMHLD	36	192	4	96
NMTAP	37	0	1
NMHLD	37	0	3	96
NMTAP	37	96	1
NMTAP	37	192	2
NMTAP	37	240	2
NMTAP	37	288	3
NMTTP	38	0	1	E	0	M1
NMTTP	38	96	0	C	0	M1
NMTTP	38	192	5	E	0	M1
NMTTP	38	288	4	E	0	M1
NMTTP	38	288	6	E	0	M1
NMTTP	39	0	7	E	0	M1
NMTTP	39	96	0	C	0	M1
NMTTP	39	192	2	E	0	M1
NMTTP	39	192	4	E	0	M1
NMTTP	39	288	1	E	0	M1
EXTAP	40	0	0
EXTAP	40	48	0
EXTAP	40	96	0
NMTAP	40	192	1
NMTAP	40	192	7
NMSTR	40	288	2
NMSCL	40	288	2	96	96	7
NMSTR	40	288	6
NMSCL	40	288	6	96	96	3
EXTAP	41	192	0
EXTAP	41	192	4
NMTAP	42	0	2
NMTAP	42	48	2
NMTAP	42	96	3
NMHLD	42	144	1	96
NMTAP	42	240	0
NMTAP	42	288	0
NMTAP	43	0	7
NMTAP	43	48	7
NMTAP	43	96	0
NMHLD	43	144	6	96
NMTAP	43	240	5
NMTAP	43	288	5
NMSTR	44	0	6
NMSI_	44	0	6	96	48	3
NMSTR	44	0	7
NMSI_	44	0	7	96	48	3
NMSTR	44	192	0
NMSI_	44	192	0	96	48	4
NMSTR	44	192	1
NMSI_	44	192	1	96	48	4
EXTAP	45	0	6
EXTAP	45	0	7
EXTAP	45	96	0
EXTAP	45	96	5
NMTAP	45	192	2
NMTAP	45	192	4
NMTAP	45	240	2
NMTAP	45	240	4
NMTAP	45	288	2
NMTAP	45	288	4
NMTAP	46	0	5
NMTAP	46	48	5
NMTAP	46	96	4
NMHLD	46	144	6	96
NMTAP	46	240	7
NMTAP	46	288	7
NMTAP	47	0	0
NMTAP	47	48	0
NMTAP	47	96	7
NMTAP	47	144	1
EXTAP	47	240	2
EXTAP	47	240	3
EXHLD	47	336	1	96
NMTAP	48	48	3
NMHLD	48	96	3	96
NMTAP	48	192	4
EXTAP	48	288	6
EXHLD	48	336	6	96
NMTAP	49	48	4
NMTAP	49	96	4
NMHLD	49	192	3	192
NMTAP	49	192	5
BRTAP	50	0	7
NMTAP	50	96	6
NMTAP	50	192	6
NMTAP	50	192	7
NMHLD	50	288	0	384
NMSTR	50	288	5
NMSCL	50	288	5	96	96	2
EXTAP	51	192	3
EXTAP	51	288	3
NMTAP	52	0	0
NMTAP	52	96	1
NMTAP	52	192	0
NMTAP	52	192	1
NMSTR	52	288	2
NMSCR	52	288	2	96	96	5
NMHLD	52	288	7	384
EXTAP	53	192	4
EXTAP	53	288	4
NMSTR	54	0	6
NMSI_	54	0	6	96	96	3
NMSTR	54	192	1
NMSI_	54	192	1	96	96	6
NMSTR	55	0	4
NMSI_	55	0	4	96	96	1
NMTAP	55	192	0
NMTAP	55	288	0
NMSTR	56	0	1
NMSCR	56	0	1	96	96	4
NMTAP	56	0	7
NMTAP	56	192	5
EXTAP	56	288	6
EXTAP	56	288	7
BXTAP	56	336	6
BXTAP	56	336	7
NMTAP	57	48	0
NMTAP	57	96	0
BXTAP	57	192	1
BXTAP	57	192	7
EXTAP	57	288	3
EXTAP	57	288	5
NMTHO	58	0	0	1152	C	0	M1
NMTTP	58	0	2	B	0	M1
NMTTP	58	0	6	B	0	M1
NMTAP	62	0	4
NMHLD	62	96	4	960
NMTAP	62	288	3
NMTAP	63	96	3
NMTAP	63	288	3
NMTAP	64	96	3
NMTAP	64	288	3
EXTAP	65	0	3
EXTAP	65	0	5
EXTAP	65	32	3
EXTAP	65	32	5
EXHLD	65	64	3	128
EXHLD	65	64	5	128
EXTAP	66	0	2
EXTAP	66	0	4
EXTAP	66	32	2
EXTAP	66	32	4
EXHLD	66	64	2	128
EXHLD	66	64	4	128
EXTAP	66	288	0
NMTAP	67	0	1
NMTAP	67	48	1
NMTAP	67	96	0
NMHLD	67	144	2	96
NMTAP	67	240	3
NMTAP	67	288	2
NMTAP	67	288	3
NMTAP	68	0	4
NMTAP	68	48	4
NMTAP	68	96	3
NMHLD	68	144	5	96
NMTAP	68	240	4
NMTAP	68	288	4
NMTAP	68	288	5
EXSTR	69	0	6
NMSI_	69	0	6	96	48	3
EXSTR	69	0	7
NMSI_	69	0	7	96	48	2
EXSTR	69	192	0
NMSI_	69	192	0	96	48	5
EXSTR	69	192	1
NMSI_	69	192	1	96	48	4
BXTAP	70	0	3
BXTAP	70	0	6
NMTAP	70	96	3
NMTAP	70	96	6
NMTAP	70	192	2
NMTAP	70	192	4
NMTAP	70	240	2
NMTAP	70	240	4
NMTAP	70	288	2
NMTAP	70	288	4
NMTAP	71	0	1
NMTAP	71	48	1
NMTAP	71	96	0
NMHLD	71	144	2	96
NMTAP	71	240	3
NMTAP	71	288	2
NMTAP	71	288	3
BRTAP	72	0	4
BRTAP	72	0	5
BRTAP	72	96	6
BRTAP	72	96	7
EXTAP	72	192	0
EXTAP	72	192	1
EXTAP	72	288	2
EXHLD	72	336	2	96
NMTAP	73	48	4
NMHLD	73	96	4	96
NMTAP	73	192	5
EXTAP	73	288	6
EXTAP	73	288	7
EXHLD	73	336	6	96
EXTAP	73	336	7
NMTAP	74	48	4
NMHLD	74	96	4	96
NMTAP	74	192	3
EXTAP	74	288	2
EXTAP	74	288	5
EXHLD	74	336	2	144
EXTAP	74	336	5
NMTAP	75	48	3
NMTAP	75	96	3
NMTAP	75	192	1
NMTAP	75	192	4
EXTAP	75	288	6
EXTAP	75	288	7
EXTAP	75	336	6
EXTAP	75	336	7
NMTAP	76	48	0
NMTAP	76	48	1
NMTAP	76	96	0
NMTAP	76	96	1
NMTAP	76	192	0
NMTAP	76	192	7
BXHLD	76	288	1	96
BXHLD	76	288	6	96
NMTTP	77	96	0	C	1	M1
NMTTP	77	96	2	B	0	M1
NMTTP	77	96	3	B	0	M1
NMTTP	77	96	4	B	0	M1
NMTTP	77	96	5	B	0	M1

T_REC_TAP	200
T_REC_BRK	6
T_REC_XTP	54
T_REC_BXX	6
T_REC_HLD	23
T_REC_XHO	9
T_REC_BHO	0
T_REC_BXH	2
T_REC_STR	25
T_REC_BST	0
T_REC_XST	4
T_REC_XBS	0
T_REC_TTP	25
T_REC_THO	1
T_REC_SLD	29
T_REC_BSL	0
T_REC_ALL	384
T_NUM_TAP	308
T_NUM_BRK	14
T_NUM_HLD	33
T_NUM_SLD	29
T_NUM_ALL	384
T_JUDGE_TAP	320
T_JUDGE_HLD	189
T_JUDGE_SLD	29
T_JUDGE_ALL	538
TTM_EACHPAIRS	87
TTM_SCR_TAP	154000
TTM_SCR_BRK	36400
TTM_SCR_HLD	33000
TTM_SCR_SLD	43500
TTM_SCR_ALL	266900
TTM_SCR_S	257550
TTM_SCR_SS	265500
TTM_RAT_ACV	10052

