VERSION	0.00.00	1.04.00
FES_MODE	0
BPM_DEF	177.000	177.000	177.000	177.000
MET_DEF	4	4
RESOLUTION	384
CLK_DEF	384
COMPATIBLE_CODE	MA2

BPM	0	0	177.000
MET	0	0	4	4
MET	1	0	4	6
MET	2	192	4	4

NMTAP	1	0	0
NMTAP	1	0	1
NMTAP	1	64	3
NMTAP	1	64	4
NMTAP	1	128	6
NMTAP	1	128	7
NMTAP	1	192	1
NMTAP	1	192	2
NMTAP	1	256	4
NMTAP	1	256	5
NMTAP	1	320	0
NMTAP	1	320	7
NMTTP	2	96	3	B	0	M1
NMTTP	2	96	3	A	0	M1
NMTTP	2	96	4	B	0	M1
NMTTP	2	96	4	A	0	M1
NMSTR	2	192	1
NMSI_	2	192	1	96	32	7
NMSTR	2	288	6
NMSI_	2	288	6	96	32	4
NMHLD	3	0	3	144
NMTAP	3	144	4
NMTAP	3	192	3
NMSTR	3	240	2
NMSI_	3	240	2	96	32	4
NMTAP	3	336	5
NMTAP	4	48	7
NMTAP	4	96	6
NMTAP	4	144	0
NMTAP	4	144	5
NMTAP	4	240	2
NMTAP	4	264	3
NMSTR	4	288	1
NMSCR	4	288	1	96	48	4
NMHLD	5	0	6	144
NMTAP	5	144	4
NMTAP	5	240	3
NMTAP	5	256	4
NMTAP	5	272	2
NMTAP	5	288	3
NMTAP	5	336	1
NMTAP	6	0	2
EXTAP	6	48	4
EXTAP	6	96	3
NMTAP	6	144	5
NMSTR	6	192	6
NMSI_	6	192	6	96	32	0
NMSTR	6	288	1
NMSI_	6	288	1	96	32	3
NMHLD	7	0	4	144
NMTAP	7	144	3
NMTAP	7	192	4
NMSTR	7	240	5
NMSI_	7	240	5	96	32	3
NMTAP	7	336	2
NMTAP	8	48	0
NMTAP	8	96	1
NMTAP	8	144	2
NMTAP	8	144	7
NMTAP	8	240	5
NMTAP	8	264	4
NMSTR	8	288	6
NMSUL	8	288	6	96	72	1
NMHLD	9	0	0	144
NMTAP	9	144	7
NMTAP	9	240	3
NMTAP	9	240	4
NMTAP	9	288	3
NMTAP	9	288	4
NMTAP	9	336	3
NMTAP	9	336	4
NMTAP	10	0	3
NMTAP	10	0	4
NMTAP	10	48	2
NMTAP	10	48	5
BRTAP	10	96	1
BRTAP	10	96	6
NMSTR	10	192	0
NMSSL	10	192	0	96	96	4
NMTAP	10	240	0
NMTAP	10	288	7
NMTAP	10	336	6
NMHLD	11	0	5	96
NMTAP	11	96	4
NMTAP	11	144	5
NMTAP	11	192	3
NMTAP	11	240	4
NMTAP	11	288	2
NMTAP	11	336	2
NMTAP	12	0	1
NMTAP	12	0	3
NMTAP	12	96	4
NMTAP	12	144	3
NMTAP	12	192	5
NMTAP	12	240	5
NMTAP	12	288	4
NMTAP	12	288	6
NMTAP	13	0	0
NMTAP	13	0	7
NMSTR	13	48	1
NMSI_	13	48	1	96	32	3
NMTAP	13	48	6
NMTAP	13	144	4
NMTAP	13	192	5
NMTAP	13	240	6
NMTAP	13	288	3
NMTAP	13	336	2
NMTAP	14	0	1
NMTAP	14	48	7
NMTAP	14	96	0
NMTAP	14	96	6
NMTAP	14	144	1
NMTAP	14	144	5
NMTAP	14	192	2
NMTAP	14	240	2
NMSTR	14	288	3
NMSI_	14	288	3	96	32	5
NMTAP	14	336	1
NMTAP	15	0	3
NMTAP	15	96	6
NMTAP	15	144	6
NMTAP	15	192	3
NMTAP	15	240	5
NMSTR	15	288	4
NMSI_	15	288	4	96	48	0
NMTAP	15	336	6
NMTAP	16	0	4
NMTAP	16	96	1
NMTAP	16	96	7
NMTAP	16	144	2
NMTAP	16	144	6
NMTAP	16	192	3
NMSTR	16	192	5
NMSI_	16	192	5	96	32	3
NMSTR	16	288	1
NMSI_	16	288	1	96	48	5
NMTAP	17	0	7
NMTAP	17	48	7
NMTAP	17	96	0
NMTAP	17	96	6
NMTAP	17	144	1
NMTAP	17	192	3
NMTAP	17	240	2
NMTAP	17	288	5
NMTAP	17	336	4
NMTAP	18	0	6
NMTAP	18	48	0
NMTAP	18	72	7
NMTAP	18	96	0
NMTAP	18	192	5
NMTAP	18	192	6
NMHLD	18	240	5	48
NMHLD	18	240	6	48
NMTAP	19	0	1
NMTAP	19	0	2
NMHLD	19	48	1	48
NMHLD	19	48	2	48
NMTAP	19	192	0
NMSTR	19	192	7
NMSCL	19	192	7	96	48	4
NMSTR	19	288	0
NMSCR	19	288	0	96	48	3
NMTAP	19	288	7
NMTAP	20	0	0
NMTAP	20	0	7
NMTAP	20	84	5
EXTAP	20	96	4
NMTAP	20	192	2
NMTAP	20	192	3
NMTAP	20	240	3
NMTAP	20	288	1
NMTAP	21	0	4
NMTAP	21	0	5
NMTAP	21	48	4
NMTAP	21	96	6
NMTAP	21	192	1
NMTAP	21	192	3
NMTAP	21	240	3
NMSTR	21	288	2
NMSXL	21	288	2	96	120	3
NMSLL	21	288	2	96	120	3
EXTAP	22	192	0
EXTAP	22	192	6
NMTAP	22	288	5
NMTAP	22	336	4
NMTAP	23	0	6
NMTAP	23	48	2
NMTAP	23	96	3
NMTAP	23	144	1
EXTAP	23	192	0
NMTAP	23	192	6
NMTAP	23	240	5
EXTAP	23	288	3
EXTAP	23	288	4
NMTAP	23	336	2
NMTAP	24	0	1
EXTAP	24	0	7
NMTAP	24	96	5
NMTAP	24	120	4
NMTAP	24	144	5
NMTAP	24	192	2
NMTAP	24	192	3
NMTAP	24	240	2
NMTAP	24	288	4
NMTAP	24	288	5
NMTAP	24	336	5
NMTAP	25	0	1
NMTAP	25	0	3
NMTAP	25	48	2
NMTAP	25	96	4
NMTAP	25	96	6
NMTAP	25	144	5
NMTAP	25	192	0
NMTAP	25	192	3
NMTAP	25	240	2
NMTAP	25	288	4
NMTAP	25	288	7
NMTAP	25	336	5
NMSTR	26	0	3
NMSI_	26	0	3	96	32	1
NMTAP	26	0	4
NMTAP	26	96	3
NMSTR	26	96	7
NMSXR	26	96	7	96	144	3
BRTAP	26	192	0
NMTAP	26	192	7
NMTAP	27	0	1
NMTAP	27	24	3
NMTAP	27	48	2
NMTAP	27	72	4
NMTAP	27	96	3
NMTAP	27	120	5
NMTAP	27	144	4
NMTAP	27	168	6
BRSTR	27	192	5
NMSCR	27	192	5	96	144	3
NMTTP	27	336	0	C	1	M1
NMTTP	27	336	4	B	0	M1
NMTTP	27	336	4	E	0	M1
NMTTP	27	336	5	E	0	M1
NMTAP	28	192	3
NMTAP	28	192	4
NMTAP	28	240	1
NMTAP	28	264	0
NMTAP	28	288	1
NMTAP	28	336	2
NMTAP	28	336	7
NMTAP	29	0	4
NMTAP	29	0	5
NMTAP	29	48	6
NMTAP	29	96	1
NMTAP	29	96	3
NMTAP	29	144	0
NMTAP	29	192	4
NMTAP	29	192	6
NMTAP	29	240	3
NMSTR	29	240	7
NMSI_	29	240	7	96	48	3
NMTAP	29	336	0
NMSTR	30	0	2
NMSCL	30	0	2	96	48	7
NMTAP	30	48	4
NMTAP	30	96	2
NMTAP	30	192	4
NMTAP	30	192	5
NMTAP	30	240	6
NMTAP	30	264	7
NMTAP	30	288	6
NMTAP	30	336	0
NMTAP	30	336	5
NMTAP	31	0	2
NMTAP	31	0	3
NMTAP	31	48	1
NMTAP	31	96	4
NMTAP	31	96	6
NMTAP	31	144	7
NMTAP	31	192	1
NMTAP	31	192	3
NMSTR	31	240	0
NMSCR	31	240	0	96	96	6
NMTAP	31	240	4
NMTAP	31	336	0
NMTAP	31	336	6
NMTAP	32	48	7
BRTAP	32	96	1
BRTAP	32	96	5
NMSTR	32	192	2
NMSI_	32	192	2	96	32	0
NMTAP	32	192	4
NMTAP	32	288	2
NMSTR	32	288	3
NMSI_	32	288	3	96	48	7
NMTAP	33	0	3
NMSTR	33	0	4
NMSI_	33	0	4	96	32	6
NMTAP	33	96	0
NMTAP	33	96	4
NMTAP	33	192	1
NMTAP	33	192	7
NMTAP	33	240	2
NMTAP	33	288	3
NMTAP	33	288	4
NMTAP	33	336	5
NMTAP	34	0	0
NMSTR	34	0	6
NMSI_	34	0	6	96	32	0
NMSTR	34	96	2
NMSI_	34	96	2	96	32	4
NMTAP	34	96	6
NMTAP	34	192	2
NMSTR	34	192	6
NMSI_	34	192	6	96	48	2
NMSTR	34	288	1
NMSI_	34	288	1	96	32	7
NMTAP	34	288	6
NMTAP	35	0	1
NMSTR	35	0	5
NMSI_	35	0	5	96	32	3
NMSTR	35	96	1
NMSXR	35	96	1	96	144	5
NMTAP	35	96	5
NMTAP	35	192	1
NMTAP	35	192	5
BRTAP	35	336	7
NMTAP	36	48	5
NMTAP	36	72	4
NMTAP	36	96	5
NMTAP	36	144	3
NMTAP	36	144	6
NMTAP	36	192	0
NMTAP	36	192	7
NMTAP	36	240	2
NMTAP	36	264	3
NMTAP	36	288	2
NMTAP	36	336	1
NMTAP	36	336	4
NMTAP	37	0	0
NMTAP	37	0	7
NMTAP	37	48	6
NMTAP	37	96	4
NMTAP	37	96	5
NMTAP	37	144	3
NMTAP	37	192	2
NMTAP	37	192	4
NMHLD	37	240	1	96
NMTAP	37	240	5
NMTAP	37	336	0
NMTAP	38	0	1
NMTAP	38	48	2
NMSTR	38	96	3
NMSCL	38	96	3	96	96	5
NMTAP	38	144	4
NMTAP	38	192	5
NMSTR	38	288	4
NMSCR	38	288	4	96	96	2
NMTAP	39	0	2
NMSTR	39	96	3
NMSCL	39	96	3	96	96	5
NMTAP	39	192	5
NMHLD	39	288	4	96
NMSTR	40	0	0
NMSI_	40	0	0	96	48	4
NMTAP	40	48	1
NMTAP	40	48	7
EXTAP	40	96	0
NMSTR	40	192	3
NMSI_	40	192	3	96	48	1
NMSTR	40	192	7
NMSI_	40	192	7	96	48	3
NMTAP	40	240	3
NMTAP	40	240	7
NMSTR	41	0	4
NMSI_	41	0	4	96	48	0
NMSTR	41	0	6
NMSI_	41	0	6	96	48	4
NMTAP	41	48	4
NMTAP	41	48	6
NMSTR	41	192	7
NMSI_	41	192	7	96	48	3
NMTAP	41	240	7
NMSTR	41	288	6
NMSI_	41	288	6	96	32	4
NMTAP	41	336	6
NMTAP	42	0	0
EXTAP	42	96	1
EXTAP	42	96	3
NMSTR	42	192	0
NMSI_	42	192	0	96	48	4
NMSTR	42	192	4
NMSI_	42	192	4	96	48	6
NMTAP	42	240	0
NMTAP	42	240	4
NMSTR	43	0	1
NMSI_	43	0	1	96	48	3
NMSTR	43	0	3
NMSI_	43	0	3	96	48	7
NMTAP	43	48	1
NMTAP	43	48	3
NMSTR	43	192	0
NMSI_	43	192	0	96	48	4
NMTAP	43	240	0
NMSTR	43	288	1
NMSI_	43	288	1	96	32	3
NMTAP	43	336	1
NMTAP	44	0	7
EXTAP	44	96	4
EXTAP	44	96	6
NMTAP	44	192	3
NMSTR	44	192	7
NMSI_	44	192	7	96	48	3
NMTTP	44	288	0	C	1	M1
NMSTR	44	288	1
NMSI_	44	288	1	96	48	4
NMTTP	45	0	1	A	1	M1
NMSTR	45	0	5
NMSI_	45	0	5	96	48	0
NMTAP	45	96	3
NMTTP	45	96	5	A	1	M1
NMTAP	45	192	2
NMTAP	45	240	3
NMSTR	45	288	4
BRSXL	45	288	4	96	96	4
BRSXR	45	288	4	96	96	4
NMTAP	45	336	5
NMTAP	46	192	1
NMTAP	46	192	7
NMTAP	46	288	2
NMTAP	46	288	3
NMTAP	46	336	2
NMTAP	46	336	3
NMTAP	47	0	4
NMTAP	47	0	5
NMTAP	47	48	4
NMTAP	47	48	5
NMTAP	47	96	1
NMTAP	47	96	3
NMTAP	47	144	1
NMTAP	47	144	3
NMTAP	47	192	4
NMTAP	47	192	6
NMTAP	47	240	4
NMTAP	47	240	6
NMTAP	47	288	1
NMTAP	47	288	5
NMTAP	47	336	1
NMTAP	47	336	5
EXTAP	48	0	0
EXTAP	48	24	7
EXTAP	48	48	0
EXTAP	48	72	7
EXSTR	48	96	0
NMSSL	48	96	0	96	96	4
NMSSL	48	96	0	96	96	4
BRTAP	48	192	0
NMHLD	49	0	2	144
NMTAP	49	0	6
NMTAP	49	144	3
NMTAP	49	192	2
NMSTR	49	240	4
NMSI_	49	240	4	96	48	7
NMTAP	49	336	3
NMTAP	50	48	0
NMTAP	50	96	7
NMTAP	50	144	1
NMTAP	50	144	6
NMTAP	50	240	2
NMTAP	50	264	3
NMSTR	50	288	1
NMSUR	50	288	1	96	72	6
NMHLD	51	0	7	144
NMTAP	51	144	0
NMTAP	51	240	3
NMTAP	51	240	4
NMTAP	51	288	3
NMTAP	51	288	4
NMTAP	51	336	3
NMTAP	51	336	4
NMTAP	52	0	3
NMTAP	52	0	4
NMTAP	52	48	2
NMTAP	52	48	5
BRTAP	52	96	1
BRTAP	52	96	6
NMHLD	52	192	0	768
NMTTP	52	288	7	B	0	M1
NMTTP	52	288	7	A	0	M1
NMTTP	53	0	3	B	0	M1
NMTTP	53	0	3	A	0	M1
NMTTP	53	96	7	A	0	M1
NMTTP	53	192	3	A	0	M1
NMTTP	53	288	7	B	0	M1
NMTTP	54	0	3	B	0	M1
NMTTP	54	96	0	C	0	M1
NMHLD	54	192	6	768
NMTTP	54	288	0	C	0	M1
NMTTP	55	0	5	B	0	M1
NMTTP	55	96	1	B	0	M1
NMTTP	55	192	5	A	0	M1
NMTTP	55	288	1	A	0	M1
NMTAP	56	0	5
NMTAP	56	96	1
NMHLD	56	192	2	384
NMTAP	56	288	3
NMTAP	57	0	1
NMTTP	57	96	3	B	0	M1
NMHLD	57	192	4	384
NMTAP	57	288	5
NMTAP	58	0	3
NMTTP	58	96	5	B	0	M1
NMHLD	58	192	1	192
NMTTP	58	288	2	B	0	M1
NMTTP	58	288	2	A	0	M1
NMHLD	59	0	6	192
NMTTP	59	96	5	B	0	M1
NMTTP	59	96	5	A	0	M1
NMTAP	59	192	7
NMTAP	59	240	7
NMTAP	59	288	0
NMTAP	59	288	6
NMTAP	59	336	0
NMTAP	59	336	6
NMTAP	60	0	2
NMTAP	60	24	4
NMTAP	60	48	2
NMTAP	60	72	4
NMTAP	60	96	2
NMTAP	60	120	4
NMTAP	60	144	2
NMTAP	60	168	4
NMSTR	60	192	1
NMSI_	60	192	1	96	48	4
NMTAP	60	240	1
EXTAP	60	288	0
NMSTR	61	0	6
NMSI_	61	0	6	96	48	3
NMTAP	61	48	6
EXTAP	61	96	7
NMTAP	61	192	1
NMTAP	61	240	1
NMTAP	61	288	3
NMSTR	61	336	2
NMSI_	61	336	2	96	48	7
NMSTR	62	0	6
NMSI_	62	0	6	96	48	3
EXTAP	62	48	2
EXTAP	62	96	6
NMTAP	62	192	1
NMTAP	62	240	1
NMTAP	62	288	3
NMTAP	62	336	3
NMSTR	63	0	4
NMSI_	63	0	4	96	48	0
NMTAP	63	48	4
EXTAP	63	96	6
NMTAP	63	192	5
NMTAP	63	240	5
NMTAP	63	288	4
NMSTR	63	336	6
NMSI_	63	336	6	96	32	4
NMSTR	64	0	3
NMSI_	64	0	3	96	48	7
EXTAP	64	48	6
EXTAP	64	96	3
NMSTR	64	192	1
NMSUR	64	192	1	96	48	5
NMTAP	64	240	1
EXTAP	64	288	0
NMSTR	65	0	6
NMSUL	65	0	6	96	48	2
NMTAP	65	48	6
EXTAP	65	96	7
NMTAP	65	192	1
NMTAP	65	240	1
NMTAP	65	288	3
NMSTR	65	336	0
NMSCR	65	336	0	96	48	3
NMSTR	66	0	4
NMSCR	66	0	4	96	48	7
EXTAP	66	48	0
EXTAP	66	96	4
NMSTR	66	192	1
NMSI_	66	192	1	96	48	5
NMTAP	66	240	1
EXTAP	66	288	7
NMTAP	66	336	7
NMSTR	67	0	6
NMSI_	67	0	6	96	48	2
NMTAP	67	48	6
EXTAP	67	96	0
NMTAP	67	144	0
EXSTR	67	192	1
NMSI_	67	192	1	96	32	7
NMTAP	67	240	1
EXSTR	67	288	5
NMSI_	67	288	5	96	32	3
NMTAP	67	336	5
EXSTR	68	0	2
NMSI_	68	0	2	96	48	6
NMTAP	68	48	2
EXSTR	68	96	4
NMSF_	68	96	4	96	48	0
NMTAP	68	144	4
NMTTP	68	192	0	C	1	M1
NMTAP	68	288	2
NMTAP	68	288	6
EXTAP	69	0	0
NMTAP	69	24	1
NMTAP	69	48	2
NMTAP	69	72	3
NMTAP	69	96	7
NMTAP	69	120	6
NMTAP	69	144	5
NMTAP	69	168	4
EXTAP	69	192	1
NMTAP	69	216	2
NMTAP	69	240	3
NMTAP	69	264	4
EXTAP	69	288	5
NMTAP	69	312	6
NMTAP	69	336	7
NMTAP	69	360	0
EXHLD	70	0	1	96
EXHLD	70	0	5	96
NMSTR	70	192	2
NMSCL	70	192	2	96	288	6
NMTAP	70	192	4
NMTAP	70	288	4
NMTAP	71	0	4
NMTAP	71	96	4
NMTAP	71	192	4
CNSCR	71	192	6	0	288	2
NMTAP	71	288	4
NMTAP	72	0	4
NMTAP	72	96	4
NMTAP	72	192	3
NMSTR	72	192	5
NMSCR	72	192	5	96	288	1
NMTAP	72	288	3
NMTAP	73	0	3
NMTAP	73	96	3
CNSCL	73	192	1	0	288	5
NMTAP	73	192	3
NMTAP	73	288	3
NMTAP	74	0	3
NMTAP	74	96	3
NMHLD	74	192	4	96
NMTAP	74	288	3
NMHLD	75	0	2	96
NMTAP	75	96	3
NMHLD	75	192	5	96
NMTAP	75	288	4
NMSTR	76	0	6
NMSCL	76	0	6	96	96	3
NMSTR	76	96	3
NMSCL	76	96	3	96	96	0
NMSTR	76	192	0
NMSCL	76	192	0	96	96	5
NMSTR	76	288	5
NMSCL	76	288	5	96	96	2
NMSTR	77	0	2
NMSCL	77	0	2	96	96	7
NMSTR	77	96	7
NMSCL	77	96	7	96	96	4
NMTAP	77	192	4
NMTAP	77	288	3
NMTAP	78	0	2
NMTAP	78	96	1
NMTAP	78	96	3
NMHLD	78	192	2	96
NMTAP	78	192	4
NMTAP	78	288	4
NMHLD	78	336	3	144
NMTAP	79	0	4
NMTAP	79	96	4
NMTAP	79	192	3
NMHLD	79	192	5	96
NMTAP	79	288	3
NMHLD	79	336	4	144
NMTAP	80	0	3
NMTAP	80	96	3
NMSTR	80	192	1
NMSCR	80	192	1	96	48	3
NMTAP	80	288	4
NMSTR	81	0	6
NMSCL	81	0	6	96	48	4
NMTAP	81	96	3
NMTAP	81	192	2
NMTAP	81	192	3
NMTAP	81	288	4
NMTAP	81	288	5
NMTAP	82	0	3
NMTAP	82	48	3
NMSTR	82	96	4
NMSI_	82	96	4	96	48	7
NMSTR	82	192	3
NMSI_	82	192	3	96	48	0
NMSTR	82	288	4
NMSI_	82	288	4	96	32	6
NMSTR	83	0	3
NMSI_	83	0	3	96	32	1
NMTAP	83	96	4
NMTTP	83	192	0	B	0	M1
NMTTP	83	192	0	E	1	M1
BXTAP	83	192	5
BXTAP	83	288	1
NMTTP	83	288	4	B	0	M1
NMTTP	83	288	4	E	1	M1
NMTTP	84	0	0	C	1	M1
NMTTP	84	0	2	B	0	M1
NMTTP	84	0	2	A	0	M1
NMTTP	84	0	6	B	0	M1
NMTTP	84	0	6	A	0	M1
NMTAP	84	192	0
NMTAP	84	192	1
NMTAP	84	240	6
NMTAP	84	264	7
NMTAP	84	288	6
NMTAP	84	336	0
NMTAP	84	336	5
NMTAP	85	0	2
NMTAP	85	0	3
NMTAP	85	48	1
NMTAP	85	96	4
NMTAP	85	96	6
NMTAP	85	144	7
NMTAP	85	192	1
NMTAP	85	192	3
NMSTR	85	240	0
NMSI_	85	240	0	96	48	4
NMTAP	85	240	4
NMTAP	85	336	7
NMSTR	86	0	5
NMSCR	86	0	5	96	48	0
NMTAP	86	48	3
NMTAP	86	96	5
NMTAP	86	192	2
NMTAP	86	192	3
NMTAP	86	240	1
NMTAP	86	264	0
NMTAP	86	288	1
NMTAP	86	336	2
NMTAP	86	336	7
NMTAP	87	0	4
NMTAP	87	0	5
NMTAP	87	48	6
NMTAP	87	96	1
NMTAP	87	96	3
NMTAP	87	144	0
NMTAP	87	192	4
NMTAP	87	192	5
NMTAP	87	240	6
NMTAP	87	288	0
NMTAP	87	288	7
NMTAP	87	336	1
NMSTR	88	0	2
NMSV_	88	0	2	96	48	7
NMSTR	88	0	3
NMSCR	88	0	3	96	48	6
NMTAP	88	48	1
BRTAP	88	96	2
BRTAP	88	96	3
NMSTR	88	192	0
NMSI_	88	192	0	96	32	6
NMTAP	88	192	1
NMTAP	88	288	0
NMSTR	88	288	5
NMSI_	88	288	5	96	48	1
NMTAP	89	0	5
NMSTR	89	0	7
NMSV_	89	0	7	96	48	2
NMSV_	89	0	7	96	48	4
NMTAP	89	96	7
NMTAP	89	192	0
NMTAP	89	192	6
NMTAP	89	240	5
NMTAP	89	288	3
NMTAP	89	288	4
NMTAP	89	336	2
NMSTR	90	0	1
NMSCR	90	0	1	96	48	4
NMSTR	90	0	7
NMSCL	90	0	7	96	48	4
NMTAP	90	96	1
NMTAP	90	96	7
NMTAP	90	192	0
NMTAP	90	216	1
NMTAP	90	240	2
NMTAP	90	264	3
NMTAP	90	288	0
NMTAP	90	312	7
NMTAP	90	336	6
NMTAP	90	360	5
NMTAP	91	0	1
NMTAP	91	24	2
NMTAP	91	48	3
NMTAP	91	72	4
NMTAP	91	96	7
NMTAP	91	120	6
NMTAP	91	144	5
NMTAP	91	168	4
NMTAP	91	192	2
NMTAP	91	192	3
NMTAP	91	240	1
NMTAP	91	264	0
NMTAP	91	288	1
BRTAP	91	336	3
BRTAP	91	336	7
NMTAP	92	48	5
NMTAP	92	72	4
NMTAP	92	96	5
NMTAP	92	144	3
NMTAP	92	144	6
NMTAP	92	192	0
NMTAP	92	192	7
NMTAP	92	240	2
NMTAP	92	264	3
NMTAP	92	288	2
NMTAP	92	336	1
NMTAP	92	336	4
NMTAP	93	0	0
NMTAP	93	0	7
NMTAP	93	48	6
NMTAP	93	96	4
NMTAP	93	96	5
NMTAP	93	144	3
NMTAP	93	192	2
NMTAP	93	192	4
NMSTR	93	240	1
NMSI_	93	240	1	96	48	5
NMTAP	93	240	5
NMTAP	93	336	1
NMTAP	93	336	7
EXTAP	94	48	4
EXTAP	94	48	6
EXSTR	94	96	4
NMSCR	94	96	4	96	96	2
EXTAP	94	96	6
EXTAP	94	144	4
EXTAP	94	144	6
NMTAP	94	192	7
NMSTR	94	288	3
NMSCL	94	288	3	96	96	5
NMTAP	95	0	0
NMSTR	95	96	4
NMSCR	95	96	4	96	96	2
NMTAP	95	192	7
NMHLD	95	288	3	96
NMSTR	96	0	7
NMSI_	96	0	7	96	48	3
NMTAP	96	48	1
NMTAP	96	48	5
EXTAP	96	96	7
NMSTR	96	192	0
NMSI_	96	192	0	96	48	4
NMSTR	96	192	4
NMSI_	96	192	4	96	48	6
NMTAP	96	240	0
NMTAP	96	240	4
NMSTR	97	0	3
NMSI_	97	0	3	96	48	1
NMSTR	97	0	7
NMSI_	97	0	7	96	48	3
NMTAP	97	48	3
NMTAP	97	48	7
NMSTR	97	192	0
NMSCR	97	192	0	96	48	3
NMTAP	97	240	0
NMSTR	97	288	7
NMSCL	97	288	7	96	48	4
NMTAP	97	336	7
NMSTR	98	0	1
NMSI_	98	0	1	96	48	5
EXTAP	98	96	1
NMSTR	98	96	5
NMSI_	98	96	5	96	32	3
EXTAP	98	192	2
NMTAP	98	288	1
NMTAP	98	288	3
NMTAP	98	336	2
NMTAP	99	0	3
NMTAP	99	48	4
NMTAP	99	48	6
NMTAP	99	96	5
NMTAP	99	144	4
NMSTR	99	192	1
NMSLR	99	192	1	96	48	5
NMTAP	99	240	7
NMSTR	99	288	5
NMSCL	99	288	5	96	72	1
NMSUL	99	288	5	96	72	1
EXTAP	100	96	7
NMSTR	100	192	0
NMSCR	100	192	0	96	48	3
NMTAP	100	192	6
BRTAP	100	288	0
BRSTR	100	288	7
NMSCL	100	288	7	96	48	4
BRSTR	101	0	1
NMSI_	101	0	1	96	48	5
BRTAP	101	0	7
BRTAP	101	96	0
BRTAP	101	96	1
NMTAP	101	192	6
NMTAP	101	192	7
NMTAP	101	240	5
NMSTR	101	288	4
NMSCR	101	288	4	96	96	2
NMTAP	101	336	3
NMTAP	102	0	2
EXTAP	102	96	7
NMTAP	102	192	1
NMTAP	102	192	5
NMTAP	102	288	3
NMTAP	102	288	4
NMTAP	102	336	2
NMTAP	103	0	4
NMTAP	103	0	5
NMTAP	103	48	6
NMTAP	103	96	2
NMTAP	103	96	3
NMTAP	103	144	1
NMTAP	103	192	4
NMTAP	103	192	6
NMTAP	103	240	7
NMTAP	103	288	1
NMTAP	103	288	3
NMTAP	103	336	0
EXTAP	104	0	6
EXTAP	104	24	7
EXTAP	104	48	6
EXTAP	104	72	7
BRSTR	104	96	6
NMSI_	104	96	6	96	48	2
NMTAP	104	192	0
NMTAP	104	192	6
NMTAP	104	288	1
NMTAP	104	288	3
NMTAP	104	336	1
NMTAP	104	336	3
NMTAP	105	0	4
NMTAP	105	0	5
NMTAP	105	48	4
NMTAP	105	48	5
NMTAP	105	96	2
NMTAP	105	96	3
NMTAP	105	144	2
NMTAP	105	144	3
NMTAP	105	192	4
NMTAP	105	192	6
NMTAP	105	240	4
NMTAP	105	240	6
NMTAP	105	288	0
NMTAP	105	288	7
NMTAP	105	336	0
NMTAP	105	336	7
EXTAP	106	0	1
EXTAP	106	24	6
EXTAP	106	48	1
EXTAP	106	72	6
BRSTR	106	96	0
BRSSL	106	96	0	96	48	4
BRTAP	106	192	0
BRTAP	106	192	4
NMTAP	107	192	0
NMTAP	107	192	1
NMTAP	107	240	2
NMTAP	107	240	3
NMTAP	107	288	4
NMTAP	107	288	5
NMTAP	107	336	6
NMTAP	107	336	7
NMSTR	108	0	0
NMSI_	108	0	0	96	24	4
NMSSL	108	0	0	96	24	4
NMTAP	108	0	4
NMTTP	108	96	0	C	1	M1
NMTTP	108	96	2	B	0	M1
NMTTP	108	96	6	B	0	M1

T_REC_TAP	592
T_REC_BRK	19
T_REC_XTP	52
T_REC_HLD	27
T_REC_XHO	2
T_REC_STR	106
T_REC_BST	5
T_REC_XST	6
T_REC_TTP	44
T_REC_THO	0
T_REC_SLD	123
T_REC_ALL	976
T_NUM_TAP	800
T_NUM_BRK	24
T_NUM_HLD	29
T_NUM_SLD	123
T_NUM_ALL	976
T_JUDGE_TAP	824
T_JUDGE_HLD	106
T_JUDGE_SLD	123
T_JUDGE_ALL	1053
TTM_EACHPAIRS	193
TTM_SCR_TAP	400000
TTM_SCR_BRK	62400
TTM_SCR_HLD	29000
TTM_SCR_SLD	184500
TTM_SCR_ALL	675900
TTM_SCR_S	653300
TTM_SCR_SS	673500
TTM_RAT_ACV	10035

