VERSION	0.00.00	1.04.00
FES_MODE	0
BPM_DEF	177.000	177.000	177.000	177.000
MET_DEF	4	4
RESOLUTION	384
CLK_DEF	384
COMPATIBLE_CODE	MA2

BPM	0	0	177.000
MET	0	0	4	4
MET	1	0	4	6
MET	2	192	4	4

EXTAP	1	0	1
EXTAP	1	0	4
EXTAP	1	64	5
EXTAP	1	128	3
EXTAP	1	128	6
EXTAP	1	192	2
EXTAP	1	256	1
EXTAP	1	256	4
EXHLD	1	320	5	160
NMTTP	2	96	3	B	0	M1
NMTTP	2	96	4	B	0	M1
NMTTP	2	96	4	E	1	M1
NMSTR	2	192	1
NMSI_	2	192	1	96	48	4
NMTAP	2	288	5
NMHLD	3	0	7	96
NMTAP	3	96	4
NMTAP	3	144	4
NMTAP	3	192	6
NMHLD	3	240	6	96
NMSTR	3	336	5
NMSCL	3	336	5	96	48	2
NMTAP	4	48	7
NMTAP	4	96	7
NMSTR	4	192	6
NMSI_	4	192	6	96	48	3
NMTAP	4	288	2
NMHLD	5	0	1	96
NMTAP	5	96	3
NMHLD	5	144	3	96
NMTAP	5	240	4
NMHLD	5	288	4	96
NMTAP	6	0	6
NMTAP	6	96	0
NMTAP	6	96	7
NMSTR	6	192	6
NMSI_	6	192	6	96	48	3
NMTAP	6	288	2
NMHLD	7	0	0	96
NMTAP	7	96	3
NMTAP	7	144	3
NMTAP	7	192	1
NMHLD	7	240	1	96
NMSTR	7	336	2
NMSCR	7	336	2	96	48	5
NMTAP	8	48	0
NMTAP	8	96	0
NMSTR	8	192	1
NMSI_	8	192	1	96	48	4
NMTAP	8	288	5
NMHLD	9	0	6	96
NMTAP	9	96	4
NMHLD	9	144	4	96
NMTAP	9	240	3
NMTAP	9	288	3
NMTAP	10	0	3
NMTAP	10	0	4
BRTAP	10	96	1
BRTAP	10	96	6
NMSTR	10	192	0
NMSSL	10	192	0	96	192	4
NMTAP	11	0	5
NMTAP	11	96	5
NMTAP	11	192	6
NMSTR	11	288	7
NMSI_	11	288	7	96	48	4
NMTAP	12	0	3
NMTAP	12	96	3
NMSTR	12	192	3
NMSCL	12	192	3	96	96	0
NMSTR	12	192	4
NMSCR	12	192	4	96	96	7
EXTAP	13	96	0
EXTAP	13	96	7
NMTAP	13	192	0
NMTAP	13	192	6
NMTAP	13	288	1
NMTAP	13	288	7
NMSTR	14	0	0
NMSI_	14	0	0	96	48	4
NMSTR	14	0	7
NMSI_	14	0	7	96	48	1
NMTAP	14	192	3
NMSTR	14	288	2
NMSXR	14	288	2	96	192	7
NMTAP	15	0	4
NMTAP	15	96	5
NMTAP	15	192	6
NMTAP	15	288	6
NMTAP	16	0	3
NMTAP	16	0	7
NMTTP	16	96	5	E	0	M1
NMTTP	16	96	5	A	0	M1
NMTTP	16	96	6	A	0	M1
NMTTP	16	96	6	D	0	M1
NMTTP	16	192	0	E	0	M1
NMTTP	16	192	7	B	0	M1
NMTTP	16	192	7	E	0	M1
NMTTP	16	192	7	A	0	M1
NMTTP	16	288	3	E	0	M1
NMTTP	16	288	3	A	0	M1
NMTTP	16	288	4	B	0	M1
NMTTP	16	288	4	E	0	M1
NMTTP	17	0	1	B	0	M1
NMTTP	17	0	1	A	0	M1
NMTTP	17	0	2	B	0	M1
NMTTP	17	0	2	E	0	M1
NMTTP	17	0	2	A	0	M1
NMTAP	17	96	0
NMTAP	17	144	0
NMTAP	17	192	7
NMTAP	17	288	1
NMTAP	17	288	6
NMTAP	18	0	3
NMTAP	18	0	4
BRTAP	18	96	2
BRTAP	18	96	5
NMHLD	18	192	1	96
NMTAP	18	288	0
NMHLD	19	0	6	96
NMTAP	19	96	7
NMTTP	19	192	5	B	0	M1
NMTTP	19	192	5	E	0	M1
NMTTP	19	192	5	A	1	M1
NMTTP	19	192	5	D	0	M1
NMTTP	19	192	6	E	0	M1
NMTTP	19	192	6	D	0	M1
NMTTP	19	288	3	B	0	M1
NMTTP	19	288	3	A	0	M1
NMTTP	19	288	4	B	0	M1
NMTTP	19	288	4	E	0	M1
NMTTP	19	288	4	A	0	M1
NMTTP	19	288	4	D	1	M1
NMTTP	20	0	2	B	0	M1
NMTTP	20	0	2	E	0	M1
NMTTP	20	0	2	A	1	M1
NMTTP	20	0	2	D	0	M1
NMTTP	20	0	3	E	0	M1
NMTTP	20	0	3	D	0	M1
BXTAP	20	96	0
BXTAP	20	96	6
NMSTR	20	192	1
NMSCR	20	192	1	96	96	4
NMTAP	20	288	7
NMSTR	21	0	6
NMSCL	21	0	6	96	96	3
NMTAP	21	96	0
NMSTR	21	192	1
NMSCR	21	192	1	96	96	4
NMTAP	21	288	6
NMHLD	22	0	7	96
NMTAP	22	96	4
NMHLD	22	192	1	96
NMTAP	22	288	3
NMHLD	23	0	6	96
NMTAP	23	96	4
NMTTP	23	192	0	E	0	M1
NMTTP	23	192	3	B	0	M1
NMTTP	23	192	3	A	1	M1
NMTTP	23	192	4	E	0	M1
NMTTP	23	192	7	B	0	M1
NMTTP	23	192	7	A	0	M1
NMTTP	23	288	2	B	0	M1
NMTTP	23	288	2	A	0	M1
NMTTP	23	288	3	E	0	M1
NMTTP	23	288	6	B	0	M1
NMTTP	23	288	6	A	1	M1
NMTTP	23	288	7	E	0	M1
NMTTP	24	0	1	B	0	M1
NMTTP	24	0	1	A	1	M1
NMTTP	24	0	2	E	0	M1
NMTTP	24	0	5	B	0	M1
NMTTP	24	0	5	A	0	M1
NMTTP	24	0	6	E	0	M1
EXTAP	24	96	0
EXTAP	24	96	4
NMHLD	24	192	0	96
NMTAP	24	192	4
NMTAP	24	288	3
NMTAP	25	0	2
NMHLD	25	0	6	96
NMTAP	25	96	4
NMHLD	25	192	2	96
NMTAP	25	192	5
NMTAP	25	288	3
NMTAP	26	0	0
NMTAP	26	0	1
NMTAP	26	96	6
NMTAP	26	96	7
NMSTR	26	192	4
NMSUR	26	192	4	96	192	3
NMSTR	26	192	5
NMSCR	26	192	5	96	192	2
BXHLD	27	192	1	96
BXHLD	27	192	5	96
BRTAP	27	336	2
BRTAP	27	336	6
NMTAP	28	0	2
NMTAP	28	0	6
NMSTR	28	96	0
NMSCR	28	96	0	96	96	4
NMSTR	28	192	4
NMSCR	28	192	4	96	96	0
NMSTR	28	288	0
NMSCR	28	288	0	96	96	4
NMSTR	29	0	4
NMSCR	29	0	4	96	96	0
NMSTR	29	96	0
BRSSL	29	96	0	96	144	4
NMTAP	29	192	4
EXTAP	29	336	5
EXHLD	30	0	5	96
NMTAP	30	96	4
NMSTR	30	192	4
NMSI_	30	192	4	96	48	0
NMTAP	30	192	6
NMTAP	30	288	5
NMTAP	31	0	1
NMSTR	31	0	3
NMSI_	31	0	3	96	48	7
NMTAP	31	96	2
NMSTR	31	192	4
NMSI_	31	192	4	96	48	0
NMTAP	31	192	6
NMTAP	31	288	5
NMTAP	32	0	1
NMTAP	32	0	3
NMTAP	32	96	0
NMTAP	32	96	4
NMSTR	32	192	5
NMSI_	32	192	5	96	48	0
NMSTR	32	288	1
NMSI_	32	288	1	96	48	4
NMSTR	33	0	6
NMSI_	33	0	6	96	48	3
NMSTR	33	96	2
NMSI_	33	96	2	96	48	7
NMSTR	33	192	5
NMSI_	33	192	5	96	48	2
NMSTR	33	288	1
NMSI_	33	288	1	96	48	6
NMTAP	34	0	4
NMHLD	34	96	5	96
NMHLD	34	192	7	96
NMHLD	34	288	0	96
NMHLD	35	0	2	96
NMSTR	35	96	3
NMSI_	35	96	3	96	48	0
NMSI_	35	96	3	96	48	6
EXTAP	35	336	0
EXTAP	35	336	7
EXTAP	36	0	0
EXTAP	36	0	7
NMSTR	36	96	1
BRSI_	36	96	1	96	48	4
NMTAP	36	96	6
NMSTR	36	192	0
BRSI_	36	192	0	96	48	5
NMSTR	36	288	1
BRSI_	36	288	1	96	48	4
NMSTR	37	0	0
BRSI_	37	0	0	96	48	5
NMSTR	37	96	1
BRSI_	37	96	1	96	48	4
NMSTR	37	192	0
BRSI_	37	192	0	96	48	5
NMTAP	37	288	1
NMHLD	38	0	2	96
NMTAP	38	96	3
NMSTR	38	192	0
NMSI_	38	192	0	96	48	4
NMSTR	38	192	1
NMSI_	38	192	1	96	48	3
EXTAP	38	288	0
EXTAP	38	288	1
NMSTR	39	0	6
NMSI_	39	0	6	96	48	4
NMSTR	39	0	7
NMSI_	39	0	7	96	48	3
EXTAP	39	96	6
EXTAP	39	96	7
NMHLD	39	192	0	144
NMTAP	39	336	7
NMTAP	40	0	7
NMTAP	40	96	1
NMTAP	40	96	6
NMSTR	40	192	0
NMSI_	40	192	0	96	48	5
NMSTR	40	192	1
NMSI_	40	192	1	96	48	4
NMSTR	41	0	6
NMSI_	41	0	6	96	48	3
NMSTR	41	0	7
NMSI_	41	0	7	96	48	2
NMSTR	41	192	0
NMSI_	41	192	0	96	48	5
NMSTR	41	192	1
NMSI_	41	192	1	96	48	4
NMTAP	42	0	6
NMTAP	42	0	7
NMTAP	42	96	5
NMTAP	42	144	5
NMTAP	42	192	4
NMTAP	42	288	0
NMTAP	42	288	7
NMTAP	43	0	2
NMTAP	43	0	3
NMTAP	43	96	0
NMTAP	43	96	7
NMTAP	43	192	3
NMTAP	43	192	5
NMSTR	43	288	1
NMSI_	43	288	1	96	48	5
NMSTR	43	288	7
NMSI_	43	288	7	96	48	3
NMSTR	44	192	2
NMSXR	44	192	2	96	192	4
NMSTR	44	192	5
NMSXL	44	192	5	96	192	3
NMTTP	45	192	6	B	0	M1
NMTTP	45	192	6	E	0	M1
NMTTP	45	192	6	A	1	M1
NMTTP	45	288	1	B	0	M1
NMTTP	45	288	1	A	1	M1
NMTTP	45	288	2	E	0	M1
NMTTP	46	0	3	B	0	M1
NMTTP	46	0	3	A	0	M1
NMTTP	46	0	4	B	0	M1
NMTTP	46	0	4	E	1	M1
NMTTP	46	0	4	A	0	M1
NMHLD	46	96	5	96
NMTHO	46	192	0	384	C	1	M1
NMTTP	46	288	6	E	0	M1
NMTTP	47	0	7	E	0	M1
NMTTP	47	96	0	E	0	M1
NMTTP	47	192	1	E	0	M1
EXTAP	48	0	0
EXTAP	48	0	7
EXSTR	48	96	0
NMSSL	48	96	0	96	192	4
EXSTR	48	96	7
NMSSR	48	96	7	96	192	3
EXTAP	49	96	3
EXTAP	49	96	6
EXTAP	49	192	1
EXTAP	49	192	4
NMSTR	49	288	0
NMSCR	49	288	0	96	96	3
NMSTR	49	288	7
NMSCL	49	288	7	96	96	4
NMHLD	50	192	6	96
NMTAP	50	288	4
NMHLD	51	0	1	96
NMTAP	51	96	3
NMHLD	51	144	3	96
NMTAP	51	240	4
NMTAP	51	288	4
NMTAP	52	0	2
NMTAP	52	0	5
NMHLD	52	96	2	768
NMTAP	52	96	5
NMTTP	52	192	4	E	0	M1
NMTTP	52	288	3	E	0	M1
NMTTP	53	0	2	E	0	M1
NMTTP	53	96	1	E	0	M1
NMTTP	53	192	0	E	0	M1
NMTTP	53	288	7	E	0	M1
NMTTP	54	0	6	E	0	M1
NMSTR	54	96	4
NMSF_	54	96	4	96	96	0
NMTAP	55	48	1
NMTAP	55	48	7
NMTAP	55	96	1
NMTAP	55	96	7
NMTAP	55	192	4
NMTAP	55	192	5
NMTAP	55	288	3
NMTAP	55	288	6
NMTAP	56	0	2
NMTAP	56	0	3
NMTAP	56	96	1
NMTAP	56	96	4
NMTAP	56	192	3
NMTAP	56	192	5
NMSTR	56	288	3
NMSI_	56	288	3	96	48	0
NMSTR	56	288	5
NMSI_	56	288	5	96	48	7
NMTAP	57	192	2
NMTAP	57	192	4
NMSTR	57	288	2
NMSV_	57	288	2	96	96	0
NMSTR	57	288	4
NMSCR	57	288	4	96	96	7
NMTAP	58	192	1
NMTAP	58	192	7
NMTAP	58	288	1
NMTAP	58	288	7
NMTAP	59	0	0
NMTAP	59	0	6
NMTAP	59	96	0
NMTAP	59	96	6
NMSTR	59	192	5
NMSCR	59	192	5	96	96	1
NMSTR	59	288	1
NMSV_	59	288	1	96	96	3
BRTAP	60	0	3
NMHLD	60	192	1	96
NMTAP	60	192	3
BRTAP	60	288	0
NMTAP	61	0	4
NMHLD	61	0	6	96
BRTAP	61	96	7
NMSTR	61	192	1
NMSI_	61	192	1	96	48	5
NMSTR	61	288	6
NMSI_	61	288	6	96	48	2
NMTAP	62	0	0
NMTAP	62	48	0
EXTAP	62	96	1
EXTAP	62	96	7
NMTAP	62	192	0
NMHLD	62	192	5	96
NMTAP	62	288	4
EXTAP	63	0	3
EXTAP	63	0	6
EXTAP	63	48	3
EXTAP	63	48	6
EXTAP	63	96	3
EXTAP	63	96	6
NMHLD	63	192	2	96
NMTAP	63	192	7
NMTAP	63	288	3
EXTAP	64	0	1
EXTAP	64	0	4
EXTAP	64	48	1
EXTAP	64	48	4
EXTAP	64	96	1
EXTAP	64	96	4
NMSTR	64	192	6
NMSI_	64	192	6	96	48	3
NMSTR	64	192	7
NMSI_	64	192	7	96	48	4
NMSTR	65	0	0
NMSI_	65	0	0	96	48	3
NMSTR	65	0	1
NMSCR	65	0	1	96	48	3
NMSTR	65	192	4
NMSI_	65	192	4	96	48	7
NMSTR	65	192	5
NMSI_	65	192	5	96	48	7
NMTAP	66	0	0
NMTAP	66	0	1
NMTAP	66	48	0
NMTAP	66	48	1
NMTAP	66	96	2
NMTAP	66	96	7
NMTAP	66	192	7
NMTAP	66	240	6
EXTAP	66	288	5
NMTAP	66	336	4
NMTAP	67	0	3
NMTAP	67	48	2
EXTAP	67	96	1
NMTAP	67	144	0
BXTAP	67	192	7
NMTAP	67	240	6
BXTAP	67	288	5
NMTAP	67	336	4
BXTAP	68	0	3
NMTAP	68	48	2
BXTAP	68	96	1
NMTAP	68	144	0
NMSTR	68	192	7
NMSI_	68	192	7	96	48	3
NMSTR	69	0	0
NMSI_	69	0	0	96	48	4
NMHLD	69	192	3	48
NMHLD	69	192	5	48
NMHLD	69	288	2	48
NMHLD	69	288	4	48
NMHLD	70	0	3	48
NMHLD	70	0	5	48
NMTAP	70	96	2
NMSTR	70	96	4
NMSCR	70	96	4	96	576	1
NMTAP	70	192	3
NMTAP	70	288	3
NMTAP	71	0	3
NMTAP	71	96	3
NMTAP	71	192	3
NMTAP	71	288	3
NMTAP	72	0	3
NMSTR	72	96	3
NMSCL	72	96	3	96	576	6
NMTAP	72	192	4
NMTAP	72	288	4
NMTAP	73	0	4
NMTAP	73	96	4
NMTAP	73	192	4
NMTAP	73	288	4
NMTAP	74	0	4
NMSTR	74	96	4
NMSI_	74	96	4	96	288	7
NMTAP	74	192	3
NMTAP	74	288	3
NMTAP	75	0	3
NMSTR	75	96	3
NMSI_	75	96	3	96	288	0
NMTAP	75	192	7
NMTAP	75	288	7
NMTAP	76	0	7
NMSTR	76	96	7
NMSI_	76	96	7	96	288	4
NMTAP	76	192	0
NMTAP	76	288	0
NMTAP	77	0	0
NMTAP	77	96	0
NMHLD	77	192	0	288
NMTAP	78	0	6
NMSTR	78	96	7
NMSCL	78	96	7	96	576	2
NMTAP	78	192	0
NMTAP	78	288	0
NMTAP	79	0	0
NMTAP	79	96	0
NMTAP	79	192	0
NMTAP	79	288	0
NMTAP	80	0	0
NMSTR	80	96	0
NMSCR	80	96	0	96	576	5
NMTAP	80	192	7
NMTAP	80	288	7
NMTAP	81	0	7
NMTAP	81	96	7
NMTAP	81	192	7
NMTAP	81	288	7
NMTAP	82	0	7
NMTAP	82	96	4
NMTAP	82	96	6
NMTAP	82	192	0
NMTAP	82	288	1
NMTAP	82	288	3
NMTAP	83	0	3
NMTAP	83	0	4
NMTAP	83	96	1
NMTAP	83	96	6
NMSTR	83	192	0
NMSI_	83	192	0	96	48	3
NMSTR	83	192	7
NMSI_	83	192	7	96	48	4
EXTAP	83	288	0
EXTAP	83	288	7
EXTAP	84	0	1
EXTAP	84	0	6
NMSTR	84	96	7
NMSCL	84	96	7	96	96	3
NMSTR	84	192	3
NMSCL	84	192	3	96	96	7
NMSTR	84	288	7
NMSCL	84	288	7	96	96	3
NMSTR	85	0	3
NMSCL	85	0	3	96	96	7
NMSTR	85	96	7
BRSSR	85	96	7	96	144	3
NMTAP	85	192	3
NMTAP	85	336	2
NMTAP	86	0	2
NMSTR	86	96	0
NMSCR	86	96	0	96	96	4
NMTAP	86	96	5
NMSTR	86	192	4
NMSCR	86	192	4	96	96	0
NMSTR	86	288	0
NMSCR	86	288	0	96	96	4
NMSTR	87	0	4
NMSCR	87	0	4	96	96	0
NMSTR	87	96	0
BRSI_	87	96	0	96	96	4
NMTAP	87	192	4
NMSTR	88	0	2
NMSI_	88	0	2	96	48	7
NMSTR	88	0	3
NMSI_	88	0	3	96	48	6
NMTAP	88	192	0
NMTAP	88	192	5
NMSTR	88	288	6
NMSI_	88	288	6	96	48	3
NMSTR	89	0	1
NMSI_	89	0	1	96	48	4
NMSTR	89	96	5
NMSI_	89	96	5	96	48	0
NMSTR	89	192	2
NMSI_	89	192	2	96	48	5
NMSTR	89	288	6
NMSI_	89	288	6	96	48	1
NMTAP	90	0	3
NMHLD	90	96	2	96
NMHLD	90	192	0	96
NMHLD	90	288	7	96
NMHLD	91	0	5	96
NMSTR	91	96	4
NMSI_	91	96	4	96	48	1
NMSI_	91	96	4	96	48	7
EXTAP	91	336	0
EXTAP	91	336	7
EXTAP	92	0	0
EXTAP	92	0	7
NMTAP	92	96	2
NMSTR	92	96	5
BRSI_	92	96	5	96	48	0
NMSTR	92	192	4
BRSI_	92	192	4	96	48	1
NMSTR	92	288	5
BRSI_	92	288	5	96	48	0
NMSTR	93	0	4
BRSI_	93	0	4	96	48	1
NMSTR	93	96	5
BRSI_	93	96	5	96	48	0
NMSTR	93	192	4
BRSI_	93	192	4	96	48	1
NMTAP	93	288	5
NMHLD	94	0	6	96
NMTAP	94	96	4
NMSTR	94	192	2
BRSXR	94	192	2	96	192	4
NMSTR	94	192	5
BRSXL	94	192	5	96	192	3
BXHLD	95	192	2	96
BXHLD	95	192	5	96
NMTAP	96	0	0
NMTAP	96	0	7
NMTAP	96	48	0
NMTAP	96	48	7
NMTAP	96	96	1
NMTAP	96	96	6
NMSTR	96	192	6
NMSV_	96	192	6	96	48	3
NMSTR	96	192	7
NMSI_	96	192	7	96	48	2
NMSTR	97	0	0
NMSI_	97	0	0	96	48	5
NMSTR	97	0	1
NMSV_	97	0	1	96	48	4
NMSTR	97	192	6
NMSV_	97	192	6	96	48	3
NMSTR	97	192	7
NMSI_	97	192	7	96	48	2
NMTAP	98	0	0
NMTAP	98	0	1
NMTAP	98	96	2
NMTAP	98	144	2
NMTAP	98	192	3
NMTAP	98	288	0
NMTAP	98	288	7
NMTAP	99	0	4
NMTAP	99	0	5
NMTAP	99	96	0
NMTAP	99	96	7
NMTAP	99	192	2
NMTAP	99	192	3
NMSTR	99	288	2
NMSUL	99	288	2	96	96	5
NMSV_	99	288	2	96	96	5
NMTAP	99	288	3
NMHLD	100	192	6	96
NMTAP	100	288	7
NMHLD	101	0	1	96
NMTAP	101	96	0
NMTAP	101	192	1
NMTAP	101	192	6
NMSTR	101	288	0
NMSI_	101	288	0	96	48	3
NMSTR	101	288	7
NMSI_	101	288	7	96	48	4
NMTAP	102	0	0
NMTAP	102	0	7
NMSTR	102	192	6
NMSI_	102	192	6	96	48	3
NMSTR	102	288	2
NMSI_	102	288	2	96	48	7
NMSTR	103	0	5
NMSI_	103	0	5	96	48	0
NMSTR	103	96	1
NMSI_	103	96	1	96	48	4
NMSTR	103	192	6
NMSI_	103	192	6	96	48	3
NMTAP	103	288	0
NMTAP	103	336	0
NMTAP	104	0	1
NMTAP	104	0	4
NMTAP	104	96	2
NMTAP	104	96	3
NMSTR	104	192	1
NMSI_	104	192	1	96	48	4
NMSTR	104	288	5
NMSI_	104	288	5	96	48	0
NMSTR	105	0	2
NMSI_	105	0	2	96	48	7
NMSTR	105	96	6
NMSI_	105	96	6	96	48	3
NMSTR	105	192	1
NMSI_	105	192	1	96	48	4
NMTAP	105	288	7
NMTAP	105	336	7
NMTAP	106	0	3
NMTAP	106	0	6
NMSTR	106	96	0
BRSSL	106	96	0	96	96	4
NMHLD	106	96	7	96
BXTAP	106	192	0
EXTAP	107	192	1
EXTAP	107	192	6
EXTAP	107	240	1
EXTAP	107	240	6
EXTAP	107	288	2
EXTAP	107	288	5
EXTAP	107	336	2
EXTAP	107	336	5
EXTAP	108	0	3
EXTAP	108	0	4
BRSTR	108	96	0
NMSI_	108	96	0	96	48	4
BRSTR	108	96	7
NMSI_	108	96	7	96	48	3
BXTAP	108	192	0
BXTAP	108	192	7

T_REC_TAP	251
T_REC_BRK	9
T_REC_XTP	61
T_REC_BXX	9
T_REC_HLD	47
T_REC_XHO	2
T_REC_BHO	0
T_REC_BXH	4
T_REC_STR	127
T_REC_BST	2
T_REC_XST	2
T_REC_XBS	0
T_REC_TTP	78
T_REC_THO	1
T_REC_SLD	116
T_REC_BSL	18
T_REC_ALL	727
T_NUM_TAP	519
T_NUM_BRK	42
T_NUM_HLD	50
T_NUM_SLD	116
T_NUM_ALL	727
T_JUDGE_TAP	539
T_JUDGE_HLD	129
T_JUDGE_SLD	134
T_JUDGE_ALL	802
TTM_EACHPAIRS	132
TTM_SCR_TAP	259500
TTM_SCR_BRK	109200
TTM_SCR_HLD	50000
TTM_SCR_SLD	174000
TTM_SCR_ALL	592700
TTM_SCR_S	570850
TTM_SCR_SS	588500
TTM_RAT_ACV	10071

