VERSION	0.00.00	1.04.00
FES_MODE	0
BPM_DEF	177.000	177.000	177.000	177.000
MET_DEF	4	4
RESOLUTION	384
CLK_DEF	384
COMPATIBLE_CODE	MA2

BPM	0	0	177.000
MET	0	0	4	4
MET	1	0	4	6
MET	2	192	4	4

EXTAP	1	0	0
EXTAP	1	64	0
EXTAP	1	128	0
EXTAP	1	192	7
EXTAP	1	256	7
EXHLD	1	320	7	160
BXTAP	2	96	0
NMTAP	2	192	1
NMTAP	2	288	2
NMTAP	3	0	4
NMTAP	3	96	3
NMTAP	3	96	5
NMTAP	3	192	6
NMTAP	3	288	5
NMTAP	4	0	3
NMTAP	4	96	2
NMTAP	4	96	4
NMTAP	4	192	1
NMTAP	4	288	2
NMTAP	5	0	4
NMTAP	5	96	3
NMSTR	5	96	5
NMSUR	5	96	5	96	192	2
NMTAP	6	192	1
NMTAP	6	288	2
NMTAP	7	0	4
NMTAP	7	96	3
NMTAP	7	96	5
NMTAP	7	192	6
NMTAP	7	288	5
NMTAP	8	0	3
NMTAP	8	96	2
NMTAP	8	96	4
NMTAP	8	192	1
NMTAP	8	192	5
NMTAP	8	288	1
NMTAP	8	288	5
NMTAP	9	0	2
NMTAP	9	0	6
EXTAP	9	96	7
EXTAP	9	144	7
EXTAP	9	240	0
EXTAP	9	240	6
EXTAP	9	288	0
EXTAP	9	288	6
EXTAP	10	0	1
EXTAP	10	0	5
NMHLD	10	192	2	1056
NMTAP	10	192	4
NMTAP	10	288	4
NMTAP	11	0	3
NMTAP	11	96	3
NMTAP	11	192	4
NMTAP	11	288	4
NMTAP	12	0	3
NMTAP	12	96	3
NMTAP	12	192	4
NMTAP	12	288	3
NMTAP	13	0	4
NMTAP	13	96	3
NMTAP	13	192	0
NMTAP	13	192	1
NMTAP	13	288	0
NMTAP	13	288	7
EXTAP	14	0	6
EXTAP	14	0	7
EXTAP	14	96	6
EXTAP	14	96	7
NMHLD	14	192	5	864
NMTAP	14	288	4
NMTAP	15	0	3
NMTAP	15	96	3
NMTAP	15	192	4
NMTAP	15	288	4
NMTAP	16	0	6
NMTAP	16	96	6
NMTAP	16	192	4
NMTAP	16	288	4
NMTAP	17	0	4
NMTAP	17	0	5
NMTAP	17	96	6
EXTAP	17	192	6
EXTAP	17	192	7
EXTAP	17	288	0
EXTAP	17	288	7
BRTAP	18	0	1
BRTAP	18	0	6
NMSTR	18	192	5
NMSI_	18	192	5	96	96	0
NMTAP	19	0	1
NMTAP	19	96	1
BXTAP	19	192	7
BXTAP	19	288	7
BXTAP	20	0	0
BXTAP	20	0	6
NMTTP	20	192	1	E	0	M1
NMTTP	20	288	0	C	0	M1
NMTTP	21	0	5	E	0	M1
NMTTP	21	96	6	E	0	M1
NMTTP	21	192	7	E	0	M1
NMTTP	21	288	0	C	0	M1
NMTTP	22	0	2	E	0	M1
NMTTP	22	0	3	B	0	M1
NMSTR	22	192	1
NMSI_	22	192	1	96	96	4
NMTAP	23	0	5
NMTAP	23	96	6
BXTAP	23	192	7
BXTAP	23	288	7
BXTAP	24	0	0
BXTAP	24	0	6
NMHLD	24	96	5	96
NMTAP	24	192	4
NMHLD	24	288	2	96
NMTAP	25	0	3
NMHLD	25	96	4	96
NMTAP	25	192	3
NMTAP	25	288	3
NMTAP	25	288	4
NMTAP	26	0	2
NMTAP	26	0	5
NMTAP	26	96	2
NMSTR	26	96	5
NMSCR	26	96	5	96	192	2
EXTAP	27	192	1
EXTAP	27	192	7
EXTAP	27	336	0
EXTAP	28	0	0
NMTAP	28	96	1
NMTAP	28	96	7
BRTAP	28	192	2
BRTAP	28	192	3
NMTAP	28	288	0
NMTAP	28	288	1
NMTAP	29	0	6
NMTAP	29	0	7
NMTAP	29	96	4
NMTAP	29	96	5
NMTAP	29	192	2
NMTAP	29	192	3
NMTAP	29	288	0
NMTAP	29	288	1
NMTAP	30	0	2
NMTAP	30	0	7
NMTAP	30	96	2
NMTAP	30	96	7
NMTAP	30	192	0
NMTAP	30	192	1
NMTAP	30	288	2
NMTAP	30	288	3
NMTAP	31	0	4
NMTAP	31	0	5
NMTAP	31	96	6
NMTAP	31	96	7
NMTAP	31	192	0
NMTAP	31	192	1
NMTAP	31	288	2
NMTAP	31	288	3
NMTAP	32	0	1
NMTAP	32	0	4
NMTAP	32	96	1
NMTAP	32	96	4
NMSTR	32	192	5
NMSI_	32	192	5	96	96	0
NMSTR	33	0	2
NMSI_	33	0	2	96	96	7
NMSTR	33	192	5
NMSI_	33	192	5	96	96	0
NMTAP	34	0	1
NMTAP	34	96	1
NMHLD	34	192	2	96
NMHLD	34	288	0	96
NMHLD	35	0	7	96
NMTAP	35	96	5
EXTAP	35	192	4
EXTAP	35	192	6
EXTAP	35	336	3
EXTAP	36	0	3
NMTAP	36	96	2
NMTAP	36	96	5
BXTAP	36	192	0
BXTAP	36	192	1
BXTAP	36	288	6
BXTAP	36	288	7
BXTAP	37	0	4
BXTAP	37	0	5
BXTAP	37	96	2
BXTAP	37	96	3
BXTAP	37	192	0
BXTAP	37	192	1
NMTAP	37	288	0
NMTAP	37	288	1
NMTAP	38	0	2
NMTAP	38	0	7
NMTAP	38	96	2
NMTAP	38	96	7
NMTAP	38	192	1
NMTAP	38	192	6
NMTAP	38	288	0
NMTAP	38	288	5
NMTAP	39	0	1
NMTAP	39	0	6
NMTAP	39	96	2
NMTAP	39	96	7
NMTAP	39	192	4
NMTAP	39	192	5
NMTAP	39	288	3
NMTAP	39	288	4
NMTAP	40	0	2
NMTAP	40	0	3
NMTAP	40	96	1
NMSTR	40	192	0
NMSV_	40	192	0	96	96	5
NMSTR	40	192	1
NMSCR	40	192	1	96	96	4
NMTAP	41	96	6
NMSTR	41	192	6
NMSCL	41	192	6	96	96	3
NMSTR	41	192	7
NMSV_	41	192	7	96	96	2
NMTAP	42	96	1
NMHLD	42	192	1	96
NMHLD	42	288	3	96
NMHLD	43	0	4	96
NMTAP	43	96	6
NMTAP	43	192	1
NMTAP	43	192	7
NMTAP	43	288	1
NMTAP	43	288	7
BXTAP	44	0	2
BXTAP	44	0	6
NMHLD	44	192	5	96
NMHLD	44	288	6	96
NMHLD	45	0	7	96
NMHLD	45	96	0	96
NMHLD	45	192	1	96
NMHLD	45	288	2	96
NMTTP	46	0	0	C	1	M1
EXTAP	46	192	0
EXTAP	46	192	7
NMTAP	46	288	1
NMTAP	46	336	1
NMTAP	47	0	0
NMTAP	47	0	1
NMTAP	47	96	6
NMTAP	47	144	6
NMTAP	47	192	6
NMTAP	47	192	7
NMTAP	47	288	0
NMTAP	47	336	0
EXTAP	48	0	0
EXTAP	48	0	7
EXSTR	48	96	0
NMSSL	48	96	0	96	240	4
EXTAP	48	96	7
NMHLD	49	192	6	96
NMHLD	49	288	4	96
NMTAP	50	0	5
NMTAP	50	96	3
NMTAP	50	96	6
NMHLD	50	192	1	96
NMHLD	50	288	3	96
NMTAP	51	0	2
NMTAP	51	96	3
NMTAP	51	96	4
NMTAP	51	144	3
NMTAP	51	144	4
NMTAP	51	240	2
NMTAP	51	240	5
NMTAP	51	288	2
NMTAP	51	288	5
EXTAP	52	0	1
EXTAP	52	0	6
NMTTP	52	192	1	E	0	M1
NMTTP	52	288	2	E	0	M1
NMTTP	53	0	3	E	0	M1
NMTTP	53	96	4	E	0	M1
NMTAP	53	192	5
NMTAP	53	288	5
NMTAP	54	0	4
NMTAP	54	0	5
NMTTP	54	192	7	E	0	M1
NMTTP	54	288	6	E	0	M1
NMTTP	55	0	5	E	0	M1
NMTTP	55	96	4	E	0	M1
NMTAP	55	192	2
NMTAP	55	288	2
NMTAP	56	0	2
NMTAP	56	0	3
NMTAP	56	96	2
NMTAP	56	96	3
NMHLD	56	192	1	96
NMHLD	56	192	4	96
NMHLD	57	0	2	96
NMHLD	57	0	3	96
NMHLD	57	192	4	96
NMHLD	57	192	5	96
NMHLD	58	0	3	96
NMHLD	58	0	6	96
NMTAP	58	192	2
NMTAP	58	192	7
NMTAP	58	288	2
NMTAP	58	288	7
NMTAP	59	0	1
NMTAP	59	0	6
NMSTR	59	96	0
NMSI_	59	96	0	96	144	4
NMTAP	59	96	5
BXTAP	60	96	3
BXTAP	60	96	5
NMTAP	60	192	2
NMTAP	60	240	2
NMTAP	60	288	3
NMTAP	61	0	5
NMTAP	61	48	5
NMTAP	61	96	4
NMTAP	61	192	3
NMSTR	61	192	6
NMSI_	61	192	6	96	96	2
EXTAP	62	0	0
EXTAP	62	48	0
EXTAP	62	96	0
NMTAP	62	192	1
NMTAP	62	192	7
NMTAP	62	288	1
NMTAP	62	288	7
NMTAP	63	0	2
NMTAP	63	48	2
NMTAP	63	96	3
NMTAP	63	192	2
NMTAP	63	192	4
NMTAP	63	288	2
NMTAP	63	288	4
NMTAP	64	0	3
NMTAP	64	0	5
NMTAP	64	96	3
NMTAP	64	96	5
NMTAP	64	192	6
NMTAP	64	240	6
NMTAP	64	288	7
NMTAP	65	0	1
NMTAP	65	48	1
NMTAP	65	96	0
NMSTR	65	192	2
NMSI_	65	192	2	96	96	5
NMTAP	65	192	7
EXTAP	66	0	6
EXTAP	66	48	6
EXHLD	66	96	6	96
NMTAP	66	192	4
NMTAP	66	288	4
NMTAP	67	0	3
NMTAP	67	0	5
NMTAP	67	96	2
NMTAP	67	96	4
EXTAP	67	192	1
EXTAP	67	192	5
EXTAP	67	288	1
EXTAP	67	288	5
EXTAP	68	0	2
EXTAP	68	0	6
EXTAP	68	96	2
EXTAP	68	96	6
BRTAP	68	192	1
BRTAP	68	192	7
BRTAP	69	0	0
BRTAP	69	0	6
EXTAP	69	192	4
EXTAP	69	192	5
EXTAP	69	288	4
EXTAP	69	288	5
EXTAP	70	0	2
EXTAP	70	0	3
EXSTR	70	96	2
NMSCL	70	96	2	96	480	5
EXTAP	70	96	3
NMSTR	72	96	5
NMSCR	72	96	5	96	480	2
NMTAP	74	96	2
NMHLD	74	192	2	96
NMHLD	74	192	3	96
NMHLD	75	0	3	96
NMHLD	75	0	4	96
NMHLD	75	192	4	96
NMHLD	75	192	5	96
NMHLD	76	0	3	96
NMHLD	76	0	4	96
NMHLD	76	192	2	96
NMHLD	76	192	3	96
NMSTR	77	0	2
NMSI_	77	0	2	96	192	5
NMTAP	77	0	3
NMTAP	78	0	7
NMSTR	78	96	7
NMSCL	78	96	7	96	480	2
NMTAP	80	0	1
NMSTR	80	96	1
NMSCR	80	96	1	96	480	6
NMTAP	82	0	7
NMTAP	82	96	7
NMTAP	82	192	6
NMTAP	82	288	5
NMTAP	83	0	4
NMTAP	83	96	3
NMTAP	83	96	4
EXTAP	83	192	2
EXTAP	83	192	3
EXTAP	83	288	6
EXTAP	83	288	7
EXTAP	84	0	4
EXTAP	84	0	5
EXTAP	84	96	0
EXTAP	84	96	1
BRTAP	84	192	0
BRTAP	84	192	1
NMTAP	84	288	2
NMTAP	84	288	3
NMTAP	85	0	4
NMTAP	85	0	5
NMTAP	85	96	6
NMTAP	85	96	7
NMTAP	85	192	0
NMTAP	85	192	1
NMTAP	85	288	2
NMTAP	85	288	3
NMTAP	86	0	4
NMTAP	86	0	5
NMTAP	86	96	3
NMTAP	86	96	6
NMTAP	86	192	4
NMTAP	86	192	5
NMTAP	86	288	2
NMTAP	86	288	3
NMTAP	87	0	0
NMTAP	87	0	1
NMTAP	87	96	6
NMTAP	87	96	7
NMTAP	87	192	4
NMTAP	87	192	5
NMTAP	87	288	2
NMTAP	87	288	3
BXTAP	88	0	1
BXTAP	88	0	4
BXTAP	88	96	1
BXTAP	88	96	4
NMSTR	88	192	5
NMSI_	88	192	5	96	96	0
NMSTR	89	0	2
NMSI_	89	0	2	96	96	5
NMSTR	89	192	6
NMSI_	89	192	6	96	96	3
NMTAP	90	0	1
NMTAP	90	96	1
NMHLD	90	192	2	96
NMHLD	90	288	0	96
NMHLD	91	0	7	96
NMTAP	91	96	5
NMTAP	91	192	4
NMTAP	91	192	6
NMTAP	91	336	3
NMTAP	92	0	3
EXTAP	92	96	2
EXTAP	92	96	4
NMTAP	92	192	6
NMTAP	92	192	7
NMTAP	92	288	4
NMTAP	92	288	5
NMTAP	93	0	2
NMTAP	93	0	3
NMTAP	93	96	0
NMTAP	93	96	1
NMTAP	93	192	6
NMTAP	93	192	7
NMTAP	93	288	6
NMTAP	93	288	7
NMTAP	94	0	0
NMTAP	94	0	5
NMTAP	94	96	0
NMTAP	94	96	5
NMTAP	94	192	1
NMTAP	94	192	6
NMTAP	94	288	2
NMTAP	94	288	7
NMTAP	95	0	1
NMTAP	95	0	6
NMTAP	95	96	0
NMTAP	95	96	5
NMTAP	95	192	2
NMTAP	95	192	3
NMTAP	95	288	3
NMTAP	95	288	4
NMTAP	96	0	4
NMTAP	96	0	5
NMTAP	96	96	6
NMSTR	96	192	6
NMSCL	96	192	6	96	96	3
NMSTR	96	192	7
NMSUL	96	192	7	96	96	2
NMTAP	97	96	1
NMSTR	97	192	0
NMSUR	97	192	0	96	96	5
NMSTR	97	192	1
NMSCR	97	192	1	96	96	4
EXTAP	98	96	6
NMHLD	98	192	6	96
NMHLD	98	288	4	96
NMHLD	99	0	3	96
NMTAP	99	96	1
NMTAP	99	192	0
NMTAP	99	192	1
NMTAP	99	288	0
NMTAP	99	288	1
BRTAP	100	0	2
BRTAP	100	0	6
NMHLD	100	192	5	96
NMHLD	100	288	6	96
NMHLD	101	0	7	96
NMHLD	101	96	0	96
NMHLD	101	192	1	96
NMHLD	101	288	2	96
NMTAP	102	0	3
NMTAP	102	96	1
NMTAP	102	96	4
EXTAP	102	192	0
EXTAP	102	192	7
NMTAP	102	288	3
NMTAP	102	288	6
NMTAP	103	0	0
NMTAP	103	0	7
NMTAP	103	96	1
NMTAP	103	96	4
NMHLD	103	192	2	96
NMTAP	103	288	3
NMTAP	103	336	3
NMTAP	104	0	3
NMTAP	104	96	2
NMTAP	104	96	4
NMTAP	104	192	3
NMTAP	104	192	5
NMTAP	104	288	5
NMTAP	104	336	5
NMTAP	105	0	4
NMTAP	105	0	6
NMTAP	105	96	2
NMTAP	105	144	2
NMTAP	105	192	1
NMTAP	105	192	3
NMTAP	105	288	5
NMTAP	105	336	5
NMTAP	106	0	4
NMTAP	106	0	6
EXTAP	106	96	0
EXSTR	106	96	7
BRSSR	106	96	7	96	216	3
EXTAP	107	192	0
EXTAP	107	192	7
EXTAP	107	240	0
EXTAP	107	240	7
EXTAP	107	288	0
EXTAP	107	288	7
EXTAP	107	336	0
EXTAP	107	336	7
EXSTR	108	0	0
BRSI_	108	0	0	96	48	4
EXSTR	108	0	7
BRSI_	108	0	7	96	48	3
BXTAP	108	192	1
BXTAP	108	192	6

T_REC_TAP	318
T_REC_BRK	12
T_REC_XTP	78
T_REC_BXX	29
T_REC_HLD	52
T_REC_XHO	2
T_REC_BHO	0
T_REC_BXH	0
T_REC_STR	25
T_REC_BST	0
T_REC_XST	5
T_REC_XBS	0
T_REC_TTP	17
T_REC_THO	0
T_REC_SLD	27
T_REC_BSL	3
T_REC_ALL	568
T_NUM_TAP	443
T_NUM_BRK	44
T_NUM_HLD	54
T_NUM_SLD	27
T_NUM_ALL	568
T_JUDGE_TAP	484
T_JUDGE_HLD	146
T_JUDGE_SLD	30
T_JUDGE_ALL	660
TTM_EACHPAIRS	174
TTM_SCR_TAP	221500
TTM_SCR_BRK	114400
TTM_SCR_HLD	54000
TTM_SCR_SLD	40500
TTM_SCR_ALL	430400
TTM_SCR_S	413250
TTM_SCR_SS	426000
TTM_RAT_ACV	10103

