VERSION	0.00.00	1.04.00
FES_MODE	0
BPM_DEF	156.000	156.000	156.000	156.000
MET_DEF	4	4
RESOLUTION	384
CLK_DEF	384
COMPATIBLE_CODE	MA2

BPM	0	0	156.000
MET	0	0	4	4

NMTTP	1	192	0	C	1	M1
NMTTP	1	192	2	B	0	M1
NMTTP	1	192	3	B	0	M1
NMTTP	1	192	4	B	0	M1
NMTTP	1	192	5	B	0	M1
NMSTR	2	0	0
NMSI_	2	0	0	96	48	4
NMSTR	2	0	7
NMSI_	2	0	7	96	48	3
NMTAP	2	96	0
NMTAP	2	96	7
NMTAP	2	192	2
NMTAP	2	192	5
NMTAP	2	264	0
NMTAP	2	264	7
NMTAP	2	336	0
NMTAP	2	348	1
NMTAP	2	360	2
NMTAP	2	372	3
NMTAP	3	0	4
NMTAP	3	12	5
NMTAP	3	24	6
NMTAP	3	36	7
NMTAP	3	48	0
NMTAP	3	60	1
NMTAP	3	72	2
NMTAP	3	84	3
NMTAP	3	96	4
NMTAP	3	108	5
NMTAP	3	120	6
NMTAP	3	132	7
NMTAP	3	144	0
NMTAP	3	156	1
NMTAP	3	168	2
NMTAP	3	180	3
NMTTP	3	192	0	C	1	M1
NMTAP	3	192	4
NMTAP	5	0	1
NMTAP	5	24	3
NMTAP	5	72	3
NMTAP	5	72	4
NMTAP	5	120	6
NMTAP	5	144	4
NMTAP	5	192	0
NMTAP	5	192	7
NMTAP	5	264	2
NMTAP	5	264	3
BRSTR	5	336	1
NMSI_	5	336	1	96	48	4
BRTAP	5	336	7
NMSTR	6	48	5
NMSI_	6	48	5	96	48	0
NMTAP	6	96	5
NMSTR	6	144	2
NMSI_	6	144	2	96	48	7
NMTAP	6	192	2
NMSTR	6	240	6
NMSI_	6	240	6	96	48	3
NMTAP	6	288	6
NMTAP	6	336	3
NMTAP	7	0	2
NMSTR	7	48	1
NMSI_	7	48	1	96	48	6
NMTAP	7	96	1
NMSTR	7	144	5
NMSI_	7	144	5	96	48	2
NMTAP	7	192	5
NMSTR	7	240	0
NMSI_	7	240	0	96	48	4
NMTAP	7	288	0
NMTAP	7	336	4
NMTAP	8	0	5
NMSTR	8	48	6
NMSI_	8	48	6	96	48	3
NMTAP	8	96	6
NMSTR	8	144	2
NMSI_	8	144	2	96	48	7
NMTAP	8	192	2
NMTAP	8	240	4
NMTAP	8	288	5
NMTAP	8	336	5
NMTAP	9	0	4
NMTAP	9	0	6
NMTAP	9	24	4
NMTAP	9	24	6
NMTAP	9	96	1
NMTAP	9	96	3
NMTAP	9	120	1
NMTAP	9	120	3
NMTAP	9	192	0
NMTAP	9	192	1
NMTAP	9	264	4
NMTAP	9	264	5
BRTAP	9	336	0
BRSTR	9	336	6
NMSI_	9	336	6	96	48	3
NMSTR	10	48	2
NMSI_	10	48	2	96	48	7
NMTAP	10	96	2
NMSTR	10	144	5
NMSI_	10	144	5	96	48	0
NMTAP	10	192	5
NMSTR	10	240	1
NMSI_	10	240	1	96	48	4
NMTAP	10	288	1
NMTAP	10	336	4
NMTAP	11	0	5
NMSTR	11	48	6
NMSI_	11	48	6	96	48	1
NMTAP	11	96	6
NMSTR	11	144	2
NMSI_	11	144	2	96	48	5
NMTAP	11	192	2
NMSTR	11	240	7
NMSI_	11	240	7	96	48	3
NMTAP	11	288	7
NMTAP	11	336	3
NMTAP	12	0	2
NMSTR	12	48	1
NMSI_	12	48	1	96	48	4
NMTAP	12	96	1
NMSTR	12	144	5
NMSI_	12	144	5	96	48	0
NMTAP	12	192	5
NMTAP	12	240	3
NMTAP	12	288	2
NMTAP	12	336	2
NMTAP	13	0	1
NMTAP	13	0	3
NMTAP	13	24	1
NMTAP	13	24	3
NMTAP	13	96	4
NMTAP	13	96	6
NMTAP	13	120	4
NMTAP	13	120	6
NMTAP	13	192	0
NMTAP	13	192	7
NMSTR	13	264	3
NMSXR	13	264	3	96	120	3
NMSTR	13	264	4
NMSXL	13	264	4	96	120	4
EXTAP	13	336	3
EXTAP	13	336	4
NMTTP	14	192	3	B	0	M1
NMTTP	14	192	3	E	0	M1
NMTTP	14	192	3	D	0	M1
NMTTP	14	192	4	B	0	M1
NMTTP	14	192	5	E	0	M1
NMTTP	14	192	5	D	0	M1
NMHLD	14	336	1	768
NMTAP	15	48	3
NMTAP	15	96	3
NMTAP	15	192	2
NMTAP	15	288	0
NMSTR	16	0	0
NMSI_	16	0	0	96	48	3
NMTAP	16	96	0
NMTAP	16	240	4
NMTAP	16	288	5
NMHLD	16	336	6	768
NMTAP	17	48	4
NMTAP	17	96	4
NMTAP	17	192	5
NMSTR	17	288	7
NMSUL	17	288	7	96	144	4
NMTAP	18	240	3
NMTAP	18	288	2
NMHLD	18	336	1	432
NMTAP	19	48	3
NMTAP	19	96	3
NMTAP	19	192	0
NMSTR	19	288	2
BRSXL	19	288	2	96	96	2
NMTAP	20	96	0
NMTAP	20	144	0
EXTAP	20	240	1
EXTAP	20	288	3
EXTAP	20	288	4
EXHLD	20	336	6	336
NMTAP	21	48	5
NMTAP	21	96	5
NMTAP	21	192	7
NMTAP	21	288	4
NMSTR	22	0	3
NMSUL	22	0	3	96	96	4
NMSTR	22	0	4
NMSUR	22	0	4	96	96	3
EXTAP	22	288	2
EXTAP	22	288	5
NMSTR	23	0	1
NMSI_	23	0	1	96	48	7
NMTAP	23	0	3
NMTAP	23	72	1
NMSTR	23	72	6
NMSXR	23	72	6	96	120	2
NMTAP	23	144	6
NMTAP	23	240	0
NMTAP	23	288	0
NMTAP	24	0	4
NMSTR	24	0	6
NMSI_	24	0	6	96	48	0
NMSTR	24	72	1
NMSXL	24	72	1	96	120	5
NMTAP	24	72	6
NMTAP	24	144	1
NMTAP	24	240	7
NMTAP	24	288	7
NMSTR	25	0	6
NMSCL	25	0	6	96	96	2
NMTAP	25	48	0
NMTAP	25	96	0
NMSTR	25	192	1
NMSCR	25	192	1	96	96	5
NMTAP	25	240	7
NMSTR	25	288	7
NMSI_	25	288	7	96	48	1
CNSI_	26	48	1	0	72	5
CNSI_	26	120	5	0	48	3
NMHLD	26	144	2	144
NMTAP	26	240	4
NMTAP	26	288	4
NMSTR	27	0	4
NMSI_	27	0	4	96	48	7
NMTAP	27	0	6
NMSTR	27	72	1
NMSXL	27	72	1	96	120	5
NMTAP	27	72	4
NMTAP	27	144	1
NMTAP	27	240	7
NMTAP	27	288	7
NMTAP	28	0	1
NMSTR	28	0	3
NMSI_	28	0	3	96	48	0
NMTAP	28	72	3
NMSTR	28	72	6
NMSXR	28	72	6	96	120	2
NMTAP	28	144	6
NMTAP	28	240	1
NMTAP	28	288	0
NMSTR	28	336	0
BRSCR	28	336	0	96	48	3
NMTAP	29	48	7
CNSXR	29	96	3	0	96	2
NMTAP	29	96	7
NMTAP	29	192	5
NMTAP	29	288	0
NMTAP	29	288	6
NMTAP	29	336	0
NMTAP	29	336	6
NMTAP	30	0	1
NMTAP	30	24	3
NMTAP	30	72	0
NMTAP	30	72	7
NMTAP	30	120	6
NMTAP	30	144	4
NMTAP	30	192	2
NMTAP	30	192	5
NMSTR	30	288	7
NMSI_	30	288	7	96	48	4
NMSI_	30	288	7	96	48	5
BRSTR	31	0	7
NMSI_	31	0	7	96	48	1
NMSI_	31	0	7	96	48	2
BRSTR	31	96	7
BRSI_	31	96	7	96	48	3
BRTAP	31	192	7
NMTAP	31	288	4
NMTAP	31	336	5
NMSTR	32	0	6
NMSCR	32	0	6	96	48	1
NMSTR	32	48	2
NMSCR	32	48	2	96	48	5
NMTAP	32	96	6
NMTAP	32	144	2
NMTAP	32	240	7
NMSTR	32	288	0
NMSI_	32	288	0	96	48	2
NMSI_	32	288	0	96	48	6
BRSTR	33	0	0
NMSI_	33	0	0	96	48	3
NMSI_	33	0	0	96	48	5
BRSTR	33	96	0
BRSI_	33	96	0	96	48	4
BRTAP	33	192	0
NMSTR	33	288	3
NMSXR	33	288	3	96	144	0
NMSTR	33	288	5
NMSXL	33	288	5	96	144	0
NMTAP	33	336	3
NMTAP	33	336	5
NMSTR	34	240	6
NMSI_	34	240	6	96	48	2
NMSCL	34	240	6	96	48	3
NMTAP	34	288	0
NMTAP	34	288	7
NMSTR	35	48	1
NMSI_	35	48	1	96	48	5
NMSCR	35	48	1	96	48	4
NMTAP	35	96	0
NMTAP	35	96	7
NMSTR	35	240	6
NMSI_	35	240	6	96	48	2
NMSCL	35	240	6	96	48	3
NMTAP	35	288	0
NMTAP	35	288	7
NMSTR	36	48	1
NMSI_	36	48	1	96	48	5
NMTAP	36	96	0
NMTAP	36	96	7
BRHLD	36	192	4	72
BRHLD	36	264	5	72
BRTAP	36	336	7
NMTAP	37	48	0
NMTAP	37	48	1
NMTAP	37	96	2
NMTAP	37	144	3
NMTAP	37	144	5
NMTAP	37	192	6
NMTAP	37	240	0
NMTAP	37	240	7
NMTAP	37	288	1
NMTAP	37	336	2
NMTAP	37	336	3
NMSTR	38	0	1
NMSI_	38	0	1	96	48	5
NMSTR	38	0	4
NMSI_	38	0	4	96	48	7
EXTAP	38	96	1
EXTAP	38	96	4
NMTAP	38	240	1
NMSTR	38	288	0
NMSI_	38	288	0	96	48	4
BRSTR	39	0	0
NMSI_	39	0	0	96	48	2
NMSI_	39	0	0	96	48	6
BRSTR	39	96	0
BRSF_	39	96	0	96	48	4
BRTAP	39	192	0
NMTAP	39	288	3
NMTAP	39	288	5
NMTAP	39	336	6
NMSTR	40	0	7
NMSCL	40	0	7	96	48	4
NMSTR	40	48	0
NMSXL	40	48	0	96	144	3
NMTAP	40	96	7
NMTAP	40	144	0
NMTAP	40	240	6
NMSTR	40	288	7
NMSI_	40	288	7	96	48	3
BRSTR	41	0	7
NMSV_	41	0	7	96	48	1
NMSV_	41	0	7	96	48	5
BRSTR	41	96	7
BRSF_	41	96	7	96	48	3
BRTAP	41	192	7
NMSTR	41	288	2
NMSXL	41	288	2	96	144	7
NMSTR	41	288	4
NMSXR	41	288	4	96	144	7
NMTAP	41	336	1
NMTAP	41	336	5
NMSTR	42	240	1
NMSI_	42	240	1	96	48	5
NMSXL	42	240	1	96	48	3
NMTAP	42	288	0
NMTAP	42	288	7
NMSTR	43	48	6
NMSI_	43	48	6	96	48	2
NMSXR	43	48	6	96	48	4
NMTAP	43	96	0
NMTAP	43	96	7
NMSTR	43	240	1
NMSI_	43	240	1	96	48	5
NMSXL	43	240	1	96	48	3
NMTAP	43	288	0
NMTAP	43	288	7
NMSTR	44	48	6
NMSI_	44	48	6	96	48	2
NMTAP	44	96	0
NMTAP	44	96	7
BRHLD	44	192	3	72
BRHLD	44	264	2	72
BRTAP	44	336	0
NMTAP	45	48	6
NMTAP	45	48	7
NMTAP	45	96	5
NMTAP	45	144	2
NMTAP	45	144	4
NMTAP	45	192	1
NMTAP	45	240	0
NMTAP	45	240	7
NMTAP	45	288	6
NMTAP	45	336	4
NMTAP	45	336	5
NMSTR	46	0	3
NMSI_	46	0	3	96	48	0
NMSTR	46	0	6
NMSI_	46	0	6	96	48	2
EXTAP	46	96	3
EXTAP	46	96	6
NMTAP	46	240	0
NMTAP	46	240	3
NMTAP	46	288	0
NMTAP	46	288	3
NMTAP	47	0	1
NMTAP	47	24	3
NMTAP	47	48	1
NMHLD	47	72	3	216
NMTAP	47	96	0
NMTAP	47	192	0
NMTAP	47	288	0
NMTAP	48	0	6
NMTAP	48	24	4
NMTAP	48	48	6
NMTAP	48	72	4
NMTAP	48	96	6
NMTAP	48	144	1
NMTAP	48	168	3
NMSTR	48	192	1
NMSI_	48	192	1	96	48	5
NMTAP	48	216	3
NMTAP	48	240	1
NMSTR	48	288	6
NMSCR	48	288	6	96	96	1
NMTAP	49	0	3
NMSTR	49	96	2
NMSUL	49	96	2	96	96	5
NMTAP	49	192	3
NMSTR	49	288	4
NMSXL	49	288	4	96	144	3
NMTAP	50	0	3
NMSTR	50	96	2
NMSCL	50	96	2	96	96	5
NMTAP	50	192	5
NMSTR	50	288	4
NMSI_	50	288	4	96	96	7
NMTAP	51	0	2
NMSTR	51	96	3
NMSI_	51	96	3	96	96	0
NMTAP	51	192	5
NMSTR	51	288	4
NMSI_	51	288	4	96	96	0
NMTAP	52	0	2
NMSTR	52	96	1
BRSCR	52	96	1	96	96	7
NMSTR	52	192	7
BRSCR	52	192	7	96	48	0
CNSI_	52	336	0	0	24	4
NMTTP	52	336	4	B	1	M1
BXHLD	52	336	5	528
EXTAP	53	336	1
EXTAP	53	352	2
EXTAP	53	368	3
EXSTR	54	0	4
BRSCR	54	0	4	96	96	3
EXTAP	54	48	1
EXTAP	54	64	2
EXTAP	54	80	3
EXTAP	54	96	4
EXSTR	54	288	4
NMSI_	54	288	4	96	48	0
BRSTR	55	0	4
NMSI_	55	0	4	96	48	2
NMSI_	55	0	4	96	48	6
BRSTR	55	96	4
BRSF_	55	96	4	96	48	0
BRTAP	55	192	4
NMTAP	55	288	1
NMTAP	55	288	7
NMTAP	55	336	2
NMSTR	56	0	3
NMSCL	56	0	3	96	48	0
NMSTR	56	48	4
NMSXL	56	48	4	96	144	7
NMTAP	56	96	3
NMTAP	56	144	4
NMTAP	56	240	2
NMSTR	56	288	3
NMSI_	56	288	3	96	48	7
BRSTR	57	0	3
NMSV_	57	0	3	96	48	1
NMSV_	57	0	3	96	48	5
BRSTR	57	96	3
BRSF_	57	96	3	96	48	7
BRTAP	57	192	3
NMSTR	57	288	0
NMSXR	57	288	0	96	144	3
NMSTR	57	288	6
NMSXL	57	288	6	96	144	3
NMTAP	57	336	1
NMTAP	57	336	5
NMSTR	58	240	5
NMSI_	58	240	5	96	48	1
NMSXL	58	240	5	96	48	7
NMTAP	58	288	3
NMTAP	58	288	4
NMSTR	59	48	2
NMSI_	59	48	2	96	48	6
NMSXR	59	48	2	96	48	0
NMTAP	59	96	3
NMTAP	59	96	4
NMSTR	59	240	5
NMSI_	59	240	5	96	48	1
NMSXL	59	240	5	96	48	7
NMTAP	59	288	3
NMTAP	59	288	4
NMSTR	60	48	2
NMSI_	60	48	2	96	48	6
NMTAP	60	96	3
NMTAP	60	96	4
BRHLD	60	192	7	72
BRHLD	60	264	6	72
BRTAP	60	336	4
NMTAP	61	48	2
NMTAP	61	48	3
NMTAP	61	96	1
NMTAP	61	144	0
NMTAP	61	144	6
NMTAP	61	192	5
NMTAP	61	240	3
NMTAP	61	240	4
NMTAP	61	288	2
NMTAP	61	336	0
NMTAP	61	336	1
NMSTR	62	0	2
NMSI_	62	0	2	96	48	5
NMSTR	62	0	7
NMSI_	62	0	7	96	48	3
EXTAP	62	96	2
EXTAP	62	96	7
BRSTR	62	288	6
NMSI_	62	288	6	96	48	4
BRSTR	62	288	7
NMSI_	62	288	7	96	48	1
BRSTR	63	0	6
NMSI_	63	0	6	96	48	2
BRSTR	63	0	7
NMSI_	63	0	7	96	48	3
BRTAP	63	96	6
BRTAP	63	96	7
NMTAP	63	192	1
NMTAP	63	192	4
NMTAP	63	264	4
NMTAP	63	264	6
NMTAP	63	336	6
NMTAP	63	336	7
EXSTR	64	0	6
NMSCL	64	0	6	96	96	1
EXSTR	64	0	7
NMSUL	64	0	7	96	96	0
BRSTR	64	288	0
NMSI_	64	288	0	96	48	5
BRSTR	64	288	1
NMSI_	64	288	1	96	48	4
BRTAP	65	0	0
BRTAP	65	0	1
NMTAP	65	192	2
NMTAP	65	192	4
NMTAP	65	264	0
NMTAP	65	264	7
NMTAP	65	336	7
NMTAP	65	348	6
NMTAP	65	360	5
NMTAP	65	372	4
NMTAP	66	0	3
NMTAP	66	12	2
NMTAP	66	24	1
NMTAP	66	36	0
NMTAP	66	48	7
NMTAP	66	60	6
NMTAP	66	72	5
NMTAP	66	84	4
NMTAP	66	96	3
NMTAP	66	108	2
NMTAP	66	120	1
NMTAP	66	132	0
NMTAP	66	144	7
NMTAP	66	156	6
NMTAP	66	168	5
NMTAP	66	180	4
NMTTP	66	192	0	C	1	M1
NMTAP	66	192	3
NMTAP	68	0	6
NMTAP	68	24	4
NMTAP	68	72	3
NMTAP	68	72	4
NMTAP	68	120	1
NMTAP	68	144	3
NMTAP	68	192	0
NMTAP	68	192	7
NMTAP	68	264	4
NMTAP	68	264	5
BRTAP	68	336	0
BRTAP	68	336	6
NMTAP	69	48	7
NMTAP	69	96	0
NMTAP	69	144	1
NMTAP	69	192	2
NMTAP	69	192	4
NMTAP	69	240	5
NMTAP	69	264	4
NMTAP	69	312	6
NMTAP	69	336	7
NMTAP	70	0	1
NMTAP	70	24	1
NMTAP	70	48	0
NMTAP	70	96	2
NMTAP	70	96	3
NMTAP	70	144	4
NMTAP	70	192	3
NMTAP	70	192	5
NMTAP	70	240	6
NMTAP	70	264	4
NMTAP	70	312	1
NMTAP	70	336	3
NMTAP	71	0	5
NMTAP	71	24	5
NMTAP	71	48	4
NMTAP	71	96	6
NMTAP	71	96	7
NMTAP	71	144	0
NMSTR	71	192	1
NMSCR	71	192	1	96	48	4
NMHLD	71	192	3	96
EXTAP	71	288	1
NMTAP	72	0	6
NMTAP	72	0	7
NMTAP	72	24	6
NMTAP	72	24	7
NMTAP	72	96	0
NMTAP	72	96	1
NMTAP	72	120	0
NMTAP	72	120	1
NMTAP	72	192	4
NMTAP	72	192	6
NMTAP	72	264	2
NMTAP	72	264	3
BRTAP	72	336	1
BRTAP	72	336	7
NMTAP	73	48	0
NMTAP	73	96	7
NMTAP	73	144	6
NMTAP	73	192	3
NMTAP	73	192	5
NMTAP	73	240	2
NMTAP	73	264	3
NMTAP	73	312	1
NMTAP	73	336	0
NMTAP	74	0	6
NMTAP	74	24	6
NMTAP	74	48	7
NMTAP	74	96	4
NMTAP	74	96	5
NMTAP	74	144	3
NMTAP	74	192	2
NMTAP	74	192	4
NMTAP	74	240	1
NMTAP	74	264	3
NMTAP	74	312	6
NMTAP	74	336	4
NMTAP	75	0	2
NMTAP	75	24	2
NMTAP	75	48	3
NMTAP	75	96	0
NMTAP	75	96	1
NMTAP	75	144	7
NMHLD	75	192	4	96
NMSTR	75	192	6
NMSCL	75	192	6	96	48	3
EXTAP	75	288	6
NMTAP	76	0	0
NMTAP	76	0	1
NMTAP	76	24	0
NMTAP	76	24	1
NMTAP	76	96	6
NMTAP	76	96	7
NMTAP	76	120	6
NMTAP	76	120	7
NMTAP	76	192	3
NMTAP	76	192	4
NMHLD	76	264	2	72
NMHLD	76	264	5	72
BRTAP	77	0	1
BRTAP	77	0	7
BRTAP	77	72	5
BRTAP	77	72	6
BRTAP	77	144	2
BRTAP	77	144	3
BRTAP	77	216	3
BRTAP	77	216	5
BRTAP	77	288	1
BRTAP	77	288	4
NMTAP	78	0	0
NMTAP	78	24	7
NMTAP	78	72	2
NMTAP	78	72	5
NMTAP	78	120	1
NMTAP	78	144	3
NMTAP	78	192	0
NMTAP	78	192	7
NMTAP	78	240	4
NMTAP	78	240	6
NMTAP	78	288	1
NMTAP	78	312	3
EXSTR	79	0	0
NMSI_	79	0	0	96	48	4
EXSTR	79	0	1
NMSI_	79	0	1	96	48	5
BRTAP	79	96	0
BRTAP	79	96	1
NMTTP	80	48	5	E	0	M1
NMTTP	80	64	4	B	0	M1
NMTTP	80	80	3	B	0	M1
NMTTP	80	96	3	E	0	M1

T_REC_TAP	386
T_REC_BRK	31
T_REC_XTP	22
T_REC_BXX	0
T_REC_HLD	9
T_REC_XHO	1
T_REC_BHO	6
T_REC_BXH	1
T_REC_STR	84
T_REC_BST	20
T_REC_XST	6
T_REC_XBS	0
T_REC_TTP	18
T_REC_THO	0
T_REC_SLD	116
T_REC_BSL	11
T_REC_ALL	711
T_NUM_TAP	516
T_NUM_BRK	69
T_NUM_HLD	10
T_NUM_SLD	116
T_NUM_ALL	711
T_JUDGE_TAP	567
T_JUDGE_HLD	87
T_JUDGE_SLD	127
T_JUDGE_ALL	781
TTM_EACHPAIRS	125
TTM_SCR_TAP	258000
TTM_SCR_BRK	179400
TTM_SCR_HLD	10000
TTM_SCR_SLD	174000
TTM_SCR_ALL	621400
TTM_SCR_S	596100
TTM_SCR_SS	614500
TTM_RAT_ACV	10112

