VERSION	0.00.00	1.04.00
FES_MODE	0
BPM_DEF	156.000	156.000	156.000	156.000
MET_DEF	4	4
RESOLUTION	384
CLK_DEF	384
COMPATIBLE_CODE	MA2

BPM	0	0	156.000
MET	0	0	4	4

NMTTP	1	192	0	C	1	M1
NMTTP	1	192	2	B	0	M1
NMTTP	1	192	3	B	0	M1
NMTTP	1	192	4	B	0	M1
NMTTP	1	192	5	B	0	M1
NMTAP	2	0	0
NMTAP	2	0	7
NMTAP	2	96	3
NMTAP	2	96	4
EXTAP	2	192	1
EXTAP	2	192	5
EXTAP	2	264	1
EXTAP	2	264	5
EXSTR	2	336	1
NMSCR	2	336	1	96	72	4
EXSTR	2	336	5
NMSCR	2	336	5	96	72	0
BXTAP	3	192	3
BXTAP	3	192	7
NMHLD	5	0	3	96
NMHLD	5	0	4	96
EXTAP	5	192	1
EXTAP	5	192	6
BXTAP	5	336	3
BXTAP	5	336	5
NMTAP	6	96	0
NMTAP	6	192	2
NMTAP	6	192	4
NMTAP	6	288	7
NMTAP	7	0	4
NMTAP	7	0	5
NMTAP	7	96	0
NMTAP	7	192	2
NMTAP	7	192	3
NMTAP	7	288	7
NMTAP	8	0	3
NMTAP	8	0	5
NMTAP	8	96	0
NMTAP	8	192	2
NMTAP	8	192	4
NMTAP	8	288	7
NMTAP	9	0	4
NMTAP	9	0	5
NMTAP	9	96	2
NMTAP	9	96	3
EXTAP	9	192	0
EXTAP	9	192	6
EXTAP	9	264	1
EXTAP	9	264	5
BXTAP	9	336	2
BXTAP	9	336	4
NMTAP	10	96	7
NMTAP	10	192	3
NMTAP	10	192	5
NMTAP	10	288	0
NMTAP	11	0	2
NMTAP	11	0	3
NMTAP	11	96	7
NMTAP	11	192	4
NMTAP	11	192	5
NMTAP	11	288	0
NMTAP	12	0	2
NMTAP	12	0	4
NMTAP	12	96	7
NMTAP	12	192	3
NMTAP	12	192	5
NMTAP	12	288	0
NMTAP	13	0	2
NMTAP	13	0	3
NMTAP	13	96	4
NMTAP	13	96	5
EXTAP	13	192	1
EXTAP	13	192	7
EXTAP	13	264	2
EXTAP	13	264	6
EXSTR	13	336	3
NMSI_	13	336	3	96	48	0
EXSTR	13	336	5
NMSI_	13	336	5	96	48	0
BXTAP	14	192	1
BXTAP	14	192	7
EXHLD	14	336	2	576
NMTAP	15	96	3
NMTAP	15	192	3
NMTAP	15	288	3
NMTAP	16	0	4
NMTAP	16	96	5
NMHLD	16	144	5	768
NMTAP	16	288	4
NMTAP	17	0	4
NMTAP	17	96	4
NMTAP	17	192	3
NMTAP	17	288	3
NMTAP	18	0	2
NMTAP	18	96	1
NMHLD	18	144	1	768
NMTAP	18	288	3
NMTAP	19	0	3
NMTAP	19	96	2
NMTAP	19	192	2
NMTAP	19	288	0
NMTAP	20	0	7
NMTAP	20	96	6
NMHLD	20	144	6	912
NMTAP	20	288	3
NMTAP	21	0	3
NMTAP	21	96	4
NMTAP	21	192	4
NMTAP	21	288	5
NMSTR	22	0	7
NMSUL	22	0	7	96	192	0
NMTTP	23	0	7	E	0	M1
NMTTP	23	72	6	E	0	M1
NMTTP	23	144	5	E	0	M1
NMTAP	23	288	3
NMTAP	23	288	4
NMTTP	24	0	3	E	0	M1
NMTTP	24	72	2	E	0	M1
NMTTP	24	144	1	E	0	M1
NMTAP	24	288	0
NMTAP	24	288	7
NMSTR	25	0	1
NMSUR	25	0	1	96	96	5
NMSTR	25	192	6
NMSUR	25	192	6	96	96	2
NMSTR	26	0	3
NMSCR	26	0	3	96	192	0
NMTTP	27	0	1	E	0	M1
NMTTP	27	72	2	E	0	M1
NMTTP	27	144	3	E	0	M1
NMTAP	27	288	3
NMTAP	27	288	4
NMTTP	28	0	5	E	0	M1
NMTTP	28	72	6	E	0	M1
NMTTP	28	144	7	E	0	M1
NMTAP	28	288	0
NMTAP	28	288	7
EXTAP	28	336	0
EXTAP	28	336	7
NMTAP	29	48	6
NMTAP	29	48	7
NMTAP	29	96	6
NMTAP	29	96	7
NMTAP	29	192	4
NMTAP	29	192	5
NMTAP	29	288	3
NMTAP	29	288	4
NMSTR	30	0	2
NMSI_	30	0	2	96	48	6
NMSTR	30	0	3
NMSI_	30	0	3	96	48	7
BRTAP	30	192	0
BRTAP	30	192	5
EXSTR	31	0	1
NMSI_	31	0	1	96	48	4
EXSTR	31	96	0
NMSI_	31	96	0	96	48	5
EXSTR	31	192	1
NMSI_	31	192	1	96	48	4
NMTAP	32	0	5
NMTAP	32	96	1
NMTAP	32	96	7
NMTAP	32	144	1
NMTAP	32	144	7
NMTAP	32	240	2
NMTAP	32	240	3
NMTAP	32	288	2
NMTAP	32	288	3
EXSTR	33	0	6
NMSI_	33	0	6	96	48	3
EXSTR	33	96	7
NMSI_	33	96	7	96	48	2
EXSTR	33	192	6
NMSI_	33	192	6	96	48	3
NMTAP	34	0	2
NMTAP	34	96	3
NMTAP	34	96	5
NMTAP	34	144	3
NMTAP	34	144	5
NMTAP	34	240	5
NMTAP	34	288	4
NMHLD	34	336	3	192
NMTAP	35	48	2
NMTAP	35	96	2
NMHLD	35	144	2	192
NMTAP	35	240	0
NMTAP	35	288	0
NMHLD	35	336	0	144
NMTAP	36	48	7
NMTAP	36	96	7
EXTAP	36	192	4
EXTAP	36	192	6
EXTAP	36	264	4
EXTAP	36	264	6
EXTAP	36	336	4
EXTAP	36	336	6
NMTAP	37	48	4
NMTAP	37	48	5
NMTAP	37	96	4
NMTAP	37	96	5
NMTAP	37	192	6
NMTAP	37	192	7
NMTAP	37	288	0
NMTAP	37	288	2
BRSTR	38	0	3
BRSI_	38	0	3	96	48	7
BRSTR	38	0	4
BRSI_	38	0	4	96	48	0
EXTAP	38	288	2
EXTAP	38	288	5
EXSTR	39	0	6
NMSI_	39	0	6	96	48	3
EXSTR	39	96	7
NMSI_	39	96	7	96	48	2
EXSTR	39	192	6
NMSI_	39	192	6	96	48	3
NMTAP	40	0	2
NMTAP	40	96	0
NMTAP	40	96	6
NMTAP	40	144	0
NMTAP	40	144	6
NMTAP	40	240	4
NMTAP	40	240	5
NMTAP	40	288	4
NMTAP	40	288	5
EXSTR	41	0	1
NMSI_	41	0	1	96	48	4
EXSTR	41	96	0
NMSI_	41	96	0	96	48	5
EXSTR	41	192	1
NMSI_	41	192	1	96	48	4
NMTAP	42	0	5
NMTAP	42	96	2
NMTAP	42	96	4
NMTAP	42	144	2
NMTAP	42	144	4
NMTAP	42	240	2
NMTAP	42	288	3
NMHLD	42	336	4	192
NMTAP	43	48	5
NMTAP	43	96	5
NMHLD	43	144	5	192
NMTAP	43	240	7
NMTAP	43	288	7
NMHLD	43	336	7	144
NMTAP	44	48	0
NMTAP	44	96	0
EXTAP	44	192	1
EXTAP	44	192	3
EXTAP	44	264	1
EXTAP	44	264	3
EXTAP	44	336	1
EXTAP	44	336	3
NMTAP	45	48	2
NMTAP	45	48	3
NMTAP	45	96	2
NMTAP	45	96	3
NMTAP	45	192	0
NMTAP	45	192	1
NMTAP	45	288	5
NMTAP	45	288	7
BRSTR	46	0	3
BRSI_	46	0	3	96	48	7
BRSTR	46	0	4
BRSI_	46	0	4	96	48	0
NMTTP	46	288	3	B	0	M1
NMTTP	46	288	3	E	0	M1
NMTTP	46	288	4	B	0	M1
NMTTP	46	288	5	E	0	M1
NMTAP	47	0	0
NMTAP	47	0	7
NMTAP	47	48	0
NMTAP	47	48	7
NMTAP	48	0	0
NMTAP	48	0	3
NMTAP	48	48	0
NMTAP	48	48	3
NMTAP	48	144	4
NMTAP	48	144	7
NMTAP	48	192	4
NMTAP	48	192	7
NMTAP	48	288	3
NMTAP	48	288	4
NMTTP	49	0	6	B	0	M1
NMTTP	49	0	6	A	0	M1
NMTTP	49	0	7	B	0	M1
NMTTP	49	0	7	E	1	M1
NMTTP	49	0	7	A	0	M1
NMTTP	49	0	7	D	0	M1
NMTTP	49	192	2	B	0	M1
NMTTP	49	192	2	A	0	M1
NMTTP	49	192	3	B	0	M1
NMTTP	49	192	3	E	1	M1
NMTTP	49	192	3	A	0	M1
NMTTP	49	192	3	D	0	M1
NMTTP	50	0	4	B	0	M1
NMTTP	50	0	4	A	0	M1
NMTTP	50	0	5	B	0	M1
NMTTP	50	0	5	E	1	M1
NMTTP	50	0	5	A	0	M1
NMTTP	50	0	5	D	0	M1
NMTTP	50	192	0	B	0	M1
NMTTP	50	192	0	A	0	M1
NMTTP	50	192	1	B	0	M1
NMTTP	50	192	1	E	1	M1
NMTTP	50	192	1	A	0	M1
NMTTP	50	192	1	D	0	M1
NMTAP	51	0	4
NMTAP	51	96	5
NMTAP	51	192	6
NMTAP	51	288	7
NMTAP	52	0	0
NMTAP	52	96	1
NMHLD	52	192	2	72
NMHLD	52	192	3	72
BRTAP	52	336	0
BRTAP	52	336	5
NMSTR	54	0	3
BRSI_	54	0	3	96	48	7
NMSTR	54	0	4
BRSI_	54	0	4	96	48	0
EXTAP	54	288	2
EXTAP	54	288	5
EXSTR	55	0	1
NMSI_	55	0	1	96	48	4
EXSTR	55	96	0
NMSI_	55	96	0	96	48	5
EXSTR	55	192	1
NMSI_	55	192	1	96	48	4
EXTAP	55	288	5
NMTAP	56	0	6
NMTAP	56	48	6
NMTAP	56	96	1
NMTAP	56	96	7
NMTAP	56	144	1
NMTAP	56	144	7
NMTAP	56	240	2
NMTAP	56	240	3
NMTAP	56	288	2
NMTAP	56	288	3
EXSTR	57	0	6
NMSI_	57	0	6	96	48	3
EXSTR	57	96	7
NMSI_	57	96	7	96	48	2
EXSTR	57	192	6
NMSI_	57	192	6	96	48	3
EXTAP	57	288	1
NMTAP	58	0	2
NMTAP	58	48	2
NMTAP	58	96	3
NMTAP	58	96	5
NMTAP	58	144	3
NMTAP	58	144	5
NMTAP	58	240	5
NMTAP	58	288	4
NMHLD	58	336	3	192
NMTAP	59	48	2
NMTAP	59	96	2
NMHLD	59	144	2	192
NMTAP	59	240	0
NMTAP	59	288	0
NMHLD	59	336	0	144
NMTAP	60	48	6
NMTAP	60	96	6
EXTAP	60	192	3
EXTAP	60	192	5
EXTAP	60	264	3
EXTAP	60	264	5
EXTAP	60	336	3
EXTAP	60	336	5
NMTAP	61	48	5
NMTAP	61	48	6
NMTAP	61	96	5
NMTAP	61	96	6
NMTAP	61	192	0
NMTAP	61	192	7
NMTAP	61	288	1
NMTAP	61	288	2
BRSTR	62	0	3
BRSI_	62	0	3	96	48	7
BRSTR	62	0	4
BRSI_	62	0	4	96	48	0
NMTTP	62	288	3	B	0	M1
NMTTP	62	288	3	E	0	M1
NMTTP	62	288	4	B	0	M1
NMTTP	62	288	5	E	0	M1
NMTAP	63	0	6
NMTAP	63	0	7
NMTAP	63	96	0
NMTAP	63	96	1
EXTAP	63	192	2
EXTAP	63	192	4
EXTAP	63	264	2
EXTAP	63	264	4
EXSTR	63	336	2
NMSCL	63	336	2	96	240	3
EXTAP	63	336	4
NMTTP	64	96	0	C	1	M1
NMHLD	65	0	2	96
NMHLD	65	0	4	96
EXTAP	65	192	1
EXTAP	65	192	5
EXTAP	65	264	1
EXTAP	65	264	5
EXSTR	65	336	1
NMSCR	65	336	1	96	72	4
EXSTR	65	336	5
NMSCR	65	336	5	96	72	0
BXTAP	66	192	3
BXTAP	66	192	7
NMHLD	68	0	3	96
NMHLD	68	0	4	96
EXTAP	68	192	1
EXTAP	68	192	6
BXTAP	68	336	3
BXTAP	68	336	5
NMTAP	69	96	0
NMTAP	69	96	7
NMTAP	69	192	2
NMTAP	69	192	4
NMTAP	69	288	0
NMTAP	69	288	7
NMTAP	70	0	3
NMTAP	70	0	5
NMTAP	70	96	0
NMTAP	70	96	1
NMTAP	70	192	2
NMTAP	70	192	4
NMTAP	70	288	6
NMTAP	70	288	7
NMTAP	71	0	4
NMTAP	71	0	5
NMTAP	71	96	1
NMTAP	71	96	7
NMTAP	71	192	2
NMTAP	71	192	3
NMTAP	71	288	0
NMTAP	71	288	6
NMTAP	72	0	4
NMTAP	72	0	5
NMTAP	72	96	2
NMTAP	72	96	3
EXTAP	72	192	0
EXTAP	72	192	6
EXTAP	72	264	1
EXTAP	72	264	5
BXTAP	72	336	2
BXTAP	72	336	4
NMTAP	73	96	0
NMTAP	73	96	7
NMTAP	73	192	3
NMTAP	73	192	5
NMTAP	73	288	0
NMTAP	73	288	7
NMTAP	74	0	2
NMTAP	74	0	4
NMTAP	74	96	6
NMTAP	74	96	7
NMTAP	74	192	3
NMTAP	74	192	5
NMTAP	74	288	0
NMTAP	74	288	1
NMTAP	75	0	2
NMTAP	75	0	3
NMTAP	75	96	0
NMTAP	75	96	6
NMTAP	75	192	4
NMTAP	75	192	5
NMTAP	75	288	1
NMTAP	75	288	7
NMTAP	76	0	2
NMTAP	76	0	3
NMTAP	76	96	4
NMTAP	76	96	5
EXTAP	76	192	0
EXTAP	76	192	6
BXTAP	76	264	0
BXTAP	76	264	6
EXHLD	77	0	1	72
EXHLD	77	72	0	72
EXHLD	77	144	7	72
EXHLD	77	216	6	72
NMSTR	77	288	5
NMSSR	77	288	5	96	96	1
CNSCL	78	96	1	0	96	6
CNSI_	78	192	6	0	96	4
CNSCL	78	288	4	0	96	2
BXHLD	79	96	1	384
BXHLD	79	96	6	384

T_REC_TAP	252
T_REC_BRK	4
T_REC_XTP	57
T_REC_BXX	16
T_REC_HLD	20
T_REC_XHO	5
T_REC_BHO	0
T_REC_BXH	2
T_REC_STR	9
T_REC_BST	6
T_REC_XST	25
T_REC_XBS	0
T_REC_TTP	50
T_REC_THO	0
T_REC_SLD	32
T_REC_BSL	8
T_REC_ALL	486
T_NUM_TAP	393
T_NUM_BRK	36
T_NUM_HLD	25
T_NUM_SLD	32
T_NUM_ALL	486
T_JUDGE_TAP	419
T_JUDGE_HLD	136
T_JUDGE_SLD	40
T_JUDGE_ALL	595
TTM_EACHPAIRS	140
TTM_SCR_TAP	196500
TTM_SCR_BRK	93600
TTM_SCR_HLD	25000
TTM_SCR_SLD	48000
TTM_SCR_ALL	363100
TTM_SCR_S	348750
TTM_SCR_SS	359500
TTM_RAT_ACV	10100

