VERSION	0.00.00	1.04.00
FES_MODE	0
BPM_DEF	150.000	150.000	150.000	150.000
MET_DEF	4	4
RESOLUTION	384
CLK_DEF	384
COMPATIBLE_CODE	MA2

BPM	0	0	150.000
MET	0	0	4	4

NMTTP	1	0	0	B	0	M1
NMTTP	1	48	1	B	0	M1
NMTTP	1	96	2	B	0	M1
NMTTP	1	144	3	B	0	M1
NMTTP	1	192	4	B	0	M1
NMTTP	1	240	5	B	0	M1
NMTTP	1	288	6	B	0	M1
NMTTP	1	336	7	B	0	M1
EXSTR	2	0	0
NMSSL	2	0	0	96	48	4
EXHLD	2	192	4	96
EXHLD	2	192	5	96
NMHLD	3	0	2	768
NMTAP	3	96	3
NMTAP	3	288	3
NMTAP	4	96	3
NMTAP	4	288	3
NMHLD	5	0	5	480
NMTAP	5	96	4
NMTAP	5	288	4
NMSTR	6	96	4
NMSI_	6	96	4	96	48	0
NMSI_	6	96	4	96	48	7
BRTAP	6	288	1
BRTAP	6	288	6
NMTAP	7	0	3
NMSTR	7	0	5
NMSI_	7	0	5	96	48	0
NMTAP	7	48	3
NMTAP	7	96	5
NMHLD	7	120	4	96
EXTAP	7	168	0
EXTAP	7	216	7
EXTAP	7	264	3
EXTAP	7	264	6
EXTAP	7	288	3
EXTAP	7	288	6
EXTAP	7	336	5
NMSTR	8	0	2
NMSI_	8	0	2	96	48	7
NMTAP	8	0	4
NMTAP	8	48	4
NMTAP	8	96	2
NMHLD	8	120	3	96
EXTAP	8	168	7
EXTAP	8	216	0
EXTAP	8	264	1
EXTAP	8	264	4
EXTAP	8	288	1
EXTAP	8	288	4
EXTAP	8	336	5
NMTAP	9	0	2
NMTAP	9	0	4
NMTAP	9	48	3
NMTAP	9	96	2
NMTAP	9	144	4
NMTAP	9	192	3
NMTAP	9	192	5
NMTAP	9	240	4
NMTAP	9	288	6
NMTAP	9	336	4
NMTAP	10	0	3
NMTAP	10	0	5
NMSTR	10	96	1
NMSSR	10	96	1	96	96	5
NMSTR	10	96	6
NMSSL	10	96	6	96	96	2
NMHLD	11	0	2	96
NMTAP	11	96	3
NMHLD	11	144	2	144
NMTTP	11	240	3	E	0	M1
NMTTP	11	288	2	E	0	M1
NMHLD	12	0	5	96
NMTAP	12	96	4
NMHLD	12	144	5	144
NMTTP	12	240	5	B	1	M1
NMHLD	13	0	2	96
NMTAP	13	96	3
NMHLD	13	144	2	144
NMTTP	13	240	3	E	0	M1
NMTTP	13	288	2	E	0	M1
NMTAP	14	0	0
NMTAP	14	48	0
NMTAP	14	96	1
NMHLD	14	144	2	96
NMTAP	14	240	3
NMTAP	14	288	4
NMTAP	14	336	4
NMHLD	15	0	5	96
NMTAP	15	96	4
NMTAP	15	144	5
NMHLD	15	144	6	144
NMTTP	15	240	7	E	0	M1
NMTTP	15	288	6	E	0	M1
NMHLD	16	0	2	96
NMTAP	16	96	3
NMHLD	16	144	1	144
NMTAP	16	144	2
NMTTP	16	240	1	E	0	M1
NMTTP	16	288	2	E	0	M1
NMTAP	17	0	2
NMTAP	17	0	3
NMTAP	17	96	4
NMTAP	17	96	6
NMTAP	17	192	1
NMTAP	17	192	3
NMTAP	17	288	0
NMTAP	17	288	4
NMSTR	17	336	2
NMSI_	17	336	2	96	144	5
NMSTR	17	336	6
NMSI_	17	336	6	96	144	1
NMTTP	18	288	0	C	0	M1
EXHLD	19	0	0	48
EXHLD	19	0	7	48
NMSTR	19	96	1
NMSCR	19	96	1	96	96	4
NMTAP	19	144	1
EXHLD	20	0	4	48
EXHLD	20	0	5	48
NMSTR	20	96	6
NMSCL	20	96	6	96	96	3
NMTAP	20	144	6
NMSTR	21	0	1
NMSI_	21	0	1	96	48	6
NMSTR	21	96	5
NMSI_	21	96	5	96	48	2
EXHLD	21	288	0	48
EXHLD	21	288	1	48
NMSTR	22	0	7
NMSI_	22	0	7	96	48	3
NMSTR	22	96	0
NMSI_	22	96	0	96	48	4
NMTAP	22	288	3
NMTAP	22	288	5
NMSTR	23	0	2
NMSCR	23	0	2	96	96	5
NMSTR	23	96	5
NMSLR	23	96	5	96	144	3
NMSTR	24	0	5
NMSCL	24	0	5	96	96	2
NMSTR	24	96	2
NMSLL	24	96	2	96	144	4
NMSTR	25	0	1
NMSUL	25	0	1	96	96	5
NMSTR	25	96	5
NMSUL	25	96	5	96	96	1
NMTAP	25	192	7
NMSTR	25	240	7
NMSI_	25	240	7	96	96	3
NMTAP	25	336	0
NMSTR	26	48	0
NMSI_	26	48	0	96	96	4
CNSI_	26	48	3	0	96	7
CNSI_	26	240	4	0	96	0
NMHLD	27	0	5	96
NMTAP	27	96	4
NMHLD	27	192	2	96
NMTAP	27	288	3
NMTAP	28	0	4
NMTAP	28	48	3
NMTAP	28	48	5
NMSTR	28	96	2
NMSI_	28	96	2	96	48	7
NMSTR	28	96	6
NMSI_	28	96	6	96	48	3
NMTTP	28	204	3	E	0	M1
NMTTP	28	204	7	E	0	M1
NMTTP	28	216	0	C	0	M1
BRTAP	28	288	1
BRTAP	28	288	5
NMSTR	29	0	0
NMSI_	29	0	0	96	48	4
NMTAP	29	0	7
NMTAP	29	48	6
NMTAP	29	72	6
NMSTR	29	96	0
NMSCR	29	96	0	96	48	3
NMTAP	29	144	5
NMTAP	29	168	5
NMTAP	29	192	0
NMTAP	29	288	6
NMTAP	29	336	4
NMTAP	30	0	3
NMSTR	30	0	7
NMSI_	30	0	7	96	48	3
NMTAP	30	48	2
NMTAP	30	96	1
NMSTR	30	96	7
NMSCL	30	96	7	96	48	4
NMTAP	30	144	0
NMTAP	30	168	0
NMSTR	30	192	7
NMSF_	30	192	7	96	48	3
NMTAP	31	0	1
NMTAP	31	48	0
NMTAP	31	48	2
NMTAP	31	96	3
NMTAP	31	144	2
NMTAP	31	144	4
NMTAP	31	192	6
NMTAP	31	240	5
NMTAP	31	240	7
NMTAP	31	288	4
NMTAP	31	336	3
NMTAP	31	336	5
EXHLD	32	0	1	72
NMHLD	32	72	2	72
NMTAP	32	144	3
NMTAP	32	192	3
NMTAP	32	192	4
NMTAP	32	288	4
NMTAP	32	312	3
NMTAP	32	336	4
NMTAP	32	360	3
BXSTR	33	0	4
NMSCR	33	0	4	96	96	2
NMTAP	33	96	2
NMTAP	33	144	2
BXSTR	33	192	3
NMSCL	33	192	3	96	96	5
NMTAP	33	288	5
NMTAP	33	336	5
BXSTR	34	0	4
NMSCR	34	0	4	96	96	2
NMTAP	34	96	2
NMTAP	34	144	2
BXSTR	34	192	3
NMSCL	34	192	3	96	96	5
NMTAP	34	288	5
NMTAP	34	336	5
NMTAP	35	0	4
NMTAP	35	48	3
NMTAP	35	96	2
NMTAP	35	96	4
NMTAP	35	144	3
NMTAP	35	192	4
NMTAP	35	240	5
NMTAP	35	288	4
NMTAP	35	288	6
NMTAP	35	336	5
NMTAP	36	0	2
NMTAP	36	0	6
NMTAP	36	48	4
NMTAP	36	96	1
NMTAP	36	96	7
NMTAP	36	144	5
NMSTR	36	192	0
BRSI_	36	192	0	96	48	3
BRSSL	36	192	0	96	48	4
NMTAP	36	192	1
BRTAP	36	288	0
NMTAP	37	0	2
NMSTR	37	0	5
NMSI_	37	0	5	96	48	1
NMTAP	37	48	3
NMTAP	37	96	5
NMHLD	37	120	4	96
EXTAP	37	168	1
EXTAP	37	216	0
EXTAP	37	264	3
EXTAP	37	264	7
EXTAP	37	288	3
EXTAP	37	288	7
EXTAP	37	336	1
EXTAP	37	336	5
NMSTR	38	0	2
NMSI_	38	0	2	96	48	6
NMTAP	38	0	6
NMTAP	38	48	4
NMTAP	38	96	2
NMHLD	38	120	3	96
EXTAP	38	168	6
EXTAP	38	216	7
EXTAP	38	264	0
EXTAP	38	264	4
EXTAP	38	288	0
EXTAP	38	288	4
EXTAP	38	336	2
EXTAP	38	336	6
NMSTR	39	0	1
NMSCR	39	0	1	96	48	4
NMTAP	39	48	1
NMSTR	39	96	6
NMSI_	39	96	6	96	48	2
NMTAP	39	144	6
NMSTR	39	192	0
NMSCL	39	192	0	96	48	5
NMTAP	39	240	0
NMSTR	39	288	4
NMSI_	39	288	4	96	48	0
NMTAP	39	336	4
NMTAP	40	0	3
NMTAP	40	48	3
NMSTR	40	96	2
NMSV_	40	96	2	96	48	7
NMSTR	40	96	4
NMSV_	40	96	4	96	48	7
NMTAP	40	144	2
NMTAP	40	144	4
BRTAP	40	288	0
BRTAP	40	288	6
NMTAP	41	0	0
NMSTR	41	0	7
NMSI_	41	0	7	96	48	3
NMTAP	41	48	1
NMTAP	41	72	1
NMSTR	41	96	7
NMSCL	41	96	7	96	48	4
NMTAP	41	144	2
NMTAP	41	168	2
NMTAP	41	192	7
NMTAP	41	288	1
NMTAP	41	336	3
NMSTR	42	0	0
NMSI_	42	0	0	96	48	4
NMTAP	42	0	4
NMTAP	42	48	5
NMSTR	42	96	0
NMSCR	42	96	0	96	48	3
NMTAP	42	96	6
NMTAP	42	144	7
NMTAP	42	168	7
NMSTR	42	192	0
NMSF_	42	192	0	96	48	4
EXTAP	43	0	0
EXHLD	43	0	2	96
NMTAP	43	96	3
NMTAP	43	144	4
EXHLD	43	192	5	96
EXTAP	43	192	7
NMTAP	43	288	4
NMTAP	43	336	3
NMSTR	44	0	2
NMSI_	44	0	2	96	48	6
NMSTR	44	0	4
NMSI_	44	0	4	96	48	0
NMSTR	44	96	2
NMSCR	44	96	2	96	96	5
NMSTR	44	96	4
NMSCL	44	96	4	96	96	1
NMTAP	45	0	5
NMHLD	45	48	5	384
NMTAP	45	144	4
NMTAP	45	240	4
NMTAP	45	336	6
NMTAP	46	48	6
EXHLD	46	96	6	48
EXHLD	46	96	7	48
NMTAP	46	192	5
NMTAP	46	240	4
NMTAP	46	288	3
NMTAP	47	0	2
NMHLD	47	48	2	384
NMTAP	47	144	3
NMTAP	47	240	3
NMTAP	47	336	1
NMTAP	48	48	1
EXHLD	48	96	0	48
EXHLD	48	96	1	48
NMTAP	48	192	2
EXHLD	48	288	7	0
EXHLD	48	312	6	0
EXHLD	48	336	5	0
EXHLD	48	360	4	0
EXHLD	49	0	2	48
EXHLD	49	0	3	48
EXHLD	49	96	2	0
EXHLD	49	144	1	0
EXHLD	49	192	0	0
EXHLD	49	240	6	0
EXHLD	49	264	7	0
EXHLD	49	312	6	24
EXHLD	49	312	7	24
EXHLD	50	0	3	48
EXHLD	50	0	4	48
EXHLD	50	96	4	0
EXHLD	50	144	5	0
EXHLD	50	192	6	0
EXHLD	50	240	7	0
EXHLD	50	264	0	72
EXHLD	50	264	7	72
NMTAP	51	0	2
NMSTR	51	48	2
NMSCL	51	48	2	96	48	7
NMSTR	51	144	6
NMSCL	51	144	6	96	48	3
NMSTR	51	240	1
NMSCL	51	240	1	96	48	6
NMSTR	51	336	5
NMSCL	51	336	5	96	48	2
NMSTR	52	48	0
NMSI_	52	48	0	96	48	4
NMTAP	52	96	0
NMTAP	52	144	0
NMSTR	52	240	3
NMSI_	52	240	3	96	48	7
NMTAP	52	288	3
NMTAP	52	336	3
NMHLD	53	48	0	48
NMHLD	53	48	6	48
NMHLD	53	144	2	48
NMHLD	53	144	4	48
NMHLD	53	240	0	48
NMHLD	53	240	1	48
NMHLD	53	336	4	48
NMHLD	53	336	5	48
NMTHO	54	192	0	480	C	0	M1
NMTTP	55	48	0	B	0	M1
NMTTP	55	48	7	B	0	M1
NMTTP	55	192	0	E	0	M1
NMTTP	55	192	7	A	0	M1
NMTAP	56	0	0
NMTAP	56	48	0
NMSTR	56	96	0
NMSF_	56	96	0	96	48	4
NMTAP	56	288	2
NMTAP	56	288	6
NMHLD	57	0	0	288
NMSTR	57	0	1
NMSCR	57	0	1	96	192	5
NMSTR	58	0	5
NMSCL	58	0	5	96	192	1
NMHLD	58	0	6	288
NMSTR	59	0	3
NMSCR	59	0	3	96	192	7
NMSTR	59	0	4
NMSCL	59	0	4	96	192	0
NMTAP	60	0	0
NMTAP	60	0	7
NMSTR	60	48	0
NMSI_	60	48	0	96	48	4
NMSTR	60	48	7
NMSI_	60	48	7	96	48	3
NMTAP	60	144	0
NMTAP	60	144	7
NMTAP	60	288	3
NMTAP	60	288	5
NMTAP	60	336	2
NMTAP	60	336	4
BXTAP	61	0	3
BXSTR	61	0	4
NMSCR	61	0	4	96	96	2
NMTAP	61	96	1
NMTAP	61	144	2
BXSTR	61	192	3
NMSCL	61	192	3	96	96	5
NMTAP	61	288	5
NMTAP	61	336	4
BXSTR	62	0	3
NMSCR	62	0	3	96	96	2
NMTAP	62	96	2
NMTAP	62	144	3
BXSTR	62	192	4
NMSCL	62	192	4	96	96	5
NMTAP	62	288	6
NMTAP	62	336	5
NMTAP	63	0	4
NMTAP	63	48	3
NMTAP	63	96	0
NMTAP	63	96	2
NMTAP	63	144	1
NMTAP	63	192	0
NMTAP	63	240	7
NMTAP	63	288	4
NMTAP	63	288	6
NMTAP	63	336	5
NMTAP	64	0	2
NMTAP	64	0	6
NMTAP	64	48	3
NMTAP	64	48	4
NMTAP	64	96	1
NMTAP	64	96	7
NMTAP	64	144	4
NMTAP	64	144	5
NMSTR	64	192	0
BRSI_	64	192	0	96	48	3
BRSSL	64	192	0	96	48	4
NMTAP	64	192	1
BRTAP	64	288	0
NMTAP	65	0	2
NMSTR	65	0	5
NMSI_	65	0	5	96	48	1
NMTAP	65	48	3
NMTAP	65	96	5
NMHLD	65	120	4	96
EXTAP	65	168	1
EXTAP	65	216	0
EXTAP	65	264	3
EXTAP	65	264	7
EXTAP	65	288	3
EXTAP	65	288	7
EXTAP	65	336	1
EXTAP	65	336	5
NMSTR	66	0	2
NMSI_	66	0	2	96	48	6
NMTAP	66	0	6
NMTAP	66	48	4
NMTAP	66	96	2
NMHLD	66	120	3	96
EXTAP	66	168	6
EXTAP	66	216	7
EXTAP	66	264	0
EXTAP	66	264	4
EXTAP	66	288	0
EXTAP	66	288	4
EXTAP	66	336	2
EXTAP	66	336	6
NMSTR	67	0	1
NMSCR	67	0	1	96	48	4
NMTAP	67	48	1
NMSTR	67	96	6
NMSI_	67	96	6	96	48	2
NMTAP	67	144	6
NMSTR	67	192	0
NMSCL	67	192	0	96	48	5
NMTAP	67	240	0
NMSTR	67	288	4
NMSI_	67	288	4	96	48	0
NMTAP	67	336	4
NMTAP	68	0	3
NMTAP	68	48	3
NMSTR	68	96	2
NMSV_	68	96	2	96	48	7
NMSTR	68	96	4
NMSV_	68	96	4	96	48	7
NMTAP	68	144	2
NMTAP	68	144	4
BRTAP	68	288	0
BRTAP	68	288	6
NMSTR	69	0	0
NMSI_	69	0	0	96	48	4
NMTAP	69	0	7
NMTAP	69	48	6
NMTAP	69	72	6
NMSTR	69	96	0
NMSCR	69	96	0	96	48	3
NMTAP	69	144	5
NMTAP	69	168	5
NMTAP	69	192	0
NMTAP	69	288	6
NMTAP	69	336	4
NMTAP	70	0	3
NMSTR	70	0	7
NMSI_	70	0	7	96	48	3
NMTAP	70	48	2
NMTAP	70	96	1
NMSTR	70	96	7
NMSCL	70	96	7	96	48	4
NMTAP	70	144	0
NMTAP	70	168	0
NMSTR	70	192	7
NMSF_	70	192	7	96	48	3
EXTAP	71	0	0
EXHLD	71	0	2	96
NMTAP	71	96	3
NMTAP	71	144	4
EXHLD	71	192	5	96
EXTAP	71	192	7
NMTAP	71	288	4
NMTAP	71	336	3
NMSTR	72	0	2
NMSCL	72	0	2	96	48	7
NMSTR	72	96	6
NMSCR	72	96	6	96	48	1
BRTAP	72	288	4
NMHLD	73	0	3	768
NMTTP	73	96	2	B	0	M1
NMTTP	73	96	3	E	0	M1
NMTTP	73	288	1	E	0	M1
NMTTP	73	288	1	A	0	M1
NMTTP	74	96	2	B	0	M1
NMTTP	74	96	3	E	0	M1
NMTTP	74	288	5	B	0	M1
NMTTP	74	288	5	E	0	M1
NMHLD	75	0	4	576
NMTTP	75	96	6	B	0	M1
NMTTP	75	96	6	E	0	M1
NMTTP	75	288	7	B	0	M1
NMTTP	75	288	7	E	0	M1
NMTTP	76	96	1	B	0	M1
NMTTP	76	96	2	E	0	M1
EXSTR	76	192	0
BRSI_	76	192	0	96	48	3
BRSSL	76	192	0	96	48	4
BRTAP	76	288	0
NMTAP	77	0	2
NMSTR	77	0	6
NMSI_	77	0	6	96	48	2
NMTAP	77	48	3
NMTAP	77	96	6
NMHLD	77	120	5	96
EXTAP	77	168	2
EXTAP	77	216	1
EXTAP	77	264	0
EXTAP	77	264	4
EXTAP	77	288	0
EXTAP	77	288	4
EXTAP	77	336	2
EXTAP	77	336	6
NMSTR	78	0	1
NMSI_	78	0	1	96	48	5
NMTAP	78	0	5
NMTAP	78	48	4
NMTAP	78	96	1
NMHLD	78	120	2	96
EXTAP	78	168	5
EXTAP	78	216	6
EXTAP	78	264	3
EXTAP	78	264	7
EXTAP	78	288	3
EXTAP	78	288	7
EXTAP	78	336	1
EXTAP	78	336	5
NMHLD	79	0	0	288
NMHLD	79	0	6	288
NMHLD	80	0	1	144
NMSTR	80	0	7
NMSSR	80	0	7	96	192	3
NMTTP	80	240	1	D	0	M1
NMTTP	80	264	0	A	0	M1
NMTTP	80	288	0	D	0	M1

T_REC_TAP	239
T_REC_BRK	12
T_REC_XTP	66
T_REC_BXX	1
T_REC_HLD	41
T_REC_XHO	38
T_REC_BHO	0
T_REC_BXH	0
T_REC_STR	78
T_REC_BST	0
T_REC_XST	2
T_REC_XBS	8
T_REC_TTP	42
T_REC_THO	1
T_REC_SLD	86
T_REC_BSL	6
T_REC_ALL	620
T_NUM_TAP	427
T_NUM_BRK	27
T_NUM_HLD	80
T_NUM_SLD	86
T_NUM_ALL	620
T_JUDGE_TAP	448
T_JUDGE_HLD	211
T_JUDGE_SLD	92
T_JUDGE_ALL	751
TTM_EACHPAIRS	110
TTM_SCR_TAP	213500
TTM_SCR_BRK	70200
TTM_SCR_HLD	80000
TTM_SCR_SLD	129000
TTM_SCR_ALL	492700
TTM_SCR_S	475300
TTM_SCR_SS	490000
TTM_RAT_ACV	10055

