VERSION	0.00.00	1.04.00
FES_MODE	0
BPM_DEF	150.000	150.000	150.000	150.000
MET_DEF	4	4
RESOLUTION	384
CLK_DEF	384
COMPATIBLE_CODE	MA2

BPM	0	0	150.000
MET	0	0	4	4

NMTAP	1	0	2
NMTAP	1	96	3
NMSTR	1	192	4
NMSUL	1	192	4	96	192	3
BXHLD	2	192	2	96
NMTAP	3	0	2
NMHLD	3	96	1	672
NMTAP	3	288	3
NMTAP	4	96	3
NMTAP	4	288	3
NMTAP	5	0	5
NMHLD	5	96	6	576
NMSTR	5	288	4
NMSUL	5	288	4	96	192	3
NMTAP	6	288	3
NMTAP	7	0	2
NMTAP	7	96	1
NMTAP	7	96	3
NMTAP	7	192	5
NMTAP	7	288	4
NMTAP	7	288	6
NMTAP	8	0	2
NMTAP	8	96	1
NMTAP	8	96	3
NMTAP	8	192	7
NMTAP	8	288	0
NMTAP	8	288	6
NMHLD	9	0	1	96
NMTAP	9	96	0
NMHLD	9	192	6	96
NMTAP	9	288	7
NMSTR	10	0	0
NMSCR	10	0	0	96	192	7
NMHLD	11	0	6	144
NMTAP	11	144	4
NMTAP	11	288	3
NMHLD	12	0	1	144
NMTAP	12	144	3
BRTAP	12	288	4
NMHLD	13	0	6	144
NMTAP	13	144	4
NMTAP	13	240	3
NMTAP	13	288	3
NMHLD	14	0	1	144
NMTAP	14	144	3
NMTTP	14	288	4	E	0	M1
NMHLD	15	0	5	144
NMTAP	15	144	4
NMTAP	15	288	0
NMHLD	16	0	1	144
NMTAP	16	144	3
EXTAP	16	288	7
NMTAP	17	0	3
NMTAP	17	0	6
NMTAP	17	96	2
NMTAP	17	96	5
NMTAP	17	192	1
NMTAP	17	192	4
NMTAP	17	288	0
NMHLD	17	336	0	96
NMSTR	18	48	7
NMSI_	18	48	7	96	96	3
EXTAP	18	240	2
EXTAP	18	288	2
NMHLD	19	0	1	96
NMHLD	19	0	3	96
NMTAP	19	240	0
NMTAP	19	240	7
NMTAP	19	288	0
NMTAP	19	288	7
NMHLD	20	0	4	96
NMHLD	20	0	6	96
NMTAP	20	240	0
NMTAP	20	240	7
NMTAP	20	288	0
NMTAP	20	288	7
NMHLD	21	0	1	96
NMHLD	21	96	3	96
NMHLD	21	192	4	96
EXHLD	21	288	6	96
NMTAP	22	0	1
NMTAP	22	96	7
NMHLD	22	144	7	96
NMTAP	22	240	0
NMTAP	22	288	0
NMTAP	23	0	2
NMSTR	23	96	1
NMSCR	23	96	1	96	96	4
NMTAP	24	0	5
NMSTR	24	96	6
NMSCL	24	96	6	96	96	3
NMHLD	25	0	2	96
NMHLD	25	96	0	96
NMHLD	25	192	7	96
NMTAP	25	288	5
NMSTR	25	336	5
NMSCR	25	336	5	96	240	2
NMTTP	27	192	2	B	0	M1
NMTTP	27	192	3	B	0	M1
NMTTP	28	0	4	B	0	M1
NMTTP	28	0	5	B	0	M1
NMTTP	28	192	4	E	0	M1
EXTAP	28	288	2
EXTAP	28	288	3
NMTAP	29	0	1
NMTAP	29	48	1
NMSTR	29	96	0
NMSI_	29	96	0	96	48	3
NMSI_	29	96	0	96	48	4
EXTAP	29	288	2
EXTAP	29	288	5
NMTAP	30	0	6
NMTAP	30	48	6
NMSTR	30	96	7
NMSI_	30	96	7	96	48	2
NMSI_	30	96	7	96	48	3
NMTAP	30	336	1
NMHLD	31	0	1	96
NMTAP	31	96	3
NMHLD	31	192	6	96
NMTAP	31	288	4
NMTAP	32	0	1
NMTAP	32	0	3
NMTAP	32	96	4
NMTAP	32	96	6
NMTAP	32	192	1
NMTAP	32	192	3
NMTAP	32	288	4
NMTAP	32	288	6
NMTAP	33	0	3
NMTAP	33	0	5
BRTAP	33	96	7
NMTAP	33	192	2
NMTAP	33	192	4
BRTAP	33	288	0
NMTAP	34	0	4
NMTAP	34	0	5
BRTAP	34	96	7
NMTAP	34	192	2
NMTAP	34	192	3
BRTAP	34	288	0
NMHLD	35	0	6	192
NMTAP	35	96	7
NMHLD	35	192	1	192
NMTAP	35	288	0
NMTAP	36	0	6
NMTAP	36	96	3
NMTAP	36	96	4
NMTAP	36	192	2
NMTAP	36	192	5
BRTAP	36	288	0
BRTAP	36	288	7
NMTAP	37	0	1
NMTAP	37	0	7
NMTAP	37	96	0
NMTAP	37	96	6
NMTAP	37	192	1
NMTAP	37	192	7
NMTAP	37	288	0
NMTAP	37	288	6
NMTAP	38	0	1
NMTAP	38	0	7
NMTAP	38	96	0
NMTAP	38	96	6
NMTAP	38	192	1
NMTAP	38	192	7
NMTAP	38	288	0
NMTAP	38	288	6
NMTAP	39	0	5
NMTAP	39	48	5
NMTAP	39	96	4
NMTAP	39	192	2
NMTAP	39	240	2
NMTAP	39	288	3
NMTAP	40	0	4
NMTAP	40	0	5
NMTAP	40	96	6
NMTAP	40	96	7
NMTAP	40	192	0
NMTAP	40	192	1
NMTAP	40	288	2
NMTAP	40	288	3
NMTAP	41	0	1
NMTAP	41	48	1
NMSTR	41	96	0
NMSI_	41	96	0	96	48	3
NMSI_	41	96	0	96	48	4
EXTAP	41	288	2
EXTAP	41	288	5
NMTAP	42	0	6
NMTAP	42	48	6
NMSTR	42	96	7
NMSI_	42	96	7	96	48	2
NMSI_	42	96	7	96	48	3
NMSTR	43	0	1
NMSI_	43	0	1	96	48	4
NMSTR	43	192	6
NMSI_	43	192	6	96	48	3
NMHLD	44	0	2	96
NMTAP	44	96	4
BRTAP	44	192	1
BRTAP	44	192	5
NMTAP	45	0	6
NMHLD	45	48	6	432
NMTAP	45	144	4
NMTAP	45	192	4
NMTAP	45	288	5
NMTAP	46	0	3
NMHLD	46	96	4	96
NMTAP	46	288	3
NMTAP	46	288	5
NMTAP	47	0	1
NMHLD	47	48	1	432
NMTAP	47	144	3
NMTAP	47	192	3
NMTAP	47	288	2
NMTAP	48	0	4
NMHLD	48	96	3	96
NMSTR	48	288	2
NMSLR	48	288	2	96	192	6
NMTAP	48	288	4
CNSV_	49	192	6	0	96	0
NMSTR	50	0	6
NMSI_	50	0	6	96	96	4
CNSV_	50	192	4	0	96	2
NMHLD	51	0	1	96
NMHLD	51	0	3	96
NMTAP	51	144	1
NMTAP	51	144	3
NMHLD	51	192	1	96
NMHLD	51	192	3	96
NMTAP	51	336	3
NMTAP	51	336	4
NMHLD	52	0	3	96
NMHLD	52	0	4	96
NMTAP	52	144	4
NMTAP	52	144	6
NMHLD	52	192	4	96
NMHLD	52	192	6	96
NMSTR	52	336	7
NMSCL	52	336	7	96	240	0
NMTHO	54	0	0	192	C	0	M1
NMTHO	55	0	0	192	C	0	M1
NMTTP	55	0	2	B	0	M1
NMTTP	55	0	5	B	0	M1
NMTHO	56	0	0	192	C	0	M1
NMTTP	56	0	1	B	0	M1
NMTTP	56	0	6	B	0	M1
NMHLD	57	0	0	336
NMHLD	57	0	7	336
NMTAP	58	0	1
NMTAP	58	0	6
NMHLD	58	48	1	240
NMHLD	58	48	6	240
NMSTR	59	0	2
NMSI_	59	0	2	96	96	7
NMSTR	59	192	5
NMSI_	59	192	5	96	96	0
NMTAP	60	0	2
NMHLD	60	48	2	96
NMTAP	60	144	3
NMTAP	60	240	1
NMTAP	60	240	4
NMTAP	60	336	0
NMTAP	60	336	7
NMTAP	61	0	0
NMTAP	61	0	7
BRTAP	61	96	2
BRTAP	61	96	5
NMTAP	61	192	3
NMTAP	61	192	5
BRTAP	61	288	7
NMTAP	62	0	2
NMTAP	62	0	3
BRTAP	62	96	0
NMTAP	62	192	4
NMTAP	62	192	5
BRTAP	62	288	7
NMHLD	63	0	1	192
NMTAP	63	96	0
NMHLD	63	192	6	192
NMTAP	63	288	7
NMTAP	64	0	1
NMTAP	64	96	3
NMTAP	64	96	4
NMTAP	64	192	2
NMTAP	64	192	5
BRTAP	64	288	0
BRTAP	64	288	7
NMTAP	65	0	0
NMTAP	65	0	6
NMTAP	65	96	1
NMTAP	65	96	7
NMTAP	65	192	0
NMTAP	65	192	6
NMTAP	65	288	1
NMTAP	65	288	7
NMTAP	66	0	6
NMTAP	66	0	7
NMTAP	66	96	0
NMTAP	66	96	1
NMTAP	66	192	6
NMTAP	66	192	7
NMTAP	66	288	0
NMTAP	66	288	1
NMTAP	67	0	2
NMTAP	67	48	2
NMTAP	67	96	1
NMTAP	67	96	3
NMTAP	67	192	5
NMTAP	67	240	5
NMTAP	67	288	4
NMTAP	67	288	6
NMTAP	68	0	2
NMTAP	68	0	3
NMTAP	68	96	0
NMTAP	68	96	1
NMTAP	68	192	6
NMTAP	68	192	7
NMTAP	68	288	4
NMTAP	68	288	5
NMTAP	69	0	6
NMTAP	69	48	6
NMSTR	69	96	7
NMSI_	69	96	7	96	48	3
NMSI_	69	96	7	96	48	4
EXTAP	69	288	2
EXTAP	69	288	5
NMTAP	70	0	1
NMTAP	70	48	1
NMSTR	70	96	0
NMSI_	70	96	0	96	48	4
NMSI_	70	96	0	96	48	5
NMSTR	71	0	6
NMSI_	71	0	6	96	96	2
NMSTR	71	192	1
NMSI_	71	192	1	96	96	5
NMHLD	72	0	6	96
NMTAP	72	96	0
BRTAP	72	192	1
BRTAP	72	192	5
NMTAP	73	0	2
NMHLD	73	96	1	288
NMTAP	73	288	3
NMTAP	74	0	5
NMHLD	74	96	6	288
NMTAP	74	288	4
NMTAP	75	0	2
NMHLD	75	96	1	288
NMTAP	75	288	3
NMTAP	76	0	5
NMHLD	76	96	6	192
BRTAP	76	288	0
NMTAP	77	0	1
NMTAP	77	0	3
NMTAP	77	96	4
NMTAP	77	96	6
NMTAP	77	192	1
NMTAP	77	192	3
NMTAP	77	288	4
NMTAP	77	288	6
NMTAP	78	0	0
NMTAP	78	0	1
NMTAP	78	96	6
NMTAP	78	96	7
NMTAP	78	192	0
NMTAP	78	192	1
NMTAP	78	288	6
NMTAP	78	288	7
BRHLD	79	0	0	672
NMSTR	79	288	3
NMSXR	79	288	3	96	288	7

T_REC_TAP	221
T_REC_BRK	19
T_REC_XTP	11
T_REC_BXX	0
T_REC_HLD	51
T_REC_XHO	1
T_REC_BHO	1
T_REC_BXH	1
T_REC_STR	23
T_REC_BST	0
T_REC_XST	0
T_REC_XBS	0
T_REC_TTP	10
T_REC_THO	3
T_REC_SLD	29
T_REC_BSL	0
T_REC_ALL	370
T_NUM_TAP	265
T_NUM_BRK	21
T_NUM_HLD	55
T_NUM_SLD	29
T_NUM_ALL	370
T_JUDGE_TAP	284
T_JUDGE_HLD	212
T_JUDGE_SLD	29
T_JUDGE_ALL	525
TTM_EACHPAIRS	86
TTM_SCR_TAP	132500
TTM_SCR_BRK	54600
TTM_SCR_HLD	55000
TTM_SCR_SLD	43500
TTM_SCR_ALL	285600
TTM_SCR_S	275000
TTM_SCR_SS	283500
TTM_RAT_ACV	10074

