VERSION	0.00.00	1.04.00
FES_MODE	0
BPM_DEF	142.000	142.000	142.000	142.000
MET_DEF	4	4
RESOLUTION	384
CLK_DEF	384
COMPATIBLE_CODE	MA2

BPM	0	0	142.000
MET	0	0	4	4

BRHLD	1	0	0	1152
NMTHO	2	168	0	600	C	0	M1
NMTTP	4	192	4	E	0	M1
NMTAP	5	0	3
NMHLD	5	0	5	288
NMTAP	5	72	4
NMTAP	5	144	4
NMTAP	5	216	4
NMTAP	5	288	4
NMTAP	5	336	5
NMHLD	6	0	2	288
NMTAP	6	72	3
NMTAP	6	144	3
NMTAP	6	216	3
NMTAP	6	288	3
NMTAP	6	336	2
NMHLD	7	0	5	288
NMTAP	7	72	4
NMTAP	7	144	4
NMTAP	7	216	4
NMTAP	7	288	4
NMTAP	7	336	5
NMHLD	8	0	2	288
NMTAP	8	72	3
NMTAP	8	144	3
NMTAP	8	216	3
NMTAP	8	288	3
NMTAP	8	336	2
NMHLD	9	0	5	288
NMTAP	9	72	4
NMTAP	9	144	3
NMTAP	9	216	4
NMTAP	9	288	4
NMTAP	9	336	5
NMHLD	10	0	2	288
NMTAP	10	72	3
NMTAP	10	144	4
NMTAP	10	216	3
NMTAP	10	288	3
NMTAP	10	336	2
NMHLD	11	0	5	216
NMTAP	11	72	4
NMTAP	11	144	2
NMHLD	11	216	3	72
NMTAP	11	288	4
NMTAP	11	336	2
NMTAP	11	336	5
NMHLD	12	0	1	240
NMTAP	12	0	6
NMTHO	12	240	0	48	C	0	M1
NMTAP	13	0	7
NMTAP	13	48	7
NMTAP	13	96	6
NMTAP	13	120	4
NMTAP	13	168	4
NMTAP	13	192	5
NMTAP	13	216	4
NMTAP	13	264	4
NMTAP	13	288	6
EXTAP	13	336	1
EXTAP	13	336	7
NMTAP	14	0	0
NMTAP	14	48	0
NMTAP	14	96	1
NMTAP	14	120	3
NMTAP	14	168	3
NMTAP	14	192	2
NMTAP	14	216	3
NMTAP	14	264	3
NMTAP	14	288	1
EXTAP	14	336	0
EXTAP	14	336	6
NMTAP	15	0	7
NMTAP	15	48	7
NMTAP	15	96	6
NMTAP	15	120	4
NMTAP	15	168	4
NMTAP	15	192	5
NMTAP	15	216	4
NMTAP	15	264	4
NMTAP	15	288	6
EXSTR	15	336	1
NMSI_	15	336	1	96	48	5
EXSTR	15	336	7
NMSI_	15	336	7	96	48	2
NMTAP	16	48	1
NMTAP	16	48	7
EXSTR	16	144	1
NMSI_	16	144	1	96	48	5
EXSTR	16	144	6
NMSI_	16	144	6	96	48	3
NMTAP	16	240	1
NMTAP	16	240	6
EXTAP	16	336	2
EXTAP	16	336	7
NMTAP	17	48	3
NMTAP	17	48	6
NMTAP	17	96	6
NMTAP	17	120	4
NMTAP	17	168	4
NMTAP	17	192	5
NMTAP	17	216	4
NMTAP	17	264	4
NMTAP	17	288	6
EXTAP	17	336	1
EXTAP	17	336	7
NMTAP	18	0	0
NMTAP	18	48	0
NMTAP	18	96	1
NMTAP	18	120	3
NMTAP	18	168	3
NMTAP	18	192	2
NMTAP	18	216	3
NMTAP	18	264	3
NMTAP	18	288	1
EXTAP	18	336	0
EXTAP	18	336	6
NMTAP	19	0	7
NMTAP	19	48	7
NMTAP	19	96	6
NMTAP	19	120	4
NMTAP	19	168	4
NMTAP	19	192	5
NMTAP	19	216	4
NMTAP	19	264	4
NMSTR	19	288	6
NMSI_	19	288	6	96	48	2
NMTAP	19	336	2
BXHLD	20	0	0	240
NMTAP	20	240	7
NMTAP	20	264	0
EXTAP	20	288	1
EXTAP	20	288	6
NMHLD	21	0	2	96
NMTAP	21	48	4
NMTAP	21	96	4
NMHLD	21	144	6	96
NMTAP	21	192	4
NMTAP	21	240	4
NMTAP	21	288	2
NMTAP	21	312	3
NMHLD	21	336	1	96
NMTAP	22	0	3
NMTAP	22	48	3
NMHLD	22	96	5	96
NMTAP	22	144	3
NMTAP	22	192	3
NMTAP	22	240	4
NMTAP	22	240	6
NMSTR	22	288	7
NMSCL	22	288	7	96	96	3
NMTAP	22	336	7
NMSTR	23	0	3
NMSCL	23	0	3	96	96	7
NMSTR	23	96	7
NMSLL	23	96	7	96	96	3
NMSTR	23	192	3
NMSLL	23	192	3	96	96	7
NMSTR	23	288	7
NMSCL	23	288	7	96	192	7
BRTAP	24	0	3
NMTAP	24	288	4
NMTAP	24	312	3
NMTAP	24	336	4
NMHLD	25	0	6	96
NMTAP	25	48	4
NMTAP	25	96	4
NMHLD	25	144	2	96
NMTAP	25	192	4
NMTAP	25	240	4
NMTAP	25	288	4
NMTAP	25	312	3
NMHLD	25	336	5	96
NMTAP	26	0	3
NMTAP	26	48	3
NMHLD	26	96	1	96
NMTAP	26	144	3
NMTAP	26	192	3
NMTAP	26	240	2
NMTAP	26	240	4
NMTAP	26	288	3
NMTAP	26	288	5
NMTAP	26	336	4
NMTAP	26	336	6
NMSTR	27	0	7
NMSCR	27	0	7	96	96	2
NMSTR	27	96	2
NMSUR	27	96	2	96	96	7
NMTAP	27	192	7
NMTAP	27	240	0
NMTAP	27	288	1
NMTAP	27	336	2
NMSTR	28	0	3
NMSCL	28	0	3	96	48	1
NMHLD	28	0	6	96
NMHLD	28	192	0	96
NMSTR	28	192	5
NMSCR	28	192	5	96	48	0
BRTAP	29	0	2
BRSTR	29	0	3
NMSCL	29	0	3	96	192	5
NMSUL	29	0	3	96	192	5
NMTHO	30	0	0	192	C	0	M1
NMTAP	30	288	0
NMTAP	30	288	7
NMSTR	30	336	1
NMSLR	30	336	1	96	96	7
NMTAP	30	336	6
NMTAP	31	0	2
NMTAP	31	0	3
NMTAP	31	48	1
NMTAP	31	48	4
NMTAP	31	96	6
NMHLD	31	144	5	48
NMTAP	31	192	0
NMSTR	31	240	1
NMSI_	31	240	1	96	48	4
NMTAP	31	240	4
NMTAP	31	288	2
NMTAP	31	288	3
NMTAP	31	336	1
NMSTR	31	336	6
NMSLL	31	336	6	96	96	0
NMTAP	32	0	7
NMTAP	32	48	3
NMTAP	32	48	6
NMTAP	32	96	1
NMHLD	32	144	2	48
NMTAP	32	192	7
BXTAP	32	240	0
BXTAP	32	240	6
BXTAP	32	288	0
BXTAP	32	288	6
NMTAP	32	336	1
NMTAP	32	336	5
NMTAP	33	0	2
NMHLD	33	0	6	48
NMTAP	33	48	4
NMHLD	33	96	1	48
NMTAP	33	96	5
NMTAP	33	144	3
NMTAP	33	192	2
NMHLD	33	192	7	48
NMTAP	33	240	4
NMTAP	33	288	0
NMTAP	33	288	6
NMTAP	33	336	1
NMTAP	34	0	2
NMTAP	34	0	5
NMTAP	34	48	3
NMTAP	34	48	6
NMTAP	34	96	4
NMSTR	34	96	7
BRSI_	34	96	7	96	48	4
NMTAP	34	144	3
BRHLD	34	192	2	96
BRTAP	34	192	7
EXTAP	34	288	5
NMTAP	34	336	3
NMSTR	34	336	6
NMSLL	34	336	6	96	96	0
NMTAP	35	0	4
NMTAP	35	0	7
NMTAP	35	48	3
NMTAP	35	48	6
NMTAP	35	96	1
NMHLD	35	144	2	48
NMTAP	35	192	7
NMTAP	35	240	3
NMSTR	35	240	6
NMSI_	35	240	6	96	48	3
NMTAP	35	288	4
NMTAP	35	288	5
NMSTR	35	336	1
NMSLR	35	336	1	96	96	7
NMTAP	35	336	6
NMTAP	36	0	0
NMTAP	36	48	1
NMTAP	36	48	4
NMTAP	36	96	6
NMHLD	36	144	5	48
NMTAP	36	192	0
BXTAP	36	240	1
BXTAP	36	240	7
BXTAP	36	288	1
BXTAP	36	288	7
NMTAP	36	336	2
NMSTR	36	336	6
NMSI_	36	336	6	96	48	0
NMTAP	37	0	3
NMSTR	37	48	4
NMSI_	37	48	4	96	48	2
NMTAP	37	96	3
NMSTR	37	144	5
NMSI_	37	144	5	96	48	1
NMTAP	37	192	6
NMTAP	37	240	1
NMTAP	37	288	2
NMTAP	37	336	3
EXSTR	38	0	4
NMSCL	38	0	4	96	48	1
NMSTR	38	0	7
NMSCL	38	0	7	96	48	4
NMTAP	38	96	4
EXTAP	38	96	7
BRTAP	38	192	0
BRTAP	38	192	6
NMTAP	38	288	3
NMTAP	38	288	5
NMTAP	38	336	2
NMTAP	38	360	4
NMTAP	39	0	1
NMTAP	39	24	3
NMTAP	39	48	1
NMTAP	39	72	3
NMTAP	39	96	2
NMTAP	39	120	4
NMTAP	39	144	3
NMTAP	39	168	5
NMTAP	39	192	2
NMTAP	39	216	4
NMTAP	39	240	2
NMTAP	39	264	4
NMTAP	39	288	0
NMTAP	39	336	1
NMTAP	39	336	7
NMTAP	40	0	6
NMTAP	40	24	4
NMTAP	40	48	6
NMTAP	40	72	4
NMTAP	40	96	5
NMTAP	40	120	2
NMTAP	40	144	5
NMTAP	40	168	2
NMTAP	40	192	4
NMTAP	40	216	3
NMTAP	40	240	5
NMTAP	40	264	4
NMTAP	40	288	7
NMSTR	40	336	0
NMSLR	40	336	0	96	96	6
NMTAP	40	336	6
NMTAP	41	0	2
NMTAP	41	0	3
NMTAP	41	48	0
NMTAP	41	48	5
NMTAP	41	96	7
NMHLD	41	144	5	48
NMTAP	41	192	0
NMSTR	41	240	1
NMSI_	41	240	1	96	48	5
NMTAP	41	240	4
NMTAP	41	288	2
NMTAP	41	288	3
NMTAP	41	336	1
NMSTR	41	336	6
NMSI_	41	336	6	96	48	3
NMTAP	42	0	7
NMTAP	42	48	3
NMTAP	42	48	6
NMTAP	42	96	1
CNSI_	42	96	3	0	48	7
BRTAP	42	144	2
BRTAP	42	192	0
BRTAP	42	192	6
NMTAP	42	288	2
NMTAP	42	288	4
NMTAP	42	336	1
NMTAP	42	360	3
NMTAP	43	0	2
NMTAP	43	24	4
NMTAP	43	48	3
NMTAP	43	72	6
NMTAP	43	96	4
NMTAP	43	120	5
NMTAP	43	144	4
NMTAP	43	168	5
NMTAP	43	192	3
NMTAP	43	216	4
NMTAP	43	240	2
NMTAP	43	264	3
NMTAP	43	288	1
NMTAP	43	336	0
NMTAP	43	336	4
NMTAP	44	0	1
NMTAP	44	24	3
NMTAP	44	48	1
NMTAP	44	72	3
NMTAP	44	96	2
NMTAP	44	120	4
NMTAP	44	144	3
NMTAP	44	168	5
NMTAP	44	192	4
NMTAP	44	216	6
NMTAP	44	240	3
NMTAP	44	264	5
NMTAP	44	288	4
NMTAP	44	336	3
NMSTR	44	336	5
NMSLR	44	336	5	96	96	3
NMTAP	45	0	6
NMTAP	45	0	7
NMTAP	45	48	0
NMTAP	45	48	5
NMTAP	45	96	2
NMHLD	45	144	1	48
NMTAP	45	192	4
NMSTR	45	240	0
NMSCR	45	240	0	96	48	3
NMTAP	45	240	5
NMTAP	45	288	6
NMTAP	45	288	7
NMTAP	45	336	0
NMSTR	45	336	5
NMSI_	45	336	5	96	48	2
NMTAP	46	0	4
NMTAP	46	48	0
NMTAP	46	48	5
NMHLD	46	96	1	48
NMTAP	46	144	3
NMTAP	46	192	0
NMTAP	46	216	4
NMTAP	46	240	0
NMTAP	46	264	4
BRTAP	46	288	1
BRTAP	46	288	5
BRTAP	46	336	2
BRTAP	46	336	6
NMTAP	47	0	3
NMTAP	47	0	7
NMTAP	47	48	3
NMTAP	47	48	7
NMTAP	47	96	6
NMTAP	47	120	4
NMTAP	47	168	2
NMTAP	47	192	3
NMTAP	47	216	1
NMSTR	47	240	4
NMSI_	47	240	4	96	48	0
NMTAP	47	264	2
NMTAP	47	288	3
NMTAP	47	336	2
NMTAP	47	336	4
NMTAP	48	0	1
NMTAP	48	48	1
NMTAP	48	96	1
NMTAP	48	120	3
NMTAP	48	168	5
NMTAP	48	192	4
NMTAP	48	216	6
NMSTR	48	240	3
NMSI_	48	240	3	96	48	7
NMTAP	48	264	5
NMTAP	48	288	4
NMTAP	48	336	3
NMTAP	48	336	5
NMTAP	49	0	6
NMTAP	49	48	6
NMTAP	49	96	6
NMTAP	49	120	4
NMTAP	49	168	2
NMTAP	49	192	3
NMTAP	49	216	1
NMTAP	49	240	4
NMTAP	49	264	2
NMTAP	49	288	3
EXSTR	49	336	1
NMSI_	49	336	1	96	48	4
EXSTR	49	336	7
NMSCR	49	336	7	96	48	2
NMTAP	50	48	1
NMTAP	50	48	7
EXSTR	50	144	0
NMSCL	50	144	0	96	48	5
EXSTR	50	144	6
NMSI_	50	144	6	96	48	3
NMTAP	50	240	0
NMTAP	50	240	6
EXTAP	50	336	2
EXHLD	50	336	7	96
NMTAP	51	48	3
NMTAP	51	96	5
NMTAP	51	120	4
NMTAP	51	168	2
NMTAP	51	192	3
NMTAP	51	216	1
NMSTR	51	240	4
NMSI_	51	240	4	96	48	0
NMTAP	51	264	2
NMTAP	51	288	3
NMTAP	51	336	2
NMTAP	51	336	4
NMTAP	52	0	1
NMTAP	52	48	1
NMTAP	52	96	1
NMTAP	52	120	3
NMTAP	52	168	5
NMTAP	52	192	4
NMTAP	52	216	6
NMSTR	52	240	3
NMSI_	52	240	3	96	48	7
NMTAP	52	264	5
NMTAP	52	288	4
NMTAP	52	336	3
NMTAP	52	336	5
NMTAP	53	0	6
NMTAP	53	48	6
NMTAP	53	96	6
NMTAP	53	120	4
NMTAP	53	168	2
NMTAP	53	192	3
NMTAP	53	216	1
NMTAP	53	240	5
NMTAP	53	264	4
NMSTR	53	288	7
NMSI_	53	288	7	96	48	2
NMTAP	53	336	2
NMHLD	54	0	3	240
NMTAP	54	0	7
NMTAP	54	240	4
NMTAP	54	264	4
NMSTR	54	288	2
NMSXL	54	288	2	96	240	7
NMHLD	55	0	6	456
NMHLD	56	0	7	144
NMTAP	56	288	6
NMSTR	56	288	7
NMSXL	56	288	7	96	240	2
NMHLD	57	0	4	456
NMHLD	58	0	2	144
NMSTR	58	288	0
NMSCR	58	288	0	96	192	3
NMTAP	58	288	5
NMTAP	59	0	4
NMTAP	59	72	4
NMTAP	59	144	5
NMTAP	59	216	6
NMTAP	59	288	4
NMSTR	59	288	7
NMSCL	59	288	7	96	192	4
NMTAP	60	0	3
NMTAP	60	72	3
NMTAP	60	144	2
NMTAP	60	216	1
NMSTR	60	288	0
NMSCR	60	288	0	96	192	3
NMTAP	60	288	3
NMTAP	61	0	4
NMTAP	61	72	4
NMTAP	61	144	5
NMTAP	61	216	6
NMSTR	61	288	4
NMSI_	61	288	4	96	48	6
NMTAP	61	288	6
NMTAP	61	336	3
NMHLD	62	0	2	240
NMTTP	62	240	5	A	0	M1
NMTTP	62	240	6	E	0	M1
NMTTP	62	240	6	A	0	M1
NMTTP	62	240	6	D	0	M1
NMTTP	62	288	1	A	0	M1
NMTTP	62	288	2	E	0	M1
NMTTP	62	288	2	A	0	M1
NMTTP	62	288	2	D	0	M1

T_REC_TAP	380
T_REC_BRK	12
T_REC_XTP	15
T_REC_BXX	8
T_REC_HLD	35
T_REC_XHO	1
T_REC_BHO	2
T_REC_BXH	1
T_REC_STR	38
T_REC_BST	1
T_REC_XST	9
T_REC_XBS	0
T_REC_TTP	9
T_REC_THO	3
T_REC_SLD	48
T_REC_BSL	1
T_REC_ALL	563
T_NUM_TAP	451
T_NUM_BRK	25
T_NUM_HLD	39
T_NUM_SLD	48
T_NUM_ALL	563
T_JUDGE_TAP	472
T_JUDGE_HLD	165
T_JUDGE_SLD	49
T_JUDGE_ALL	686
TTM_EACHPAIRS	91
TTM_SCR_TAP	225500
TTM_SCR_BRK	65000
TTM_SCR_HLD	39000
TTM_SCR_SLD	72000
TTM_SCR_ALL	401500
TTM_SCR_S	387050
TTM_SCR_SS	399000
TTM_RAT_ACV	10062

