VERSION	0.00.00	1.04.00
FES_MODE	0
BPM_DEF	142.000	142.000	142.000	142.000
MET_DEF	4	4
RESOLUTION	384
CLK_DEF	384
COMPATIBLE_CODE	MA2

BPM	0	0	142.000
MET	0	0	4	4

NMHLD	1	0	2	1152
NMHLD	1	0	5	1152
NMTTP	4	192	3	A	0	M1
NMTTP	4	192	4	E	0	M1
NMTTP	4	192	4	A	0	M1
NMSTR	5	0	4
NMSXL	5	0	4	96	144	4
NMSXR	5	0	4	96	144	4
NMTAP	5	336	3
NMSTR	6	0	3
NMSSR	6	0	3	96	144	7
NMTAP	6	336	7
NMSTR	7	0	7
NMSV_	7	0	7	96	96	2
NMSV_	7	0	7	96	96	4
NMTAP	7	336	3
NMTAP	7	336	4
NMSTR	8	0	3
NMSCL	8	0	3	96	96	0
NMSTR	8	0	4
NMSCR	8	0	4	96	96	7
NMHLD	9	0	7	384
NMTAP	9	96	4
NMTAP	9	288	4
NMHLD	10	0	0	384
NMTAP	10	96	3
NMTAP	10	288	3
NMHLD	11	0	7	384
NMTAP	11	96	4
NMTAP	11	288	4
NMTAP	12	0	0
NMTTP	12	240	6	B	0	M1
NMTTP	12	240	6	E	0	M1
NMTTP	12	240	6	A	0	M1
NMTTP	12	288	1	B	0	M1
NMTTP	12	288	1	A	0	M1
NMTTP	12	288	2	E	0	M1
NMTAP	13	0	3
NMTAP	13	0	4
NMTAP	13	48	5
NMTAP	13	96	5
NMTAP	13	120	4
NMTAP	13	168	3
NMTAP	13	168	6
NMTAP	13	216	3
NMTAP	13	216	6
NMTAP	13	264	5
NMTAP	13	288	4
EXTAP	13	336	6
EXTAP	13	336	7
NMTAP	14	48	2
NMTAP	14	96	2
NMTAP	14	120	3
NMTAP	14	168	1
NMTAP	14	168	4
NMTAP	14	216	1
NMTAP	14	216	4
NMTAP	14	264	2
NMTAP	14	288	3
EXTAP	14	336	0
EXTAP	14	336	1
NMTAP	15	48	5
NMTAP	15	96	5
NMTAP	15	120	4
NMTAP	15	168	3
NMTAP	15	168	6
NMTAP	15	216	3
NMTAP	15	216	6
NMTAP	15	264	5
NMTAP	15	288	4
EXTAP	15	336	6
EXTAP	15	336	7
NMHLD	16	48	0	96
NMSTR	16	48	1
NMSI_	16	48	1	96	48	3
NMTAP	16	144	1
NMSTR	16	240	6
NMSI_	16	240	6	96	48	4
NMHLD	16	240	7	96
NMTAP	16	336	6
NMTAP	17	48	2
NMTAP	17	96	2
NMTAP	17	120	3
NMTAP	17	168	1
NMTAP	17	168	4
NMTAP	17	216	1
NMTAP	17	216	4
NMTAP	17	264	2
NMTAP	17	288	3
EXTAP	17	336	0
EXTAP	17	336	1
NMTAP	18	48	5
NMTAP	18	96	5
NMTAP	18	120	4
NMTAP	18	168	3
NMTAP	18	168	6
NMTAP	18	216	3
NMTAP	18	216	6
NMTAP	18	264	5
NMTAP	18	288	4
EXTAP	18	336	6
EXTAP	18	336	7
NMTAP	19	48	2
NMTAP	19	96	2
NMTAP	19	120	3
NMTAP	19	168	1
NMTAP	19	168	4
NMTAP	19	216	1
NMTAP	19	216	4
NMTAP	19	264	2
NMTAP	19	288	3
EXSTR	19	336	0
NMSXR	19	336	0	96	192	3
EXTAP	19	336	7
EXTAP	20	0	0
EXTAP	20	0	7
NMTAP	20	240	4
BRTAP	20	288	4
NMSTR	21	0	6
NMSI_	21	0	6	96	48	3
NMTAP	21	48	6
NMTAP	21	96	2
NMSTR	21	144	1
NMSI_	21	144	1	96	48	4
NMTAP	21	192	1
NMTAP	21	240	5
NMTAP	21	288	5
NMSTR	21	336	6
NMSI_	21	336	6	96	48	3
NMTAP	22	0	6
NMTAP	22	48	2
NMSTR	22	96	1
NMSI_	22	96	1	96	48	4
NMTAP	22	144	1
NMTAP	22	192	5
NMTAP	22	240	6
NMHLD	22	288	6	96
NMSTR	23	0	4
NMSCL	23	0	4	96	96	0
NMTAP	23	96	5
NMSTR	23	192	3
NMSCR	23	192	3	96	96	7
NMTAP	23	288	2
NMSTR	24	0	4
NMSCL	24	0	4	96	96	0
NMTAP	24	96	5
NMTAP	24	192	3
NMTAP	24	288	0
NMTAP	24	288	4
NMSTR	25	0	1
NMSI_	25	0	1	96	48	4
NMTAP	25	48	1
NMTAP	25	96	5
NMSTR	25	144	6
NMSI_	25	144	6	96	48	3
NMTAP	25	192	6
NMTAP	25	240	2
NMTAP	25	288	2
NMSTR	25	336	1
NMSI_	25	336	1	96	48	4
NMTAP	26	0	1
NMTAP	26	48	5
NMSTR	26	96	6
NMSI_	26	96	6	96	48	3
NMTAP	26	144	6
NMTAP	26	192	2
NMTAP	26	240	1
NMHLD	26	288	1	96
NMTAP	27	0	3
NMTAP	27	96	0
NMTAP	27	96	7
NMTAP	27	192	4
NMTAP	27	192	6
NMSTR	27	288	3
NMSI_	27	288	3	96	48	1
NMSTR	27	288	4
NMSI_	27	288	4	96	48	6
NMSTR	28	96	3
NMSI_	28	96	3	96	48	0
NMSTR	28	96	4
NMSI_	28	96	4	96	48	7
NMSTR	28	288	3
BRSXR	28	288	3	96	288	0
NMSTR	28	288	4
BRSXL	28	288	4	96	288	7
NMHLD	30	0	0	192
NMHLD	30	0	7	192
BRTAP	30	288	3
BRTAP	30	288	4
NMTAP	30	336	5
NMSTR	31	0	6
NMSCL	31	0	6	96	48	3
NMTAP	31	48	6
NMSTR	31	96	2
NMSCL	31	96	2	96	48	7
NMTAP	31	144	2
NMSTR	31	192	6
NMSCL	31	192	6	96	48	3
NMTAP	31	240	6
NMTAP	31	288	2
NMTAP	31	336	2
NMSTR	32	0	1
NMSCR	32	0	1	96	48	4
NMTAP	32	48	1
NMSTR	32	96	5
NMSCR	32	96	5	96	48	0
NMTAP	32	144	5
NMHLD	32	192	1	96
NMTAP	32	288	3
NMTAP	32	336	4
NMHLD	33	0	4	48
NMHLD	33	0	5	48
NMHLD	33	96	0	48
NMHLD	33	96	7	48
NMHLD	33	192	2	48
NMHLD	33	192	3	48
NMTAP	33	288	3
NMTAP	33	288	4
NMTAP	33	336	3
NMTAP	33	336	4
NMTAP	34	0	2
NMTAP	34	0	5
NMTAP	34	48	1
NMTAP	34	48	6
NMSTR	34	96	0
NMSI_	34	96	0	96	48	3
NMSTR	34	96	7
NMSI_	34	96	7	96	48	4
NMTAP	34	192	0
NMTAP	34	192	7
EXTAP	34	288	3
EXTAP	34	288	4
NMTAP	34	336	2
NMSTR	35	0	1
NMSCR	35	0	1	96	48	4
NMTAP	35	48	1
NMSTR	35	96	5
NMSCR	35	96	5	96	48	0
NMTAP	35	144	5
NMSTR	35	192	1
NMSCR	35	192	1	96	48	4
NMTAP	35	240	1
NMTAP	35	288	5
NMTAP	35	336	5
NMSTR	36	0	6
NMSCL	36	0	6	96	48	3
NMTAP	36	48	6
NMSTR	36	96	2
NMSCL	36	96	2	96	48	7
NMTAP	36	144	2
NMHLD	36	192	6	96
NMTAP	36	288	4
NMTAP	36	336	3
NMHLD	37	0	2	48
NMHLD	37	0	4	48
NMHLD	37	96	0	48
NMHLD	37	96	7	48
NMHLD	37	192	3	48
NMHLD	37	192	5	48
NMTAP	37	288	3
NMTAP	37	288	5
NMTTP	38	0	4	A	1	M1
NMTTP	38	0	5	E	0	M1
NMTTP	38	0	6	E	0	M1
NMTTP	38	0	6	A	0	M1
NMTTP	38	96	1	A	0	M1
NMTTP	38	96	2	E	0	M1
NMTTP	38	96	3	E	0	M1
NMTTP	38	96	3	A	1	M1
BRHLD	38	192	2	96
BRHLD	38	192	6	96
NMTAP	38	336	5
NMTAP	38	360	4
NMTAP	39	0	5
NMTAP	39	48	2
NMTAP	39	72	3
NMTAP	39	96	2
NMTAP	39	144	5
NMTAP	39	168	4
NMTAP	39	192	5
NMTAP	39	240	2
NMTAP	39	264	3
EXTAP	39	288	1
NMTAP	39	336	5
NMTAP	39	360	4
NMTAP	40	0	5
NMTAP	40	48	2
NMTAP	40	72	3
NMTAP	40	96	2
NMTAP	40	144	5
NMTAP	40	168	4
NMTAP	40	192	5
NMTAP	40	240	2
NMTAP	40	264	3
EXTAP	40	288	1
NMSTR	40	336	7
NMSCL	40	336	7	96	96	3
NMTAP	41	0	7
NMTAP	41	48	1
NMTAP	41	96	1
NMSTR	41	144	0
NMSLR	41	144	0	96	96	4
NMTAP	41	192	0
NMTAP	41	240	6
NMTAP	41	288	6
NMSTR	41	336	7
NMSCL	41	336	7	96	96	3
NMTAP	42	0	7
NMTAP	42	48	1
NMTAP	42	96	1
NMTAP	42	144	0
NMHLD	42	192	0	96
NMTAP	42	288	7
NMTAP	42	336	1
NMTAP	42	360	3
NMTAP	43	0	1
NMTAP	43	48	6
NMTAP	43	72	4
NMTAP	43	96	6
NMTAP	43	144	1
NMTAP	43	168	3
NMTAP	43	192	1
NMTAP	43	240	5
NMTAP	43	264	4
NMTAP	43	288	5
NMTAP	43	336	1
NMTAP	43	360	3
NMTAP	44	0	1
NMTAP	44	48	6
NMTAP	44	72	4
NMTAP	44	96	6
NMTAP	44	144	1
NMTAP	44	168	0
NMTAP	44	192	1
NMTAP	44	240	6
NMTAP	44	264	7
NMTAP	44	288	6
NMSTR	44	336	0
NMSCR	44	336	0	96	96	4
NMTAP	45	0	0
NMTAP	45	48	6
NMTAP	45	96	6
NMSTR	45	144	7
NMSLL	45	144	7	96	96	3
NMTAP	45	192	7
NMTAP	45	240	1
NMTAP	45	288	1
NMTAP	45	336	0
NMTAP	46	0	0
NMTAP	46	48	0
NMTAP	46	48	7
NMTAP	46	96	0
NMTAP	46	96	7
EXTAP	46	144	1
EXTAP	46	144	6
NMTAP	46	192	0
NMTAP	46	216	7
NMTAP	46	240	0
NMTAP	46	264	7
NMTAP	46	288	0
BXTAP	46	336	2
BXTAP	46	336	5
NMTAP	47	48	1
NMTAP	47	96	1
NMTAP	47	120	3
NMTAP	47	168	0
NMTAP	47	168	4
NMTAP	47	216	0
NMTAP	47	216	4
NMTAP	47	264	1
NMTAP	47	288	3
EXTAP	47	336	0
EXTAP	47	336	7
NMTAP	48	48	6
NMTAP	48	96	6
NMTAP	48	120	4
NMTAP	48	168	3
NMTAP	48	168	7
NMTAP	48	216	3
NMTAP	48	216	7
NMTAP	48	264	6
NMTAP	48	288	4
EXTAP	48	336	0
EXTAP	48	336	7
NMTAP	49	48	1
NMTAP	49	96	1
NMTAP	49	120	3
NMTAP	49	168	0
NMTAP	49	168	4
NMTAP	49	216	0
NMTAP	49	216	4
NMTAP	49	264	1
NMTAP	49	288	3
EXTAP	49	336	0
EXTAP	49	336	7
NMSTR	50	48	6
NMSI_	50	48	6	96	48	4
NMSTR	50	48	7
NMSI_	50	48	7	96	48	3
NMTAP	50	144	6
NMTAP	50	144	7
NMSTR	50	240	0
NMSI_	50	240	0	96	48	4
NMSTR	50	240	1
NMSI_	50	240	1	96	48	3
NMTAP	50	336	0
NMTAP	50	336	1
NMTAP	51	48	6
NMTAP	51	96	6
NMTAP	51	120	4
NMTAP	51	168	3
NMTAP	51	168	7
NMTAP	51	216	3
NMTAP	51	216	7
NMTAP	51	264	6
NMTAP	51	288	4
EXTAP	51	336	0
EXTAP	51	336	7
NMTAP	52	48	1
NMTAP	52	96	1
NMTAP	52	120	3
NMTAP	52	168	0
NMTAP	52	168	4
NMTAP	52	216	0
NMTAP	52	216	4
NMTAP	52	264	1
NMTAP	52	288	3
EXTAP	52	336	0
EXTAP	52	336	7
NMTAP	53	48	6
NMTAP	53	96	6
NMTAP	53	120	4
NMTAP	53	168	3
NMTAP	53	168	7
NMTAP	53	216	3
NMTAP	53	216	7
NMTAP	53	264	6
NMTAP	53	288	4
EXTAP	53	336	0
EXSTR	53	336	7
BRSXL	53	336	7	96	192	4
EXTAP	54	0	0
EXTAP	54	0	7
NMTAP	54	240	3
NMTAP	54	288	3
NMSTR	55	0	4
BRSXL	55	0	4	96	144	4
NMSXR	55	0	4	96	144	4
NMTAP	55	336	0
NMSTR	56	0	0
NMSSL	56	0	0	96	144	4
NMTAP	56	336	3
NMTAP	56	336	5
NMSTR	57	0	3
NMSV_	57	0	3	96	96	0
NMSTR	57	0	5
NMSV_	57	0	5	96	96	0
NMTAP	57	336	0
NMSTR	58	0	0
NMSCL	58	0	0	96	96	4
NMSCR	58	0	0	96	96	4
NMTAP	58	288	3
NMTAP	58	288	5
NMHLD	59	0	6	72
NMHLD	59	72	5	72
NMTAP	59	144	4
NMHLD	59	192	3	72
NMHLD	59	264	2	72
NMTAP	59	336	1
NMHLD	60	0	1	72
NMHLD	60	72	2	72
NMTAP	60	144	3
NMHLD	60	192	4	72
NMHLD	60	264	5	72
NMTAP	60	336	6
NMSTR	61	0	7
NMSI_	61	0	7	96	96	4
NMSTR	61	192	3
NMSI_	61	192	3	96	96	0
BRTAP	62	0	7
NMTTP	62	240	5	B	0	M1
NMTTP	62	240	5	A	0	M1
NMTTP	62	240	6	E	0	M1
NMTTP	62	288	2	B	0	M1
NMTTP	62	288	2	E	0	M1
NMTTP	62	288	2	A	0	M1

T_REC_TAP	277
T_REC_BRK	4
T_REC_XTP	32
T_REC_BXX	2
T_REC_HLD	34
T_REC_XHO	0
T_REC_BHO	2
T_REC_BXH	0
T_REC_STR	52
T_REC_BST	0
T_REC_XST	2
T_REC_XBS	0
T_REC_TTP	23
T_REC_THO	0
T_REC_SLD	54
T_REC_BSL	4
T_REC_ALL	486
T_NUM_TAP	386
T_NUM_BRK	12
T_NUM_HLD	34
T_NUM_SLD	54
T_NUM_ALL	486
T_JUDGE_TAP	392
T_JUDGE_HLD	126
T_JUDGE_SLD	58
T_JUDGE_ALL	576
TTM_EACHPAIRS	78
TTM_SCR_TAP	193000
TTM_SCR_BRK	31200
TTM_SCR_HLD	34000
TTM_SCR_SLD	81000
TTM_SCR_ALL	339200
TTM_SCR_S	327900
TTM_SCR_SS	338000
TTM_RAT_ACV	10035

