VERSION	0.00.00	1.04.00
FES_MODE	0
BPM_DEF	142.000	142.000	142.000	142.000
MET_DEF	4	4
RESOLUTION	384
CLK_DEF	384
COMPATIBLE_CODE	MA2

BPM	0	0	142.000
MET	0	0	4	4

EXHLD	1	0	2	1152
EXHLD	2	168	5	600
NMTAP	5	0	3
NMTAP	5	96	3
NMTAP	5	192	2
NMTAP	5	192	4
NMTAP	5	288	1
NMTAP	5	288	3
NMSTR	6	0	0
NMSI_	6	0	0	96	96	4
NMTAP	7	0	4
NMTAP	7	96	4
NMTAP	7	192	3
NMTAP	7	192	5
NMTAP	7	288	4
NMTAP	7	288	6
NMSTR	8	0	7
NMSI_	8	0	7	96	96	3
NMTAP	9	0	3
NMTAP	9	0	4
NMTAP	9	96	3
NMTAP	9	96	4
NMTAP	9	192	1
NMTAP	9	192	3
NMTAP	9	288	0
NMTAP	9	288	2
NMSTR	10	0	0
NMSI_	10	0	0	96	96	3
NMTAP	11	0	2
NMTAP	11	96	2
NMTAP	11	96	3
NMTAP	11	192	3
NMTAP	11	288	3
NMTAP	11	288	4
NMHLD	12	0	5	144
EXTAP	12	240	6
BXTAP	12	288	6
NMTAP	13	0	1
NMTAP	13	0	7
NMTAP	13	96	0
NMTAP	13	96	2
NMTAP	13	192	1
NMTAP	13	288	0
NMTAP	13	288	6
EXTAP	13	336	0
EXTAP	13	336	6
NMTAP	14	48	1
NMTAP	14	48	7
NMTAP	14	96	1
NMTAP	14	96	7
NMHLD	14	192	6	96
NMTAP	14	288	4
EXTAP	14	336	4
NMTAP	15	48	3
NMTAP	15	48	5
NMTAP	15	96	3
NMTAP	15	96	5
NMTAP	15	192	2
NMTAP	15	288	2
NMTAP	15	288	3
EXTAP	15	336	2
EXTAP	15	336	3
NMHLD	16	48	1	96
BXTAP	16	144	0
NMHLD	16	240	6	96
BXTAP	16	336	7
NMTAP	17	48	3
NMTAP	17	48	5
NMTAP	17	96	3
NMTAP	17	96	5
NMTAP	17	192	2
NMTAP	17	288	1
NMTAP	17	288	7
EXTAP	17	336	1
EXTAP	17	336	7
NMTAP	18	48	0
NMTAP	18	48	6
NMTAP	18	96	0
NMTAP	18	96	6
NMHLD	18	192	1	96
NMTAP	18	288	3
EXTAP	18	336	3
NMTAP	19	48	4
NMTAP	19	48	5
NMTAP	19	96	4
NMTAP	19	96	5
NMTAP	19	192	6
EXTAP	19	288	7
EXTAP	19	336	7
EXSTR	20	0	7
NMSI_	20	0	7	96	96	4
NMTTP	20	288	2	B	0	M1
NMTTP	20	288	3	B	0	M1
NMTTP	20	288	3	E	0	M1
NMHLD	21	0	5	96
NMTAP	21	96	4
NMHLD	21	144	4	96
NMTAP	21	240	3
NMTAP	21	288	3
NMHLD	22	0	2	96
NMTAP	22	96	3
NMHLD	22	144	3	96
NMTAP	22	240	4
NMTAP	22	288	4
NMHLD	23	0	6	96
NMHLD	23	96	5	96
NMHLD	23	192	4	96
BRSTR	23	288	3
NMSUL	23	288	3	96	192	1
NMHLD	25	0	1	96
NMTAP	25	96	2
NMHLD	25	144	2	96
NMTAP	25	240	3
NMTAP	25	288	3
NMHLD	26	0	6	96
NMTAP	26	96	5
NMHLD	26	144	5	96
NMTAP	26	240	4
NMTAP	26	288	4
NMHLD	27	0	2	96
NMTAP	27	96	3
NMTAP	27	192	4
NMSTR	27	288	5
NMSCR	27	288	5	96	48	7
NMSTR	28	96	2
NMSCL	28	96	2	96	48	0
BRSTR	28	288	5
NMSF_	28	288	5	96	240	1
NMTTP	30	0	3	D	0	M1
NMTTP	30	96	4	E	0	M1
NMTTP	30	192	5	D	0	M1
EXTAP	30	336	7
EXTAP	31	0	7
NMTAP	31	96	4
NMTAP	31	96	5
NMTAP	31	192	2
NMTAP	31	192	3
NMTAP	31	288	1
EXTAP	31	336	1
EXTAP	32	0	0
NMSTR	32	96	0
NMSI_	32	96	0	96	48	3
NMSTR	32	96	7
NMSI_	32	96	7	96	48	4
NMTAP	32	336	3
NMTAP	32	336	4
NMHLD	33	0	3	48
NMHLD	33	0	4	48
NMHLD	33	96	1	48
NMHLD	33	96	3	48
NMHLD	33	192	3	48
NMHLD	33	192	4	48
NMHLD	33	288	4	48
NMHLD	33	288	6	48
NMTAP	34	0	7
NMTAP	34	48	7
NMSTR	34	96	0
BRSI_	34	96	0	96	96	3
EXTAP	34	336	4
EXTAP	35	0	4
NMTAP	35	96	2
NMTAP	35	96	3
NMTAP	35	192	4
NMTAP	35	192	5
NMTAP	35	288	6
EXTAP	35	336	6
EXTAP	36	0	7
NMSTR	36	96	0
NMSI_	36	96	0	96	48	3
NMSTR	36	96	7
NMSI_	36	96	7	96	48	4
NMTAP	36	336	2
NMTAP	36	336	4
NMHLD	37	0	2	48
NMHLD	37	0	4	48
NMHLD	37	96	3	48
NMHLD	37	96	5	48
NMHLD	37	192	2	48
NMHLD	37	192	4	48
NMHLD	37	288	3	48
NMHLD	37	288	5	48
NMTAP	38	0	3
NMTAP	38	0	4
NMTAP	38	96	0
NMTAP	38	96	7
BRTAP	38	192	1
BRTAP	38	192	6
NMTAP	38	336	7
NMHLD	39	0	7	96
NMHLD	39	96	6	96
NMTAP	39	192	5
NMTAP	39	240	5
NMTAP	39	288	4
NMTAP	39	288	5
NMHLD	40	0	0	96
NMHLD	40	96	1	96
NMTAP	40	192	2
NMTAP	40	288	4
EXTAP	40	336	3
EXTAP	40	336	4
EXTAP	41	0	3
EXTAP	41	0	4
NMTAP	41	96	3
NMTAP	41	96	5
NMTAP	41	192	4
NMHLD	41	192	6	96
NMTAP	41	288	7
EXTAP	41	336	7
EXTAP	42	0	7
NMTAP	42	96	2
NMTAP	42	96	3
BRHLD	42	192	1	96
NMHLD	43	0	0	96
NMHLD	43	96	1	96
NMTAP	43	192	2
NMTAP	43	240	2
NMTAP	43	288	3
NMHLD	44	0	6	96
NMTAP	44	96	7
NMTAP	44	192	5
NMTAP	44	240	5
NMTAP	44	288	4
EXTAP	44	336	3
EXTAP	44	336	4
EXTAP	45	0	3
EXTAP	45	0	4
NMHLD	45	96	5	96
NMTAP	45	192	4
NMTAP	45	288	6
NMTAP	45	288	7
NMTAP	46	0	2
NMTAP	46	0	3
NMTAP	46	96	0
NMTAP	46	96	1
EXTAP	46	192	4
EXTAP	46	192	5
EXTAP	46	240	4
EXTAP	46	240	5
NMTAP	46	288	3
NMTAP	46	288	6
BRTAP	46	336	3
BRTAP	46	336	6
NMTAP	47	48	0
NMTAP	47	48	7
NMTAP	47	96	0
NMTAP	47	96	7
NMTAP	47	192	6
NMTAP	47	288	3
NMTAP	47	288	5
EXTAP	47	336	3
EXTAP	47	336	5
NMTAP	48	48	2
NMTAP	48	48	4
NMTAP	48	96	2
NMTAP	48	96	4
NMHLD	48	192	1	96
NMTAP	48	288	3
EXTAP	48	336	3
NMTAP	49	48	2
NMTAP	49	48	4
NMTAP	49	96	2
NMTAP	49	96	4
NMTAP	49	192	5
NMTAP	49	288	4
NMTAP	49	288	5
EXTAP	49	336	4
EXTAP	49	336	5
NMHLD	50	48	6	96
BXTAP	50	144	7
NMHLD	50	240	1	96
BXTAP	50	336	0
NMTAP	51	48	2
NMTAP	51	48	4
NMTAP	51	96	2
NMTAP	51	96	4
NMTAP	51	192	5
NMTAP	51	288	0
NMTAP	51	288	6
EXTAP	51	336	0
EXTAP	51	336	6
NMTAP	52	48	1
NMTAP	52	48	7
NMTAP	52	96	1
NMTAP	52	96	7
NMHLD	52	192	6	96
NMTAP	52	288	4
EXTAP	52	336	4
NMTAP	53	48	2
NMTAP	53	48	3
NMTAP	53	96	2
NMTAP	53	96	3
NMTAP	53	192	1
EXTAP	53	288	0
EXTAP	53	336	0
EXSTR	54	0	0
NMSI_	54	0	0	96	96	3
NMHLD	55	0	5	192
NMTAP	55	192	4
NMTAP	55	336	6
NMSTR	56	0	6
NMSCL	56	0	6	96	96	3
NMHLD	57	0	2	192
NMTAP	57	192	3
NMTAP	57	336	1
NMSTR	58	0	1
NMSCR	58	0	1	96	96	4
NMTAP	59	0	5
NMTAP	59	96	5
NMTAP	59	192	4
NMTAP	59	192	6
NMTAP	59	288	3
NMTAP	60	0	2
NMTAP	60	96	2
NMTAP	60	192	1
NMTAP	60	192	3
NMTAP	60	288	4
NMHLD	61	0	5	96
NMTAP	61	96	4
NMHLD	61	192	3	96
NMTAP	61	288	4
NMTAP	62	0	2
NMTAP	62	0	5
NMTTP	62	240	5	B	0	M1
NMTTP	62	288	2	B	0	M1

T_REC_TAP	179
T_REC_BRK	4
T_REC_XTP	43
T_REC_BXX	5
T_REC_HLD	50
T_REC_XHO	2
T_REC_BHO	1
T_REC_BXH	0
T_REC_STR	12
T_REC_BST	2
T_REC_XST	2
T_REC_XBS	0
T_REC_TTP	8
T_REC_THO	0
T_REC_SLD	15
T_REC_BSL	1
T_REC_ALL	324
T_NUM_TAP	244
T_NUM_BRK	13
T_NUM_HLD	52
T_NUM_SLD	15
T_NUM_ALL	324
T_JUDGE_TAP	255
T_JUDGE_HLD	128
T_JUDGE_SLD	16
T_JUDGE_ALL	399
TTM_EACHPAIRS	83
TTM_SCR_TAP	122000
TTM_SCR_BRK	33800
TTM_SCR_HLD	52000
TTM_SCR_SLD	22500
TTM_SCR_ALL	230300
TTM_SCR_S	222150
TTM_SCR_SS	229000
TTM_RAT_ACV	10056

