VERSION	0.00.00	1.04.00
FES_MODE	0
BPM_DEF	195.000	195.000	195.000	195.000
MET_DEF	4	4
RESOLUTION	384
CLK_DEF	384
COMPATIBLE_CODE	MA2

BPM	0	0	195.000
MET	0	0	4	4

NMHLD	1	0	2	2592
NMTAP	1	96	3
NMTAP	1	288	3
NMTAP	2	96	4
NMTAP	2	288	4
NMTAP	3	96	5
NMTAP	3	288	5
NMTAP	4	96	4
NMTAP	4	288	4
NMTAP	5	96	3
NMTAP	5	288	3
NMTAP	6	96	4
NMTAP	6	288	4
NMTAP	7	96	5
NMTAP	7	288	5
BRTAP	8	0	1
NMTAP	8	0	6
BRTAP	8	96	1
NMTAP	8	96	6
NMTAP	8	192	0
NMTAP	8	224	7
NMTAP	8	256	0
NMTAP	8	288	7
NMTAP	8	320	0
NMTAP	8	352	7
NMTAP	9	0	1
NMTAP	9	64	1
NMTAP	9	96	2
NMTAP	9	160	2
NMTAP	9	192	3
NMTAP	9	288	4
NMTAP	9	288	5
NMTAP	10	0	3
NMTAP	10	0	6
NMTAP	10	64	3
NMTAP	10	64	6
NMSTR	10	160	7
NMSCL	10	160	7	96	64	3
NMTAP	11	0	0
NMTAP	11	64	0
NMTAP	11	96	7
NMTAP	11	160	7
NMTAP	11	192	6
NMTAP	11	256	6
NMTAP	11	288	5
NMTAP	11	352	5
NMTAP	12	0	3
NMSTR	12	64	3
NMSI_	12	64	3	96	64	0
NMTAP	12	96	4
EXTAP	12	160	4
NMTAP	13	0	6
NMTAP	13	64	6
NMTAP	13	96	5
NMTAP	13	160	5
NMTAP	13	192	4
NMTAP	13	288	2
NMTAP	13	288	3
NMTAP	14	0	1
NMTAP	14	0	4
NMTAP	14	64	1
NMTAP	14	64	4
NMHLD	14	160	0	96
NMTAP	14	256	3
NMTAP	14	288	3
NMHLD	14	352	4	128
NMTAP	15	96	5
NMTAP	15	192	6
NMTAP	15	192	7
NMSTR	15	256	6
NMSXR	15	256	6	96	224	2
NMSTR	15	256	7
BRSXL	15	256	7	96	224	3
NMTAP	17	0	2
NMHLD	17	0	3	672
NMTAP	17	96	2
NMTAP	17	192	1
NMTAP	17	288	1
NMTAP	18	0	2
NMTAP	18	96	2
NMTAP	18	192	0
NMTAP	18	288	0
NMTAP	19	0	2
NMTAP	19	0	3
NMTAP	19	96	2
NMTAP	19	96	3
NMTAP	19	192	1
NMTAP	19	192	3
NMTAP	19	288	1
NMTAP	19	288	3
NMTAP	20	0	0
NMTAP	20	0	3
NMSTR	20	96	0
NMSCR	20	96	0	96	96	3
NMTAP	20	96	3
NMTAP	21	0	2
NMHLD	21	0	3	96
NMTAP	21	96	1
NMTAP	21	192	2
NMHLD	21	192	3	96
NMTAP	21	288	1
NMHLD	22	0	2	96
NMTAP	22	0	3
NMTAP	22	96	1
NMHLD	22	192	2	96
NMTAP	22	192	3
NMTAP	22	288	1
NMSTR	23	0	1
NMSI_	23	0	1	96	48	3
NMTAP	23	0	3
NMTAP	23	96	3
NMSTR	23	192	0
NMSI_	23	192	0	96	48	3
NMTAP	23	288	3
BXSTR	24	0	1
NMSI_	24	0	1	96	64	3
BXTAP	24	96	3
CNSI_	24	160	3	0	128	6
BXTAP	24	192	4
BXTAP	24	288	5
NMTAP	25	0	4
NMTAP	25	0	5
NMTAP	25	96	6
NMTAP	25	160	4
NMTAP	25	192	5
NMTAP	25	288	4
NMTAP	25	288	6
NMTAP	26	0	4
NMTAP	26	0	5
NMTAP	26	96	6
NMSTR	26	160	4
NMSCR	26	160	4	96	64	7
NMTAP	26	192	5
NMTAP	27	0	6
NMTAP	27	0	7
NMTAP	27	96	5
NMTAP	27	160	7
NMTAP	27	192	6
NMTAP	27	288	5
NMTAP	27	288	7
NMTAP	28	0	6
NMTAP	28	0	7
NMTAP	28	96	5
NMSTR	28	160	7
NMSCL	28	160	7	96	64	4
NMTAP	28	192	6
NMTAP	29	0	4
NMTAP	29	0	5
NMTAP	29	96	6
NMTAP	29	160	4
NMTAP	29	192	5
NMTAP	29	256	4
NMTAP	29	288	6
NMTAP	29	352	4
NMTAP	30	0	5
NMTAP	30	96	4
NMTAP	30	96	5
NMTAP	30	160	6
NMTAP	30	192	7
NMTAP	30	256	5
NMTAP	30	288	7
NMTAP	30	352	6
NMTAP	31	0	7
NMTAP	31	96	6
NMTAP	31	96	7
NMTAP	31	192	4
NMTAP	31	192	5
NMTAP	31	256	4
NMTAP	31	256	5
NMHLD	32	0	4	64
NMHLD	32	64	5	64
NMHLD	32	128	6	64
NMTAP	32	192	7
NMSTR	32	288	4
BRSI_	32	288	4	96	48	0
NMSTR	32	288	5
BRSI_	32	288	5	96	48	1
BXTAP	33	0	4
BXTAP	33	0	5
EXTAP	34	0	2
EXTAP	34	12	3
EXTAP	34	24	4
EXTAP	35	0	6
EXTAP	35	12	5
EXHLD	35	24	4	136
EXTAP	35	192	1
EXTAP	35	204	2
EXHLD	35	216	3	136
EXTAP	36	0	5
EXTAP	36	12	4
EXHLD	36	24	3	136
EXTAP	36	192	1
EXTAP	36	204	2
EXHLD	36	216	3	168
NMSTR	37	0	7
NMSCR	37	0	7	96	96	2
NMTAP	37	96	6
NMTAP	37	192	5
NMTAP	37	288	4
NMSTR	38	0	3
NMSCR	38	0	3	96	96	6
NMTAP	38	96	2
NMTAP	38	192	1
NMTAP	38	288	0
NMHLD	39	0	0	96
NMTTP	39	96	4	A	0	M1
NMTTP	39	192	5	A	0	M1
NMTTP	39	288	6	A	0	M1
EXTAP	40	0	1
EXTAP	40	64	3
EXTAP	40	128	2
EXTAP	40	192	6
EXTAP	40	256	4
EXTAP	40	320	5
BRTAP	41	0	1
BRTAP	41	0	6
NMTAP	41	96	7
NMTAP	41	192	6
NMTAP	41	288	3
NMTAP	41	288	5
NMHLD	42	0	2	96
NMTAP	42	96	0
NMHLD	42	192	1	96
NMTAP	42	192	7
NMTAP	42	288	3
NMSTR	43	0	2
NMSCR	43	0	2	96	96	5
NMTAP	43	96	5
NMSTR	43	192	6
NMSCR	43	192	6	96	96	1
NMTAP	43	288	1
NMTAP	44	0	2
NMSTR	44	96	3
NMSCL	44	96	3	96	96	0
NMHLD	44	96	5	192
NMTAP	45	0	4
NMTAP	45	0	6
NMTAP	45	96	3
NMTAP	45	96	5
NMTAP	45	192	2
NMTAP	45	256	2
NMTAP	45	288	0
NMTAP	46	0	1
NMTAP	46	0	3
NMTAP	46	96	2
NMTAP	46	96	4
NMTAP	46	192	5
NMTAP	46	256	5
NMTAP	46	288	7
NMTAP	47	0	4
NMTAP	47	0	6
NMTAP	47	96	2
NMTAP	47	96	3
NMTAP	47	192	1
NMTAP	47	256	1
NMTAP	47	288	7
NMTAP	47	352	7
NMSTR	48	0	2
NMSXR	48	0	2	96	192	5
BXTAP	48	96	6
BXTAP	48	192	5
BXTAP	48	288	4
EXTAP	49	0	0
EXTAP	49	0	7
BRTAP	50	0	2
BRTAP	50	0	3
BRTAP	50	96	5
BRTAP	50	96	7
BRTAP	50	160	0
BRTAP	50	160	4
NMTAP	50	288	1
NMTAP	50	288	7
NMSTR	51	0	2
NMSI_	51	0	2	96	48	7
NMSTR	51	64	6
BRSI_	51	64	6	96	48	3
NMTAP	51	96	2
NMTAP	51	160	6
NMSTR	51	192	1
NMSI_	51	192	1	96	48	4
NMSTR	51	256	5
BRSI_	51	256	5	96	48	0
NMTAP	51	288	1
NMTAP	51	352	5
NMSTR	52	0	3
NMSI_	52	0	3	96	48	0
NMSTR	52	64	7
BRSI_	52	64	7	96	48	4
NMTAP	52	96	3
NMTAP	52	160	7
NMHLD	52	256	1	96
NMTAP	52	352	0
NMTAP	53	0	2
NMTAP	53	96	3
NMTAP	53	96	4
NMTAP	53	192	4
NMTAP	53	192	5
NMSTR	53	256	6
BRSI_	53	256	6	96	48	2
NMSTR	53	256	7
NMSI_	53	256	7	96	48	3
NMTTP	53	368	7	E	0	M1
NMTTP	54	0	0	C	0	M1
NMTTP	54	16	3	E	1	M1
NMTAP	54	192	0
NMTAP	54	192	7
NMTAP	54	288	2
NMTAP	54	288	3
NMTAP	55	0	4
NMTAP	55	0	6
NMTAP	55	64	0
NMSTR	55	96	7
NMSCL	55	96	7	96	48	4
EXTAP	55	192	2
EXTAP	55	256	2
NMTAP	55	352	1
NMTAP	55	352	3
NMTAP	56	64	2
NMSTR	56	96	4
NMSCR	56	96	4	96	48	7
NMTAP	56	192	3
NMSTR	56	288	3
NMSCR	56	288	3	96	192	2
NMHLD	57	0	7	96
NMTAP	57	288	0
NMTAP	58	0	1
NMTAP	58	0	7
NMTAP	58	64	1
NMTAP	58	64	7
NMHLD	58	160	2	128
BRHLD	58	160	6	128
NMSTR	59	0	5
BRSI_	59	0	5	96	48	0
NMSTR	59	64	1
NMSI_	59	64	1	96	48	4
NMTAP	59	96	5
NMTAP	59	160	1
NMSTR	59	192	6
BRSI_	59	192	6	96	48	3
NMSTR	59	256	2
NMSI_	59	256	2	96	48	7
NMTAP	59	288	6
NMTAP	59	352	2
NMSTR	60	0	4
BRSI_	60	0	4	96	48	7
NMSTR	60	64	0
NMSI_	60	64	0	96	48	3
NMTAP	60	96	4
NMTAP	60	160	0
NMHLD	60	256	6	96
NMTAP	60	352	7
NMTAP	61	0	5
NMTAP	61	96	3
NMTAP	61	96	4
NMTAP	61	192	2
NMTAP	61	192	3
NMSTR	61	256	0
NMSCL	61	256	0	96	80	5
NMSTR	61	256	1
BRSCR	61	256	1	96	80	4
EXTAP	61	352	0
EXTAP	61	352	1
NMTAP	62	192	6
NMTAP	62	192	7
NMTAP	62	288	0
NMTAP	62	288	1
NMTAP	63	0	2
NMTAP	63	64	5
NMTAP	63	96	4
NMTAP	63	160	6
NMTAP	63	192	7
NMTAP	63	256	5
NMSTR	63	288	4
NMSCL	63	288	4	96	48	1
EXTAP	64	0	4
NMTAP	64	96	0
NMTAP	64	192	7
NMTAP	64	288	0
NMTAP	64	288	6
NMTAP	65	0	5
NMTAP	65	64	2
NMTAP	65	96	3
NMTAP	65	160	1
NMTAP	65	192	0
NMTAP	65	256	2
NMSTR	65	288	3
NMSCR	65	288	3	96	48	7
EXTAP	66	0	3
NMTAP	66	96	1
NMTAP	66	192	0
NMTAP	66	288	6
NMTAP	66	288	7
NMTAP	67	0	4
NMTAP	67	0	5
NMTAP	67	96	0
NMTAP	67	96	2
NMTAP	67	192	2
NMTAP	67	192	3
NMTAP	67	288	5
NMTAP	67	288	7
EXTAP	68	0	3
EXHLD	68	0	6	320
EXTAP	68	64	4
EXTAP	68	128	5
EXTAP	68	192	7
EXTAP	68	256	0
EXTAP	68	320	1
EXTAP	69	0	3
EXSTR	69	0	4
NMSI_	69	0	4	96	48	7
NMTAP	69	160	1
NMTAP	69	192	1
NMTAP	69	256	0
NMTAP	69	256	6
NMTAP	69	352	4
NMTAP	69	352	5
NMTAP	70	0	4
NMTAP	70	0	5
NMTAP	70	96	2
NMTAP	70	96	6
NMTAP	70	192	0
NMTAP	70	192	7
EXSTR	70	256	0
NMSCR	70	256	0	96	320	7
EXSTR	70	256	7
BRSCL	70	256	7	96	320	0
NMTTP	72	0	0	C	1	M1
NMTTP	72	0	1	B	0	M1
NMTTP	72	0	2	B	0	M1
NMTTP	72	0	2	E	0	M1
NMTTP	72	0	5	B	0	M1
NMTTP	72	0	6	B	0	M1
NMTTP	72	0	6	E	0	M1
NMTAP	73	0	0
NMTAP	73	64	0
NMTAP	73	96	7
NMTAP	73	160	7
NMTAP	73	192	6
NMTAP	73	256	6
NMTAP	73	288	5
NMTAP	73	352	5
NMTAP	74	0	3
NMSTR	74	64	3
NMSI_	74	64	3	96	64	0
NMTAP	74	96	4
EXTAP	74	160	4
NMTAP	75	0	6
NMTAP	75	64	6
NMTAP	75	96	5
NMTAP	75	160	5
NMTAP	75	192	4
NMTAP	75	288	2
NMTAP	75	288	3
NMTAP	76	0	1
NMTAP	76	0	4
NMTAP	76	64	1
NMTAP	76	64	4
NMHLD	76	160	0	96
NMTAP	76	256	3
NMTAP	76	288	3
NMHLD	76	352	4	128
NMTAP	77	96	5
NMTAP	77	192	6
NMTAP	77	192	7
NMSTR	77	256	6
NMSXR	77	256	6	96	224	2
NMSTR	77	256	7
BRSXL	77	256	7	96	224	3
EXSTR	79	0	0
NMSI_	79	0	0	96	48	3
EXTAP	79	0	7
EXTAP	79	96	0
NMSTR	79	96	3
NMSI_	79	96	3	96	48	0
EXTAP	79	192	3
EXTAP	79	192	4
NMTAP	79	288	5
NMTAP	79	352	0
NMTAP	80	0	7
NMTAP	80	96	2
NMTAP	80	96	3
NMTAP	80	160	2
NMTAP	80	160	3
NMTAP	80	256	5
NMTAP	80	288	4
EXTAP	81	0	3
EXSTR	81	0	4
NMSI_	81	0	4	96	48	7
EXTAP	81	96	4
EXSTR	81	96	7
NMSI_	81	96	7	96	48	4
EXTAP	81	192	0
EXTAP	81	192	7
NMTAP	81	288	2
NMTAP	81	352	4
NMTAP	82	0	3
NMTAP	82	96	4
NMTAP	82	96	5
NMTAP	82	160	4
NMTAP	82	160	5
NMTAP	82	256	2
NMTAP	82	288	3
EXTAP	83	0	2
EXSTR	83	0	3
NMSI_	83	0	3	96	48	6
EXTAP	83	96	3
EXSTR	83	96	6
NMSI_	83	96	6	96	48	3
EXTAP	83	192	6
EXTAP	83	192	7
NMTAP	83	288	1
NMTAP	83	352	4
NMTAP	84	0	3
NMTAP	84	96	1
NMTAP	84	96	3
NMHLD	84	160	1	128
NMTAP	84	160	3
NMTAP	84	288	0
NMTAP	85	0	2
NMTAP	85	0	3
NMTAP	85	96	4
NMTAP	85	96	5
NMTAP	85	192	1
NMTAP	85	192	6
NMSTR	85	256	1
NMSCR	85	256	1	96	176	3
NMSTR	85	256	6
BRSCL	85	256	6	96	176	4
EXTAP	85	352	1
EXTAP	85	352	6
CNSSR	86	144	3	0	48	7
CNSSL	86	144	4	0	48	0
NMTAP	87	0	3
NMTAP	87	0	5
NMTAP	87	64	4
NMTAP	87	96	2
NMTAP	87	160	0
NMTAP	87	160	7
NMTAP	87	256	1
NMTAP	87	288	3
NMTAP	87	352	2
NMTAP	88	0	4
NMTAP	88	64	3
NMTAP	88	96	5
NMTAP	88	160	6
NMTAP	88	160	7
NMTAP	88	256	5
NMTAP	88	288	3
NMTAP	88	352	4
NMTAP	89	0	2
NMSTR	89	64	3
NMSCR	89	64	3	96	48	6
NMTAP	89	96	1
EXTAP	89	160	3
NMTAP	89	256	0
NMTAP	89	288	7
EXTAP	89	352	3
EXTAP	89	352	5
BXSTR	90	0	3
NMSCL	90	0	3	96	1056	7
BXSTR	90	0	5
BRSCL	90	0	5	96	1056	7

T_REC_TAP	337
T_REC_BRK	10
T_REC_XTP	51
T_REC_BXX	8
T_REC_HLD	22
T_REC_XHO	5
T_REC_BHO	1
T_REC_BXH	0
T_REC_STR	45
T_REC_BST	0
T_REC_XST	8
T_REC_XBS	3
T_REC_TTP	13
T_REC_THO	0
T_REC_SLD	41
T_REC_BSL	15
T_REC_ALL	559
T_NUM_TAP	454
T_NUM_BRK	37
T_NUM_HLD	27
T_NUM_SLD	41
T_NUM_ALL	559
T_JUDGE_TAP	475
T_JUDGE_HLD	137
T_JUDGE_SLD	56
T_JUDGE_ALL	668
TTM_EACHPAIRS	110
TTM_SCR_TAP	227000
TTM_SCR_BRK	96200
TTM_SCR_HLD	27000
TTM_SCR_SLD	61500
TTM_SCR_ALL	411700
TTM_SCR_S	395800
TTM_SCR_SS	408000
TTM_RAT_ACV	10090

