VERSION	0.00.00	1.04.00
FES_MODE	0
BPM_DEF	195.000	195.000	195.000	195.000
MET_DEF	4	4
RESOLUTION	384
CLK_DEF	384
COMPATIBLE_CODE	MA2

BPM	0	0	195.000
MET	0	0	4	4

NMTAP	1	96	3
NMTAP	1	288	3
NMTAP	2	96	3
NMHLD	2	288	3	768
NMTAP	3	96	4
NMTAP	3	288	4
NMTAP	4	96	4
NMHLD	4	288	5	768
NMTAP	5	96	4
NMTAP	5	288	4
NMTAP	6	96	3
NMHLD	6	288	2	384
NMTAP	7	96	3
NMTAP	7	288	4
EXTAP	8	0	3
EXTAP	8	0	4
EXTAP	8	96	3
EXTAP	8	96	4
EXTAP	8	192	3
EXTAP	8	192	4
NMTAP	9	0	5
NMTAP	9	96	5
NMTAP	9	192	6
NMTAP	9	192	7
NMTAP	9	288	6
NMTAP	9	288	7
NMTAP	10	0	0
NMTAP	10	96	1
NMTAP	10	192	2
NMTAP	10	192	7
NMTAP	10	288	2
NMTAP	10	288	7
NMTAP	11	0	2
NMTAP	11	96	2
NMTAP	11	192	0
NMTAP	11	192	1
NMTAP	11	288	0
NMTAP	11	288	1
NMTAP	12	0	7
NMTAP	12	96	6
NMTAP	12	192	0
NMTAP	12	192	5
NMTAP	12	288	0
NMTAP	12	288	5
NMTAP	13	0	1
NMTAP	13	96	1
NMTAP	13	192	2
NMTAP	13	192	3
NMTAP	13	288	3
NMTAP	13	288	4
NMTAP	14	0	5
NMTAP	14	96	5
NMTAP	14	192	4
NMTAP	14	192	6
NMTAP	14	288	3
NMTAP	14	288	5
NMHLD	15	0	2	96
NMTAP	15	96	3
NMHLD	15	192	5	96
NMTAP	15	288	4
NMTAP	16	0	3
NMTAP	16	0	4
NMTAP	16	96	3
NMTAP	16	96	4
EXTAP	16	192	2
EXTAP	16	192	5
NMHLD	17	0	3	96
NMHLD	17	0	4	96
NMTAP	17	192	3
NMTAP	17	192	4
NMHLD	18	0	4	96
NMHLD	18	0	5	96
NMTAP	18	192	4
NMTAP	18	192	5
NMHLD	19	0	3	96
NMHLD	19	0	6	96
NMTAP	19	192	3
NMTAP	19	192	6
NMHLD	20	0	2	96
NMHLD	20	0	7	96
NMTAP	20	192	2
NMTAP	20	192	7
NMHLD	21	0	3	96
NMHLD	21	0	7	96
NMHLD	21	192	4	96
NMHLD	21	192	6	96
NMHLD	22	0	3	96
NMHLD	22	0	5	96
NMHLD	22	192	2	96
NMHLD	22	192	4	96
NMHLD	23	0	1	96
NMHLD	23	0	3	96
NMHLD	23	192	1	96
NMHLD	23	192	2	96
NMTAP	24	0	0
NMTAP	24	0	3
NMTAP	24	96	0
NMTAP	24	96	3
EXTAP	24	192	1
EXTAP	24	192	4
NMHLD	25	0	5	672
NMTAP	25	96	4
NMTAP	25	192	4
NMTAP	25	288	3
NMTAP	26	0	4
NMTAP	26	96	4
NMTAP	26	192	6
NMTAP	26	288	0
NMHLD	27	0	1	480
NMTAP	27	96	4
NMTAP	27	192	4
NMTAP	27	288	2
BXTAP	28	0	0
NMTAP	28	96	0
NMTAP	28	192	7
NMTAP	28	288	6
NMHLD	29	0	5	288
NMTAP	29	96	3
NMTAP	29	192	3
NMTAP	29	288	4
NMHLD	30	0	1	288
NMTAP	30	96	3
NMTAP	30	192	3
NMTAP	30	288	0
NMHLD	31	0	7	288
NMTAP	31	96	1
NMTAP	31	192	1
NMTAP	31	288	2
EXTAP	32	0	7
EXTAP	32	96	5
EXTAP	32	192	3
NMSTR	32	288	1
NMSCL	32	288	1	96	192	6
NMSTR	33	288	5
NMSCL	33	288	5	96	192	2
NMSTR	34	288	1
NMSCL	34	288	1	96	192	6
NMSTR	35	288	5
NMSCL	35	288	5	96	192	2
NMTAP	36	288	1
NMHLD	37	0	1	384
NMTTP	37	192	2	B	0	M1
NMTTP	37	192	3	B	0	M1
NMHLD	38	0	5	384
NMTTP	38	192	4	B	0	M1
NMTTP	38	192	5	B	0	M1
NMHLD	39	0	3	192
NMHLD	39	192	4	192
NMTHO	40	0	0	192	C	0	M1
NMTAP	41	0	0
NMTAP	41	0	7
NMTAP	41	96	0
NMTAP	41	96	7
NMTAP	41	192	1
NMTAP	41	288	2
NMTAP	42	0	3
NMTAP	42	0	5
NMTAP	42	96	5
NMTAP	42	192	2
NMTAP	42	192	4
NMTAP	42	288	2
NMTAP	43	0	0
NMTAP	43	0	1
NMTAP	43	96	0
NMTAP	43	96	1
NMTAP	43	192	0
NMTAP	43	192	7
NMTAP	43	288	6
NMTAP	43	288	7
EXHLD	44	0	0	96
EXHLD	44	0	5	96
NMTAP	44	192	1
NMTAP	44	192	4
NMTAP	44	288	2
NMTAP	44	288	3
NMHLD	45	0	5	96
NMTAP	45	96	4
NMHLD	45	192	2	96
NMTAP	45	288	3
NMHLD	46	0	6	96
NMTAP	46	96	4
NMHLD	46	192	1	96
NMTAP	46	288	3
NMHLD	47	0	6	96
NMTAP	47	96	7
NMHLD	47	192	1	96
NMSTR	47	288	0
NMSCL	47	288	0	96	192	4
NMTHO	49	0	0	384	C	1	M1
NMTTP	50	0	1	B	0	M1
NMTTP	50	0	6	B	0	M1
EXTAP	50	288	0
EXTAP	50	288	7
BXTAP	51	0	1
BXTAP	51	0	6
NMTAP	51	96	2
NMTAP	51	96	3
NMTAP	51	192	0
NMTAP	51	192	7
NMTAP	51	288	4
NMTAP	51	288	5
NMTAP	52	0	2
NMTAP	52	0	3
NMTAP	52	96	0
NMTAP	52	96	1
NMTAP	52	192	6
NMTAP	52	192	7
NMTAP	52	288	6
NMTAP	52	288	7
NMTAP	53	0	0
NMHLD	53	0	5	96
NMTAP	53	96	4
NMHLD	53	192	2	96
NMTAP	53	192	7
NMTAP	53	288	3
NMTAP	54	0	1
NMTAP	54	0	4
NMTAP	54	96	2
NMTAP	54	96	5
NMTAP	54	192	3
NMTAP	54	192	6
EXTAP	54	288	2
EXTAP	54	288	7
NMHLD	55	0	1	96
NMHLD	55	96	3	96
NMHLD	55	192	4	96
NMHLD	55	288	6	96
NMHLD	56	0	2	96
NMHLD	56	96	0	96
NMHLD	56	192	7	96
NMTAP	56	288	6
NMTAP	57	0	0
NMTAP	57	0	5
NMTAP	57	96	1
NMTAP	57	96	6
NMTAP	57	192	2
NMTAP	57	192	7
BXTAP	57	288	0
BXTAP	57	288	1
BXTAP	58	0	2
BXTAP	58	0	3
BXTAP	58	64	2
BXTAP	58	64	3
BXHLD	58	160	1	128
BXHLD	58	160	5	128
BXTAP	59	0	0
BXTAP	59	0	7
NMTAP	59	96	4
NMTAP	59	96	5
NMTAP	59	192	0
NMTAP	59	192	7
NMTAP	59	288	2
NMTAP	59	288	3
NMTAP	60	0	4
NMTAP	60	0	5
NMTAP	60	96	6
NMTAP	60	96	7
NMTAP	60	192	0
NMTAP	60	192	1
NMTAP	60	288	0
NMTAP	60	288	1
NMHLD	61	0	7	96
NMHLD	61	96	5	96
NMTAP	61	192	4
NMTAP	61	288	4
NMHLD	62	0	3	96
NMHLD	62	96	1	96
NMTAP	62	192	0
NMTAP	62	288	0
NMTAP	63	0	1
NMSTR	63	0	7
NMSI_	63	0	7	96	96	4
NMSTR	63	192	3
NMSI_	63	192	3	96	96	0
NMTAP	64	0	6
NMHLD	64	96	6	96
NMTAP	64	192	7
NMTAP	64	288	0
NMTAP	64	288	5
NMTAP	65	0	1
NMSTR	65	0	4
NMSCR	65	0	4	96	96	7
NMSTR	65	192	0
NMSCR	65	192	0	96	96	3
NMTAP	66	0	4
NMHLD	66	96	5	96
NMTAP	66	192	4
NMTAP	66	288	3
NMSTR	66	288	6
NMSUL	66	288	6	96	192	1
NMHLD	67	288	0	96
EXTAP	68	0	7
EXTAP	68	64	7
EXTAP	68	128	7
EXTAP	68	192	0
EXTAP	68	192	6
EXTAP	68	256	0
EXTAP	68	256	6
EXTAP	68	320	0
EXTAP	68	320	6
EXHLD	69	0	1	96
EXHLD	69	0	5	96
NMTAP	69	192	2
NMTAP	69	192	4
NMTAP	69	288	2
NMTAP	69	288	4
BRTAP	70	0	4
BRTAP	70	0	5
BRTAP	70	96	0
BRTAP	70	96	1
BRTAP	70	192	2
BRTAP	70	192	3
BRTAP	70	288	6
BRTAP	70	288	7
BRHLD	71	0	0	672
BRTAP	71	0	5
NMTAP	71	192	3
NMTAP	71	288	3
NMTAP	72	0	4
NMTAP	72	96	4
NMTAP	72	192	3
NMTAP	72	288	3
NMTAP	73	0	1
NMTAP	73	0	4
NMTAP	73	96	1
NMTAP	73	96	4
NMTAP	73	192	2
NMTAP	73	192	3
NMSTR	73	288	4
NMSCL	73	288	4	96	216	7
NMTAP	73	288	5
EXTAP	74	288	6
NMTAP	75	0	6
NMTAP	75	0	7
NMTAP	75	96	6
NMTAP	75	96	7
NMHLD	75	192	5	96
NMTAP	75	288	4
NMTAP	76	0	2
NMTAP	76	0	3
NMTAP	76	96	2
NMTAP	76	96	3
NMHLD	76	192	1	96
NMTAP	76	288	0
NMTAP	77	0	2
NMTAP	77	0	7
NMTAP	77	96	3
NMTAP	77	96	6
NMTAP	77	192	4
NMTAP	77	192	5
NMTAP	77	288	4
NMTAP	77	288	5
NMHLD	78	0	3	96
NMHLD	78	0	4	96
EXTAP	78	192	3
EXTAP	78	192	4
BXTAP	78	288	3
BXTAP	78	288	4
NMHLD	79	0	5	64
NMTAP	79	64	4
NMTAP	79	96	6
NMHLD	79	192	2	64
NMTAP	79	256	3
NMTAP	79	288	1
NMHLD	80	0	5	64
NMTAP	80	64	4
NMTAP	80	96	6
NMTAP	80	192	3
NMTAP	80	192	7
NMTAP	80	288	6
NMHLD	81	0	6	64
NMTAP	81	64	7
NMTAP	81	96	5
NMHLD	81	192	1	64
NMTAP	81	256	0
NMTAP	81	288	2
NMHLD	82	0	6	64
NMTAP	82	64	7
NMTAP	82	96	5
EXTAP	82	192	0
EXTAP	82	192	4
EXTAP	82	288	1
EXTAP	82	288	3
NMHLD	83	0	5	64
NMTAP	83	64	4
NMTAP	83	96	6
NMHLD	83	192	2	64
NMTAP	83	256	3
NMTAP	83	288	1
NMHLD	84	0	6	64
NMTAP	84	64	7
NMTAP	84	96	5
NMHLD	84	192	1	64
NMTAP	84	256	0
NMTAP	84	288	2
NMTAP	85	0	3
NMTAP	85	0	7
NMTAP	85	96	6
EXTAP	85	192	1
EXTAP	85	192	5
EXTAP	85	256	1
EXTAP	85	256	5
BXHLD	85	352	0	224
BXHLD	85	352	4	224
BXTAP	87	0	0
BXTAP	87	0	7
NMTAP	87	96	4
NMTAP	87	96	6
NMTAP	87	192	3
NMTAP	87	192	4
NMTAP	87	288	1
NMTAP	87	288	3
BXTAP	88	0	0
BXTAP	88	0	7
NMTAP	88	96	4
NMTAP	88	96	6
NMTAP	88	192	1
NMTAP	88	192	3
NMTAP	88	288	0
NMTAP	88	288	7
BXTAP	89	0	4
BXTAP	89	0	5
NMTAP	89	96	1
NMTAP	89	96	2
NMTAP	89	192	6
NMTAP	89	192	7
NMTAP	89	288	0
NMTAP	89	288	5
BXHLD	90	0	2	1120
BXTAP	90	0	3
NMTHO	90	192	0	928	C	0	M1

T_REC_TAP	254
T_REC_BRK	9
T_REC_XTP	37
T_REC_BXX	20
T_REC_HLD	70
T_REC_XHO	4
T_REC_BHO	1
T_REC_BXH	5
T_REC_STR	11
T_REC_BST	0
T_REC_XST	0
T_REC_XBS	0
T_REC_TTP	6
T_REC_THO	3
T_REC_SLD	11
T_REC_BSL	0
T_REC_ALL	431
T_NUM_TAP	308
T_NUM_BRK	35
T_NUM_HLD	77
T_NUM_SLD	11
T_NUM_ALL	431
T_JUDGE_TAP	337
T_JUDGE_HLD	316
T_JUDGE_SLD	11
T_JUDGE_ALL	664
TTM_EACHPAIRS	126
TTM_SCR_TAP	154000
TTM_SCR_BRK	91000
TTM_SCR_HLD	77000
TTM_SCR_SLD	16500
TTM_SCR_ALL	338500
TTM_SCR_S	324950
TTM_SCR_SS	335000
TTM_RAT_ACV	10104

