VERSION	0.00.00	1.04.00
FES_MODE	0
BPM_DEF	181.000	181.000	181.000	181.000
MET_DEF	4	4
RESOLUTION	384
CLK_DEF	384
COMPATIBLE_CODE	MA2

BPM	0	0	181.000
MET	0	0	4	4

NMTAP	1	0	3
NMTAP	1	0	6
NMHLD	1	96	2	480
NMSTR	1	96	4
NMSI_	1	96	4	96	480	7
NMTAP	2	360	2
NMTAP	2	372	3
NMTAP	3	0	4
NMTAP	3	96	4
NMTAP	3	96	5
NMTAP	3	192	4
NMTAP	3	240	5
NMTAP	3	288	6
NMSTR	3	336	0
NMSI_	3	336	0	96	48	4
NMSTR	4	0	7
NMSI_	4	0	7	96	48	3
NMTAP	4	48	0
NMTAP	4	96	7
EXTAP	4	192	3
EXTAP	4	192	4
EXSTR	4	240	2
NMSCL	4	240	2	96	48	7
EXTAP	4	240	5
BRTAP	4	336	2
BRTAP	4	336	5
NMTAP	5	96	4
NMTAP	5	96	5
NMTAP	5	192	6
NMTAP	5	240	4
NMTAP	5	288	5
NMHLD	5	336	3	48
NMHLD	5	336	7	48
NMHLD	6	48	1	48
NMHLD	6	48	5	48
NMHLD	6	144	3	48
NMHLD	6	144	6	48
NMSTR	6	240	5
NMSCR	6	240	5	96	48	0
NMTAP	6	264	4
NMTAP	6	288	5
NMTAP	6	312	4
NMTAP	7	48	2
NMTAP	7	96	2
NMTAP	7	96	3
NMTAP	7	192	1
NMTAP	7	240	3
NMTAP	7	288	2
NMHLD	7	336	0	48
NMHLD	7	336	4	48
NMHLD	8	48	2	48
NMHLD	8	48	6	48
NMTAP	8	144	0
NMTAP	8	144	5
NMTAP	8	192	7
NMTAP	8	216	6
NMTAP	8	240	7
NMTAP	8	264	6
NMTAP	8	288	0
NMTAP	8	336	0
NMTAP	8	336	5
NMTAP	9	48	5
NMTAP	9	96	4
NMTAP	9	96	5
NMTAP	9	192	6
NMTAP	9	240	4
NMTAP	9	288	5
NMHLD	9	336	3	48
NMHLD	9	336	7	48
NMHLD	10	48	1	48
NMHLD	10	48	5	48
NMHLD	10	144	3	48
NMHLD	10	144	6	48
NMSTR	10	240	5
NMSCR	10	240	5	96	48	0
NMTAP	10	264	4
NMTAP	10	288	5
NMTAP	10	312	4
NMTAP	11	48	2
NMTAP	11	96	1
NMTAP	11	96	3
NMTAP	11	192	4
NMTAP	11	192	6
NMSTR	11	240	4
NMSI_	11	240	4	96	48	1
NMTAP	11	240	6
NMTAP	11	336	4
NMSTR	11	336	7
NMSI_	11	336	7	96	48	3
NMSTR	12	48	2
NMSI_	12	48	2	96	48	6
NMTAP	12	48	7
NMTAP	12	144	2
NMSTR	12	144	4
NMSI_	12	144	4	96	48	0
NMTAP	12	240	3
NMTAP	12	240	4
NMTAP	12	336	2
NMHLD	12	336	6	624
NMTTP	13	96	5	E	0	M1
NMTTP	13	192	5	E	0	M1
NMTTP	13	288	5	E	0	M1
NMTTP	14	0	5	E	0	M1
NMTTP	14	96	5	E	0	M1
NMHLD	14	192	4	144
NMHLD	14	336	2	624
NMTTP	15	96	1	A	0	M1
NMTTP	15	192	1	A	0	M1
NMTTP	15	288	1	A	0	M1
NMTTP	16	0	1	A	0	M1
NMTTP	16	96	1	A	0	M1
NMHLD	16	192	1	144
NMHLD	16	336	0	432
NMTTP	17	96	1	A	0	M1
NMTTP	17	192	2	A	0	M1
NMTTP	17	288	3	A	0	M1
NMHLD	18	0	3	480
NMTTP	18	96	2	A	0	M1
NMTTP	18	192	1	A	0	M1
NMTTP	18	288	0	A	0	M1
NMHLD	19	0	0	96
NMTAP	19	192	4
NMTAP	19	192	6
NMTAP	19	240	4
NMTAP	19	240	6
NMSTR	19	336	0
NMSSL	19	336	0	96	144	4
NMHLD	19	336	5	240
NMSTR	20	240	2
BRSI_	20	240	2	96	48	7
NMSTR	20	240	6
BRSI_	20	240	6	96	48	3
NMTAP	20	336	2
NMTAP	20	336	6
NMTAP	21	96	7
NMTAP	21	144	3
NMTAP	21	192	1
NMTAP	21	192	5
NMSTR	21	240	1
NMSI_	21	240	1	96	48	4
NMSTR	21	240	5
NMSI_	21	240	5	96	48	0
NMTAP	21	336	1
NMTAP	21	336	5
NMTAP	22	96	0
NMTAP	22	144	4
NMTAP	22	192	2
NMTAP	22	192	6
NMSTR	22	240	2
BRSI_	22	240	2	96	48	7
NMSTR	22	240	6
BRSI_	22	240	6	96	48	3
NMTAP	22	336	2
NMTAP	22	336	6
NMTAP	23	96	7
NMTAP	23	144	3
NMSTR	23	192	5
NMSV_	23	192	5	96	48	0
NMSTR	23	240	1
NMSV_	23	240	1	96	48	4
NMTAP	23	288	5
NMTAP	23	336	1
NMTAP	24	48	3
NMTAP	24	48	6
NMTAP	24	144	2
NMTAP	24	192	4
NMSTR	24	240	2
NMSI_	24	240	2	96	48	5
NMSTR	24	240	3
NMSI_	24	240	3	96	48	5
NMTAP	24	336	2
NMTAP	24	336	3
NMSTR	25	96	2
NMSI_	25	96	2	96	48	6
NMSTR	25	96	3
NMSI_	25	96	3	96	48	6
NMTAP	25	192	2
NMTAP	25	192	3
NMTAP	25	288	2
NMTAP	25	288	3
NMHLD	26	0	0	48
NMHLD	26	0	7	48
NMHLD	26	96	6	48
NMHLD	26	96	7	48
NMHLD	26	192	5	48
NMHLD	26	192	6	48
NMTAP	26	288	4
NMTAP	26	288	5
BRTAP	26	336	4
BRTAP	26	336	5
NMTAP	27	48	6
NMTAP	27	96	4
NMTAP	27	144	5
EXTAP	27	192	4
EXTAP	27	192	5
EXTAP	27	264	0
EXTAP	27	264	7
EXSTR	27	336	1
NMSLL	27	336	1	96	144	4
EXSTR	27	336	6
BRSLR	27	336	6	96	144	3
CNSI_	28	192	3	0	96	5
CNSI_	28	192	4	0	96	2
NMTAP	29	0	1
NMSTR	29	0	4
NMSI_	29	0	4	96	96	2
CNSI_	29	192	2	0	96	0
NMTTP	29	192	5	B	0	M1
NMTTP	29	192	6	B	0	M1
CNSI_	29	288	0	0	96	3
NMSTR	30	0	7
NMSI_	30	0	7	96	96	5
NMTTP	30	192	0	B	0	M1
CNSI_	30	192	5	0	96	3
NMTTP	30	192	7	B	0	M1
CNSI_	30	288	3	0	96	6
NMSTR	31	0	1
NMSI_	31	0	1	96	96	7
NMTTP	31	192	4	B	0	M1
NMTTP	31	192	4	A	0	M1
CNSI_	31	192	7	0	96	5
CNSI_	31	288	5	0	96	0
NMTAP	32	0	2
NMTAP	32	96	2
NMHLD	32	192	1	96
NMHLD	32	192	3	96
NMSTR	33	0	3
NMSI_	33	0	3	96	96	5
NMTAP	33	0	6
NMTTP	33	192	1	B	0	M1
NMTTP	33	192	2	B	0	M1
CNSI_	33	192	5	0	96	7
CNSI_	33	288	7	0	96	4
NMSTR	34	0	0
NMSI_	34	0	0	96	96	2
NMTTP	34	192	0	B	0	M1
CNSI_	34	192	2	0	96	4
NMTTP	34	192	7	B	0	M1
CNSI_	34	288	4	0	96	1
NMSTR	35	0	6
NMSI_	35	0	6	96	96	0
CNSI_	35	192	0	0	96	2
NMTTP	35	192	3	B	0	M1
NMTTP	35	192	3	A	0	M1
CNSI_	35	288	2	0	96	7
NMTAP	36	0	5
NMTAP	36	96	5
NMTAP	36	192	4
NMTAP	36	192	6
NMTAP	36	288	3
NMTAP	36	288	5
NMHLD	37	0	6	288
NMTAP	37	144	4
NMTAP	37	192	4
NMTTP	37	288	0	C	0	M1
NMHLD	38	0	1	288
NMTAP	38	0	3
NMTAP	38	144	3
NMTAP	38	192	3
NMTTP	38	288	0	C	0	M1
NMHLD	39	0	0	336
NMTAP	39	0	6
NMHLD	39	192	7	144
NMTTP	40	48	0	C	1	M1
NMTTP	40	48	1	B	0	M1
NMTTP	40	48	2	B	0	M1
NMTTP	40	48	2	E	0	M1
NMTTP	40	48	5	B	0	M1
NMTTP	40	48	6	B	0	M1
NMTTP	40	48	6	E	0	M1
EXTAP	40	240	0
EXTAP	40	240	7
EXTAP	40	288	0
EXTAP	40	288	7
BRTAP	41	0	3
BRSTR	41	0	6
NMSLL	41	0	6	96	96	1
NMTAP	41	96	1
NMTAP	41	96	6
NMSTR	41	192	7
NMSI_	41	192	7	96	48	3
NMTAP	41	288	7
NMSTR	41	336	6
NMSI_	41	336	6	96	48	4
NMTAP	42	48	0
NMTAP	42	48	6
NMTAP	42	96	0
CNSCL	42	96	4	0	96	0
NMSTR	42	192	7
NMSI_	42	192	7	96	48	3
NMTAP	42	288	7
NMTAP	42	336	6
EXTAP	43	0	2
EXTAP	43	0	5
NMTAP	43	48	4
NMTAP	43	72	3
NMTAP	43	120	3
NMTAP	43	144	4
EXTAP	43	192	0
EXTAP	43	192	5
NMTAP	43	240	6
NMTAP	43	264	7
NMTAP	43	312	7
NMTAP	43	336	6
NMSTR	44	0	0
NMSI_	44	0	0	96	48	4
NMTAP	44	0	4
NMTAP	44	48	5
NMSTR	44	96	6
NMSUL	44	96	6	96	96	4
NMHLD	44	192	1	96
NMTAP	45	0	2
NMTAP	45	24	3
NMTAP	45	48	2
NMTAP	45	72	3
NMTAP	45	96	2
NMTAP	45	144	5
NMTAP	45	168	4
NMTAP	45	192	5
NMTAP	45	216	4
NMTAP	45	240	5
NMTAP	45	288	1
NMTAP	45	312	3
NMTAP	45	336	1
NMTAP	45	360	3
NMTAP	46	0	1
NMTAP	46	48	6
NMTAP	46	72	4
NMTAP	46	96	6
NMTAP	46	120	4
NMTAP	46	144	6
NMTAP	46	192	0
NMTAP	46	192	1
NMTAP	46	240	0
NMTAP	46	240	1
NMTAP	46	288	2
NMTAP	46	288	7
EXTAP	47	0	2
EXHLD	47	0	4	72
NMHLD	47	72	6	72
NMTAP	47	144	7
NMTAP	47	192	0
NMHLD	47	192	1	72
NMHLD	47	264	3	72
NMTAP	47	336	5
NMHLD	48	0	6	72
NMTAP	48	0	7
NMHLD	48	72	1	72
NMTAP	48	144	3
EXSTR	48	192	1
BRSI_	48	192	1	96	48	5
EXSTR	48	192	3
NMSI_	48	192	3	96	48	7
BRTAP	48	288	1
NMTAP	48	288	3
NMTAP	49	0	6
NMTAP	49	96	6
NMTAP	49	96	7
NMTAP	49	192	3
NMTAP	49	192	5
NMSTR	49	288	6
NMSI_	49	288	6	96	48	3
NMTAP	49	336	6
NMSTR	50	0	2
NMSI_	50	0	2	96	48	5
NMTAP	50	48	2
NMSTR	50	96	7
NMSI_	50	96	7	96	48	3
NMTAP	50	144	7
NMSTR	50	192	0
NMSI_	50	192	0	96	48	3
NMSI_	50	192	0	96	48	5
NMTAP	50	288	0
EXTAP	51	0	2
EXTAP	51	0	5
NMTAP	51	48	3
NMTAP	51	72	4
NMTAP	51	120	4
NMTAP	51	144	3
EXTAP	51	192	2
EXTAP	51	192	7
NMTAP	51	240	1
NMTAP	51	264	0
NMTAP	51	312	0
NMTAP	51	336	1
NMTAP	52	0	3
NMSTR	52	0	4
NMSSR	52	0	4	96	96	0
NMTAP	52	48	2
NMHLD	52	96	1	96
NMTAP	52	288	2
NMTAP	52	288	7
NMTAP	53	0	5
NMTAP	53	24	4
NMTAP	53	48	5
NMTAP	53	72	4
NMTAP	53	96	5
NMTAP	53	144	2
NMTAP	53	168	3
NMTAP	53	192	2
NMTAP	53	216	3
NMTAP	53	240	2
NMTAP	53	288	6
NMTAP	53	312	4
NMTAP	53	336	6
NMTAP	53	360	4
NMTAP	54	0	6
NMTAP	54	48	1
NMTAP	54	72	3
NMSTR	54	96	1
NMSF_	54	96	1	96	48	5
NMTAP	54	120	3
NMTAP	54	144	1
NMTTP	54	204	1	B	0	M1
NMTTP	54	216	0	C	1	M1
NMTTP	54	228	5	B	0	M1
BRTAP	55	0	0
BRTAP	55	0	6
NMTAP	55	48	5
NMTAP	55	96	4
BRTAP	55	144	2
BRTAP	55	144	7
NMTAP	55	192	3
NMTAP	55	240	4
BRTAP	55	288	0
BRTAP	55	288	5
NMTAP	55	336	2
NMTAP	56	0	3
BRTAP	56	48	1
BRTAP	56	48	6
NMTAP	56	96	5
NMTAP	56	144	4
BRTAP	56	192	2
BRTAP	56	192	7
NMTAP	56	240	3
BRTAP	56	288	1
NMTAP	56	288	5
BRTAP	56	336	1
NMTAP	56	336	5
EXSTR	57	48	4
NMSI_	57	48	4	96	24	6
NMTAP	57	96	3
EXSTR	57	144	2
NMSI_	57	144	2	96	24	0
NMTAP	57	192	3
EXSTR	57	240	4
NMSI_	57	240	4	96	24	6
NMTAP	57	288	3
EXSTR	57	336	2
NMSI_	57	336	2	96	24	0
NMTAP	58	0	3
EXSTR	58	48	4
NMSI_	58	48	4	96	24	6
NMTAP	58	96	3
EXSTR	58	144	2
NMSI_	58	144	2	96	24	0
NMTAP	58	192	3
EXTAP	58	240	4
NMTAP	58	288	3
EXTAP	58	336	2
EXTAP	58	336	5
EXSTR	59	48	3
NMSI_	59	48	3	96	24	1
NMTAP	59	96	4
EXSTR	59	144	5
NMSI_	59	144	5	96	24	7
NMTAP	59	192	4
EXSTR	59	240	3
NMSI_	59	240	3	96	24	1
NMTAP	59	288	4
EXSTR	59	336	5
NMSI_	59	336	5	96	24	7
NMTAP	60	0	4
EXSTR	60	48	3
NMSI_	60	48	3	96	24	1
NMTAP	60	96	4
EXSTR	60	144	5
NMSI_	60	144	5	96	24	7
NMTAP	60	192	4
EXTAP	60	240	3
NMTAP	60	288	4
EXTAP	60	336	2
EXTAP	60	336	5
NMTAP	61	48	1
NMTAP	61	96	0
NMTAP	61	144	7
NMHLD	61	192	6	72
NMHLD	61	264	4	72
NMTAP	61	336	5
NMHLD	62	0	1	72
NMHLD	62	72	3	72
NMTAP	62	144	2
NMHLD	62	192	5	72
NMHLD	62	264	0	72
NMHLD	62	336	3	144
NMTAP	63	96	7
NMTAP	63	120	6
NMTAP	63	144	5
NMTAP	63	168	4
NMTAP	63	192	0
NMTAP	63	216	1
NMTAP	63	240	2
NMTAP	63	264	3
NMTAP	63	288	7
NMTAP	63	312	6
NMTAP	63	336	5
NMTAP	63	360	4
BRTAP	64	0	0
NMTAP	64	72	2
NMTAP	64	72	7
NMTAP	64	144	4
NMTAP	64	144	5
NMTAP	64	192	0
NMTAP	64	192	5
NMTAP	64	264	3
NMTAP	64	264	4
NMHLD	64	336	1	144
NMSTR	64	336	6
NMSXL	64	336	6	96	192	1
NMTAP	65	192	2
NMSTR	65	240	3
NMSI_	65	240	3	96	48	0
NMSI_	65	240	3	96	48	6
NMTAP	65	288	3
NMTAP	66	96	2
NMTAP	66	96	4
NMTAP	66	192	2
NMSTR	66	240	5
NMSI_	66	240	5	96	48	0
NMSI_	66	240	5	96	48	2
NMTAP	66	288	5
NMTAP	67	96	2
NMTAP	67	96	4
NMTAP	67	192	4
NMSTR	67	240	1
NMSI_	67	240	1	96	48	4
NMSI_	67	240	1	96	48	6
NMTAP	67	288	1
NMTAP	68	96	2
NMTAP	68	96	7
NMTAP	68	192	4
NMTAP	68	240	3
NMTAP	68	288	2
NMTAP	68	288	6
NMTAP	68	336	2
NMTAP	68	336	6
NMTAP	69	48	0
NMTAP	69	72	5
NMTAP	69	96	4
NMTAP	69	120	5
NMTAP	69	144	1
NMTAP	69	168	5
NMTAP	69	192	4
NMTAP	69	216	5
NMTAP	69	240	2
NMTAP	69	264	5
NMTAP	69	288	4
NMTAP	69	312	5
NMTAP	69	336	3
NMTAP	69	360	5
BXTAP	70	0	4
NMTAP	70	24	6
NMTAP	70	48	4
NMTAP	70	72	6
BXTAP	70	96	3
NMTAP	70	120	5
NMTAP	70	144	3
NMTAP	70	168	5
BXTAP	70	192	2
NMTAP	70	216	4
NMTAP	70	240	2
NMTAP	70	264	4
BXTAP	70	288	1
NMTAP	70	312	3
NMTAP	70	336	0
NMTAP	71	48	4
NMTAP	71	72	3
NMTAP	71	96	4
NMTAP	71	120	3
NMTAP	71	144	4
NMTAP	71	168	3
NMTAP	71	192	5
NMTAP	71	216	2
NMTAP	71	240	4
NMTAP	71	264	3
NMTAP	71	288	5
NMTAP	71	312	2
NMTAP	71	336	4
NMTAP	71	360	3
BXTAP	72	0	5
BXTAP	72	12	6
BXTAP	72	24	7
BXTAP	72	36	0
BXTAP	72	48	1
BXTAP	72	60	2
BXTAP	72	72	3
BXTAP	72	84	4
BXTAP	72	96	5
BXTAP	72	108	6
BXTAP	72	120	7
BXTAP	72	132	0
BXTAP	72	144	1
BXTAP	72	156	2
BXTAP	72	168	3
BXTAP	72	180	4
BXTAP	72	192	5
BXTAP	72	204	6
BXTAP	72	216	7
BXTAP	72	228	0
BXTAP	72	240	1
BXTAP	72	252	2
BXTAP	72	264	3
BXTAP	72	276	4
BXTAP	72	288	5
BXTAP	72	300	6
BXTAP	72	312	7
BXTAP	72	324	0
BXTAP	72	336	1
BXTAP	72	348	2
BXTAP	72	360	3
BXTAP	72	372	4
NMTTP	73	0	0	C	1	M1
BXTAP	73	0	5
NMHLD	74	0	6	192
NMTTP	74	12	3	B	0	M1
NMTTP	74	24	4	B	0	M1
NMHLD	75	0	1	192
NMTTP	75	0	5	E	0	M1
NMTTP	75	12	4	B	0	M1
NMTTP	75	24	3	B	0	M1
NMHLD	76	0	6	192
NMTTP	76	12	4	B	0	M1
NMTTP	76	24	5	B	0	M1
NMHLD	77	0	1	192
NMTTP	77	0	4	E	0	M1
NMTTP	77	12	3	B	0	M1
NMTTP	77	24	2	B	0	M1
NMTAP	77	288	3
NMTAP	77	288	4
NMHLD	78	0	4	96
NMHLD	78	1	5	95
NMHLD	78	144	2	96
NMHLD	78	144	3	96
NMHLD	78	288	4	96
NMHLD	78	289	6	95
NMHLD	79	48	1	96
NMHLD	79	48	3	96
NMTAP	79	192	5
NMTAP	79	240	6
NMHLD	79	288	3	840
NMTAP	79	288	7
NMHLD	79	336	7	792
NMTTP	82	0	3	D	0	M1
NMTTP	82	0	7	D	0	M1
NMTTP	82	6	2	A	0	M1
NMTTP	82	6	6	A	0	M1
NMTTP	82	12	2	D	0	M1
NMTTP	82	12	6	D	0	M1
NMTTP	82	18	1	A	0	M1
NMTTP	82	18	5	A	0	M1
NMTTP	82	24	1	D	0	M1
NMTTP	82	24	5	D	0	M1
BRTAP	82	96	2
BRSTR	82	96	6
NMSI_	82	96	6	96	48	3
NMTAP	82	192	0
NMTAP	82	192	6
NMTAP	82	288	1
NMTAP	82	288	4
NMSTR	82	336	1
NMSI_	82	336	1	96	48	3
NMTAP	82	336	4
NMTAP	83	48	1
NMTAP	83	48	7
CNSCR	83	96	3	0	96	7
NMTAP	83	96	7
NMSTR	83	192	0
NMSI_	83	192	0	96	48	4
NMTAP	83	288	0
NMTAP	83	336	1
EXTAP	84	0	2
EXTAP	84	0	5
NMTAP	84	48	3
NMTAP	84	72	4
NMTAP	84	120	4
NMTAP	84	144	3
EXTAP	84	192	2
EXTAP	84	192	7
NMTAP	84	240	1
NMTAP	84	264	0
NMTAP	84	312	0
NMTAP	84	336	1
NMSTR	85	0	2
NMSLL	85	0	2	96	96	4
NMTAP	85	0	6
NMTAP	85	48	5
NMSTR	85	96	4
NMSCL	85	96	4	96	96	7
NMHLD	85	192	6	96
NMTAP	86	0	5
NMTAP	86	24	4
NMTAP	86	48	5
NMTAP	86	72	4
NMTAP	86	96	6
NMTAP	86	144	2
NMTAP	86	168	3
NMTAP	86	192	2
NMTAP	86	216	3
NMTAP	86	240	1
NMTAP	86	288	5
NMTAP	86	312	4
NMTAP	86	336	5
NMTAP	86	360	4
NMTAP	87	0	7
NMTAP	87	48	2
NMTAP	87	72	3
NMTAP	87	96	2
NMTAP	87	120	3
NMTAP	87	144	0
NMTAP	87	192	6
NMTAP	87	192	7
NMTAP	87	240	6
NMTAP	87	240	7
NMTAP	87	288	0
NMTAP	87	288	5
EXHLD	88	0	3	72
EXTAP	88	0	5
NMHLD	88	72	1	72
NMTAP	88	144	0
NMHLD	88	192	6	72
NMTAP	88	192	7
NMHLD	88	264	4	72
NMTAP	88	336	2
NMTAP	89	0	0
NMHLD	89	0	1	72
NMHLD	89	72	6	72
NMTAP	89	144	4
EXSTR	89	192	4
NMSI_	89	192	4	96	48	0
EXSTR	89	192	6
BRSI_	89	192	6	96	48	2
NMTAP	89	288	4
BRTAP	89	288	6
EXSTR	90	0	0
NMSXL	90	0	0	96	192	7
EXHLD	90	0	3	480
CNSCL	90	288	7	0	192	2
EXHLD	91	192	0	96
EXHLD	91	192	5	96
NMTAP	92	0	1
NMTAP	92	0	4
NMTAP	92	48	2
NMTAP	92	72	3
NMTAP	92	120	3
NMTAP	92	144	2
NMTAP	92	192	3
NMTAP	92	192	6
NMTAP	92	240	5
NMTAP	92	264	4
NMTAP	92	312	4
NMTAP	92	336	5
NMTAP	93	0	3
NMSTR	93	0	4
NMSSR	93	0	4	96	96	0
NMTAP	93	48	2
NMHLD	93	96	1	96
NMTAP	93	288	2
NMTAP	93	288	7
NMTAP	94	0	2
NMTAP	94	24	3
NMTAP	94	48	2
NMTAP	94	72	3
NMTAP	94	96	1
NMTAP	94	144	5
NMTAP	94	168	4
NMTAP	94	192	5
NMTAP	94	216	4
NMTAP	94	240	6
NMTAP	94	288	2
NMTAP	94	312	3
NMTAP	94	336	2
NMTAP	94	360	3
NMTAP	95	0	0
NMTAP	95	48	5
NMTAP	95	72	4
NMTAP	95	96	5
NMTAP	95	120	4
NMTAP	95	144	7
BRHLD	95	192	1	96
BRHLD	95	192	6	96
BRTAP	96	0	1
BRTAP	96	0	7
NMTAP	96	48	2
NMTAP	96	96	3
BRTAP	96	144	0
BRTAP	96	144	5
NMTAP	96	192	4
NMTAP	96	240	3
BRTAP	96	288	2
BRTAP	96	288	7
NMTAP	96	336	5
NMTAP	97	0	4
BRTAP	97	48	1
BRTAP	97	48	6
NMTAP	97	96	2
NMTAP	97	144	3
BRTAP	97	192	0
NMSTR	97	192	5
NMSI_	97	192	5	96	48	1
NMSI_	97	192	5	96	48	1
NMTAP	97	288	2
NMTAP	97	288	5
BRTAP	98	0	0
BRTAP	98	0	6
NMTAP	98	48	5
NMTAP	98	96	4
BRTAP	98	144	2
BRTAP	98	144	7
NMTAP	98	192	3
NMTAP	98	240	4
BRTAP	98	288	0
BRTAP	98	288	5
NMTAP	98	336	2
NMTAP	99	0	3
BRTAP	99	48	1
BRTAP	99	48	6
NMTAP	99	96	5
NMTAP	99	144	4
NMSTR	99	192	3
BRSI_	99	192	3	96	48	0
NMSTR	99	240	4
NMSI_	99	240	4	96	48	7
NMSI_	99	240	4	96	48	7
BRTAP	99	288	3
NMTTP	99	300	1	B	0	M1
NMTTP	99	300	2	B	1	M1
NMSTR	99	336	4
NMSCL	99	336	4	96	528	4
NMTTP	99	348	5	B	0	M1
NMTTP	99	360	6	B	1	M1
NMTTP	100	96	0	C	1	M1
NMTAP	101	288	0
NMTAP	101	288	7
BRTAP	101	336	1
BRTAP	101	336	6
NMTAP	102	48	2
NMTAP	102	96	2
NMTAP	102	96	3
NMTAP	102	192	1
NMTAP	102	240	3
NMTAP	102	288	2
NMHLD	102	336	0	48
NMHLD	102	336	4	48
NMHLD	103	48	2	48
NMHLD	103	48	6	48
NMTAP	103	144	0
NMTAP	103	144	5
NMTAP	103	192	7
NMTAP	103	216	6
NMTAP	103	240	7
NMTAP	103	264	6
NMTAP	103	288	0
NMTAP	103	336	0
NMTAP	103	336	5
NMTAP	104	48	5
NMTAP	104	96	4
NMTAP	104	96	5
NMTAP	104	192	6
NMTAP	104	240	4
NMTAP	104	288	5
NMHLD	104	336	3	48
NMHLD	104	336	7	48
NMHLD	105	48	1	48
NMHLD	105	48	5	48
NMHLD	105	144	3	48
NMHLD	105	144	6	48
NMTAP	105	240	5
NMTAP	105	264	4
NMTAP	105	288	5
NMTAP	105	312	4
BRTAP	105	336	6
EXTAP	106	48	2
NMTAP	106	72	4
NMTAP	106	96	3
NMTAP	106	120	4
NMTAP	106	144	3
NMTAP	106	168	4
EXTAP	106	192	6
NMTAP	106	216	4
NMTAP	106	240	3
NMTAP	106	264	4
NMTAP	106	288	3
NMTAP	106	312	4
EXTAP	106	336	0
NMTAP	106	360	4
NMTAP	107	0	2
NMTAP	107	24	5
NMTAP	107	48	3
NMTAP	107	72	4
NMTAP	107	96	2
NMTAP	107	120	5
NMTAP	107	144	3
NMTAP	107	168	4
BXTAP	107	192	2
BXTAP	107	204	1
BXTAP	107	216	0
BXTAP	107	228	7
BXSTR	107	240	6
NMSI_	107	240	6	96	48	2
BXTAP	107	252	5
BXTAP	107	264	4
BXTAP	107	276	3
BXTAP	107	288	2
EXTAP	107	336	6

T_REC_TAP	463
T_REC_BRK	42
T_REC_XTP	35
T_REC_BXX	45
T_REC_HLD	83
T_REC_XHO	5
T_REC_BHO	2
T_REC_BXH	0
T_REC_STR	52
T_REC_BST	2
T_REC_XST	20
T_REC_XBS	1
T_REC_TTP	66
T_REC_THO	0
T_REC_SLD	73
T_REC_BSL	8
T_REC_ALL	897
T_NUM_TAP	636
T_NUM_BRK	100
T_NUM_HLD	88
T_NUM_SLD	73
T_NUM_ALL	897
T_JUDGE_TAP	726
T_JUDGE_HLD	261
T_JUDGE_SLD	81
T_JUDGE_ALL	1068
TTM_EACHPAIRS	148
TTM_SCR_TAP	318000
TTM_SCR_BRK	260000
TTM_SCR_HLD	88000
TTM_SCR_SLD	109500
TTM_SCR_ALL	775500
TTM_SCR_S	742550
TTM_SCR_SS	765500
TTM_RAT_ACV	10130

