VERSION	0.00.00	1.04.00
FES_MODE	0
BPM_DEF	181.000	181.000	181.000	181.000
MET_DEF	4	4
RESOLUTION	384
CLK_DEF	384
COMPATIBLE_CODE	MA2

BPM	0	0	181.000
MET	0	0	4	4

NMHLD	1	0	0	1056
NMTAP	3	288	7
NMTAP	3	336	7
NMTAP	4	48	1
NMTAP	4	48	6
NMSTR	4	96	1
NMSI_	4	96	1	96	48	4
NMSTR	4	96	6
NMSI_	4	96	6	96	48	3
NMTAP	4	336	3
NMTAP	4	336	5
NMTAP	5	48	7
NMHLD	5	96	7	96
NMTAP	5	192	0
NMTAP	5	240	0
NMTAP	5	336	1
NMTAP	5	336	3
NMTAP	6	48	1
NMTAP	6	48	3
NMTAP	6	144	4
NMTAP	6	144	6
NMTAP	6	240	4
NMTAP	6	240	6
NMTAP	6	336	2
NMTAP	6	336	4
NMTAP	7	48	0
NMHLD	7	96	0	96
NMTAP	7	192	7
NMTAP	7	240	7
NMTAP	7	336	4
NMTAP	7	336	6
NMTAP	8	48	3
NMTAP	8	48	4
NMTAP	8	144	1
NMTAP	8	144	3
NMTAP	8	240	0
NMTAP	8	240	7
NMTAP	8	336	2
NMTAP	8	336	5
NMTAP	9	48	0
NMHLD	9	96	0	96
NMTAP	9	192	7
NMTAP	9	240	7
NMTAP	9	336	4
NMTAP	9	336	6
NMTAP	10	48	4
NMTAP	10	48	6
NMTAP	10	144	1
NMTAP	10	144	3
NMTAP	10	240	1
NMTAP	10	240	3
NMTAP	10	336	3
NMTAP	10	336	5
NMTAP	11	48	7
NMHLD	11	96	7	96
NMTAP	11	192	0
NMTAP	11	240	0
NMTAP	11	336	1
NMTAP	11	336	3
NMTAP	12	48	3
NMTAP	12	48	4
NMTAP	12	144	4
NMTAP	12	144	6
NMTAP	12	240	0
NMTAP	12	240	7
EXTAP	12	336	2
EXTAP	12	336	5
NMTAP	13	48	6
NMHLD	13	96	6	576
NMTAP	13	192	4
NMTAP	13	288	4
NMTAP	14	0	4
NMTAP	14	96	4
NMTAP	14	192	3
NMTAP	14	288	2
NMTAP	14	336	2
NMTAP	15	48	1
NMHLD	15	96	1	576
NMTAP	15	192	3
NMTAP	15	288	3
NMTAP	16	0	3
NMTAP	16	96	3
NMTAP	16	192	4
NMTAP	16	288	5
NMTAP	16	336	5
NMTAP	17	48	6
NMHLD	17	96	6	480
NMTAP	17	192	4
NMTAP	17	288	4
NMTAP	18	0	5
NMTAP	18	96	7
NMTAP	18	192	0
NMTAP	18	240	0
NMTAP	18	336	1
NMTAP	18	336	5
NMTAP	19	48	2
NMTAP	19	48	4
NMHLD	19	96	2	96
NMTAP	19	96	4
NMSTR	19	192	3
BRSI_	19	192	3	96	48	7
EXTAP	20	240	0
EXTAP	20	240	7
NMHLD	20	336	1	96
NMTAP	21	48	3
NMTAP	21	96	3
NMTAP	21	192	2
NMTAP	21	192	4
NMTAP	21	240	2
NMTAP	21	240	4
NMHLD	21	336	6	96
NMTAP	22	48	4
NMTAP	22	96	4
NMTAP	22	192	3
NMTAP	22	192	5
NMTAP	22	240	3
NMTAP	22	240	5
NMHLD	22	336	2	96
NMTAP	23	48	3
NMTAP	23	96	3
NMHLD	23	192	5	96
NMTAP	23	288	4
NMTAP	23	336	4
NMTAP	24	48	3
NMTAP	24	48	5
NMTAP	24	144	2
NMTAP	24	192	2
NMTAP	24	240	4
NMTAP	24	336	1
NMTAP	24	336	5
NMTAP	25	48	6
NMHLD	25	96	6	96
NMTAP	25	192	4
NMTAP	25	288	3
NMTAP	25	288	5
NMTAP	26	0	2
NMTAP	26	0	4
NMHLD	26	96	1	96
NMHLD	26	96	3	96
NMHLD	26	240	0	96
NMTAP	26	336	7
NMTAP	27	48	4
NMTAP	27	48	6
NMTAP	27	96	4
NMTAP	27	96	6
NMSTR	27	192	1
NMSXR	27	192	1	96	288	6
NMTAP	27	192	3
NMHLD	29	0	2	192
NMSTR	29	0	4
NMSCL	29	0	4	96	144	0
NMSTR	30	0	3
NMSCR	30	0	3	96	144	7
NMHLD	30	0	5	192
NMHLD	31	0	2	192
NMSTR	31	0	4
NMSCL	31	0	4	96	144	0
NMTAP	32	0	5
NMTAP	32	96	4
NMTAP	32	192	3
NMTAP	32	288	2
NMSTR	33	0	0
NMSCL	33	0	0	96	144	4
NMHLD	33	0	6	192
NMHLD	34	0	1	192
NMSTR	34	0	7
NMSCR	34	0	7	96	144	3
NMSTR	35	0	0
NMSCL	35	0	0	96	144	4
NMHLD	35	0	6	192
NMHLD	36	0	2	192
NMTAP	36	96	3
NMTAP	36	192	3
NMTTP	37	0	5	E	0	M1
NMTTP	37	192	4	E	0	M1
NMTTP	37	192	6	E	0	M1
NMTTP	38	0	3	E	0	M1
NMTTP	38	192	2	E	0	M1
NMTTP	38	192	4	E	0	M1
NMTTP	39	0	2	B	0	M1
NMTTP	39	0	5	B	0	M1
NMTHO	39	192	0	144	C	0	M1
NMTTP	39	192	3	B	0	M1
NMTTP	39	192	4	B	0	M1
EXTAP	40	48	0
EXTAP	40	48	7
EXTAP	40	96	0
EXTAP	40	96	7
BXTAP	40	192	1
BXTAP	40	192	6
NMTAP	41	0	0
NMHLD	41	0	1	96
NMTAP	41	96	5
NMHLD	41	192	6	96
NMTAP	41	192	7
NMTAP	41	288	2
NMTAP	42	0	0
NMHLD	42	0	1	96
NMTAP	42	96	5
NMHLD	42	192	6	96
NMTAP	42	192	7
NMTAP	42	288	2
NMTAP	43	0	0
NMTAP	43	0	1
NMTAP	43	96	2
NMTAP	43	96	3
NMTAP	43	192	4
NMTAP	43	192	5
NMTAP	43	288	6
NMTAP	43	288	7
NMTAP	44	0	0
NMSTR	44	96	0
NMSCR	44	96	0	96	96	3
NMSTR	44	96	7
NMSCL	44	96	7	96	96	4
NMHLD	45	0	3	96
NMHLD	45	0	5	96
NMHLD	45	144	2	96
NMHLD	45	144	4	96
NMHLD	45	288	3	96
NMHLD	45	288	6	96
NMHLD	46	48	1	96
NMHLD	46	48	4	96
NMTAP	46	192	2
NMTAP	46	192	5
NMTAP	46	288	2
NMTAP	46	288	5
NMTAP	47	0	4
NMTAP	47	0	6
NMTAP	47	96	7
NMTAP	47	192	1
NMTAP	47	192	3
NMTAP	47	288	0
NMTAP	48	0	1
NMTAP	48	0	6
NMTAP	48	96	3
NMTAP	48	96	5
BRTAP	48	192	2
BRTAP	48	192	6
NMSTR	49	0	1
NMSI_	49	0	1	96	96	5
NMSTR	49	192	7
NMSI_	49	192	7	96	96	3
NMTAP	50	0	2
NMTAP	50	96	0
NMTAP	50	96	7
NMTAP	50	192	2
NMTAP	50	192	6
NMHLD	51	0	1	96
NMTAP	51	0	7
NMTAP	51	96	3
NMTAP	51	192	0
NMTAP	51	192	7
NMTAP	51	288	5
NMTAP	52	0	4
NMTAP	52	0	6
NMTAP	52	96	3
NMTAP	52	96	5
NMTAP	52	192	2
NMTAP	52	192	4
NMTAP	52	288	1
NMTAP	52	288	5
NMHLD	53	0	0	96
NMHLD	53	0	6	96
NMHLD	53	144	1	96
NMHLD	53	144	7	96
NMHLD	53	288	0	96
NMHLD	53	288	5	96
NMHLD	54	48	2	96
NMHLD	54	48	7	96
BRTAP	54	192	1
BRTAP	54	192	6
BXSTR	55	0	0
NMSI_	55	0	0	96	48	4
BXSTR	55	144	6
NMSI_	55	144	6	96	48	2
BXSTR	55	288	1
NMSI_	55	288	1	96	48	5
BXSTR	56	48	7
NMSI_	56	48	7	96	48	3
BXHLD	56	192	2	96
NMTAP	56	288	3
NMTAP	56	336	1
NMTAP	56	336	4
NMTAP	57	48	5
NMTAP	57	96	5
NMHLD	57	192	6	96
NMTAP	57	288	4
NMSTR	58	0	3
NMSCL	58	0	3	96	96	0
NMSTR	58	192	7
NMSCL	58	192	7	96	96	4
NMTAP	59	0	2
NMTAP	59	96	1
NMTAP	59	96	3
NMTAP	59	192	5
NMTAP	59	288	4
NMTAP	59	288	6
NMHLD	60	0	2	96
NMHLD	60	96	0	96
NMHLD	60	192	7	96
NMTAP	60	288	5
NMTAP	61	0	6
NMTAP	61	48	6
NMTAP	61	96	4
NMTAP	61	192	6
NMTAP	61	192	7
NMTAP	61	288	0
NMTAP	61	288	1
NMTAP	62	0	2
NMTAP	62	0	3
NMTAP	62	96	1
NMTAP	62	96	3
NMTAP	62	192	4
NMTAP	62	192	5
NMTAP	62	288	4
NMTAP	62	288	6
NMTAP	63	0	2
NMTAP	63	48	2
NMTAP	63	96	3
NMTAP	63	192	5
NMTAP	63	240	5
NMTAP	63	288	4
NMHLD	64	0	6	72
NMHLD	64	72	5	72
NMTAP	64	144	4
NMHLD	64	192	3	72
NMHLD	64	264	2	72
NMTAP	64	336	1
NMTAP	65	48	0
NMTAP	65	96	0
NMTAP	65	192	0
NMTAP	65	192	7
NMTAP	65	288	6
NMTAP	65	336	6
NMTAP	66	48	4
NMTAP	66	48	5
NMTAP	66	144	3
NMTAP	66	144	4
NMTAP	66	240	2
NMTAP	66	240	3
NMTAP	66	336	1
NMTAP	66	336	4
NMTAP	67	48	5
NMTAP	67	96	5
NMTAP	67	144	3
NMTAP	67	240	2
NMTAP	67	288	2
NMTAP	67	336	4
NMTAP	68	48	3
NMTAP	68	48	5
NMTAP	68	144	3
NMTAP	68	144	5
NMTAP	68	240	2
NMTAP	68	240	4
NMTAP	68	336	2
NMTAP	68	336	4
NMTAP	69	48	5
NMTAP	69	96	5
NMTAP	69	192	4
NMTAP	69	192	6
NMTAP	69	288	6
NMTAP	69	288	7
NMTAP	70	0	0
NMTAP	70	0	1
NMTAP	70	96	1
NMTAP	70	96	3
NMTAP	70	192	3
NMTAP	70	192	4
NMTAP	70	288	2
NMTAP	70	288	5
NMTAP	70	336	2
NMTAP	70	336	5
NMTAP	71	48	1
NMHLD	71	96	1	96
NMHLD	71	192	3	96
NMHLD	71	288	4	96
NMHLD	72	0	6	96
NMHLD	72	96	7	96
NMHLD	72	192	0	96
NMHLD	72	288	1	96
NMSTR	73	0	3
NMSI_	73	0	3	96	96	7
BRSTR	74	0	0
NMSI_	74	0	0	96	480	3
NMSTR	76	0	4
NMSI_	76	0	4	96	480	7
NMTTP	78	0	2	E	0	M1
NMTTP	78	144	6	E	0	M1
NMTTP	78	288	1	E	0	M1
NMTTP	79	48	7	E	0	M1
NMTTP	79	192	0	E	0	M1
NMTAP	81	240	0
NMTAP	81	240	7
NMSTR	81	288	0
NMSI_	81	288	0	96	48	4
NMSTR	81	288	7
NMSI_	81	288	7	96	48	3
BRTAP	82	96	1
BRTAP	82	96	6
NMTAP	82	192	0
NMHLD	82	192	1	96
NMTAP	82	288	4
NMHLD	83	0	6	96
NMTAP	83	0	7
NMTAP	83	96	3
NMTAP	83	192	0
NMHLD	83	192	1	96
NMTAP	83	288	4
NMTAP	84	0	6
NMTAP	84	0	7
NMTAP	84	96	4
NMTAP	84	96	5
NMTAP	84	192	2
NMTAP	84	192	3
NMTAP	84	288	0
NMTAP	84	288	1
NMSTR	85	0	0
NMSCR	85	0	0	96	96	3
NMSTR	85	0	7
NMSCL	85	0	7	96	96	4
EXTAP	85	288	2
EXTAP	85	288	5
NMHLD	86	0	2	96
NMHLD	86	0	4	96
NMHLD	86	144	3	96
NMHLD	86	144	5	96
NMHLD	86	288	1	96
NMHLD	86	288	4	96
NMHLD	87	48	3	96
NMHLD	87	48	6	96
NMTAP	87	192	2
NMTAP	87	192	5
NMTAP	87	288	2
NMTAP	87	288	5
NMTAP	88	0	0
NMTAP	88	0	1
NMTAP	88	96	4
NMTAP	88	192	6
NMTAP	88	192	7
NMTAP	88	288	3
NMTAP	89	0	2
NMTAP	89	0	4
NMTAP	89	96	0
NMTAP	89	96	6
BRTAP	89	192	1
BRTAP	89	192	5
NMSTR	90	0	6
NMSI_	90	0	6	96	96	2
NMSTR	90	192	0
NMSI_	90	192	0	96	96	4
NMTAP	91	0	5
NMTAP	91	96	4
NMTAP	91	96	5
BXHLD	91	192	2	96
BXHLD	91	192	7	96
NMTAP	92	0	6
NMTAP	92	48	6
NMTAP	92	96	4
NMTAP	92	192	1
NMTAP	92	240	1
NMTAP	92	288	3
NMTAP	93	0	2
NMTAP	93	0	4
NMTAP	93	96	2
NMTAP	93	96	4
NMTAP	93	192	3
NMTAP	93	192	5
NMTAP	93	288	2
NMTAP	93	288	6
NMHLD	94	0	3	96
NMHLD	94	0	5	96
NMHLD	94	144	2	96
NMHLD	94	144	4	96
NMHLD	94	288	0	96
NMHLD	94	288	6	96
NMHLD	95	48	1	96
NMHLD	95	48	7	96
BRTAP	95	192	2
BRTAP	95	192	6
BXSTR	96	0	7
NMSI_	96	0	7	96	48	3
BXSTR	96	144	1
NMSI_	96	144	1	96	48	5
BXSTR	96	288	6
NMSI_	96	288	6	96	48	2
BXSTR	97	48	0
NMSI_	97	48	0	96	48	4
NMTAP	97	192	5
NMTAP	97	240	5
NMTAP	97	288	4
BXSTR	98	0	1
NMSI_	98	0	1	96	48	5
BXSTR	98	144	6
NMSI_	98	144	6	96	48	2
BXSTR	98	288	0
NMSI_	98	288	0	96	48	3
BXSTR	99	48	4
NMSI_	99	48	4	96	48	7
BXHLD	99	192	0	96
NMTAP	99	288	7
NMSTR	99	336	7
NMSCL	99	336	7	96	432	0
NMTTP	100	96	0	C	1	M1
EXTAP	101	288	0
EXTAP	101	288	6
EXTAP	101	336	0
EXTAP	101	336	6
NMTAP	102	48	7
NMHLD	102	96	7	96
NMTAP	102	192	0
NMTAP	102	240	0
NMTAP	102	336	1
NMTAP	102	336	3
NMTAP	103	48	3
NMTAP	103	48	4
NMTAP	103	144	4
NMTAP	103	144	6
NMTAP	103	240	0
NMTAP	103	240	7
NMTAP	103	336	2
NMTAP	103	336	5
NMTAP	104	48	7
NMHLD	104	96	7	96
NMTAP	104	192	0
NMTAP	104	240	0
NMTAP	104	336	1
NMTAP	104	336	3
NMTAP	105	48	1
NMTAP	105	48	3
NMTAP	105	144	4
NMTAP	105	144	6
NMTAP	105	240	4
NMTAP	105	240	6
NMTAP	105	336	2
NMTAP	105	336	4
NMTAP	106	48	0
NMHLD	106	96	0	96
NMTAP	106	192	7
NMTAP	106	240	7
NMTAP	106	336	4
NMTAP	106	336	6
NMTAP	107	48	3
NMTAP	107	48	4
NMTAP	107	144	1
NMTAP	107	144	3
NMSTR	107	240	0
BRSI_	107	240	0	96	48	4
NMSTR	107	240	7
BRSI_	107	240	7	96	48	3

T_REC_TAP	341
T_REC_BRK	10
T_REC_XTP	14
T_REC_BXX	2
T_REC_HLD	82
T_REC_XHO	0
T_REC_BHO	0
T_REC_BXH	4
T_REC_STR	27
T_REC_BST	1
T_REC_XST	0
T_REC_XBS	12
T_REC_TTP	16
T_REC_THO	1
T_REC_SLD	37
T_REC_BSL	3
T_REC_ALL	550
T_NUM_TAP	398
T_NUM_BRK	32
T_NUM_HLD	83
T_NUM_SLD	37
T_NUM_ALL	550
T_JUDGE_TAP	423
T_JUDGE_HLD	237
T_JUDGE_SLD	40
T_JUDGE_ALL	700
TTM_EACHPAIRS	156
TTM_SCR_TAP	199000
TTM_SCR_BRK	83200
TTM_SCR_HLD	83000
TTM_SCR_SLD	55500
TTM_SCR_ALL	420700
TTM_SCR_S	405000
TTM_SCR_SS	417500
TTM_RAT_ACV	10076

