VERSION	0.00.00	1.04.00
FES_MODE	0
BPM_DEF	140.000	140.000	140.000	140.000
MET_DEF	4	4
RESOLUTION	384
CLK_DEF	384
COMPATIBLE_CODE	MA2

BPM	0	0	140.000
MET	0	0	4	4

NMSTR	1	0	0
NMSSL	1	0	0	96	480	4
NMHLD	2	192	6	192
NMHLD	3	0	5	240
NMTAP	3	240	4
NMTAP	3	288	5
NMSTR	3	336	6
NMSCL	3	336	6	96	240	3
NMTAP	4	288	1
NMHLD	5	0	1	336
NMTAP	5	288	2
NMHLD	5	336	2	288
NMTAP	6	144	3
NMTAP	6	192	3
NMHLD	6	240	3	144
NMSTR	7	0	1
NMSCR	7	0	1	96	192	5
NMTTP	8	0	0	C	1	M1
NMTTP	8	0	1	B	0	M1
NMTTP	8	0	2	B	0	M1
NMTTP	8	0	5	B	0	M1
NMTTP	8	0	6	B	0	M1
BXTAP	9	0	0
BXTAP	9	0	5
NMTAP	9	48	1
NMTAP	9	72	3
NMTAP	9	96	2
NMTAP	9	144	0
NMTAP	9	144	7
NMSTR	9	192	6
NMSI_	9	192	6	96	48	3
NMTAP	9	216	4
NMTAP	9	240	5
EXTAP	9	288	0
EXTAP	9	288	6
NMTAP	9	336	1
NMTAP	10	0	2
NMTAP	10	0	7
NMTAP	10	48	6
NMTAP	10	72	4
NMTAP	10	96	5
NMTAP	10	144	0
NMTAP	10	144	7
NMSTR	10	192	1
NMSI_	10	192	1	96	48	4
NMTAP	10	216	3
NMTAP	10	240	2
EXTAP	10	288	1
EXTAP	10	288	7
NMTAP	10	336	6
NMTAP	11	0	0
NMTAP	11	0	5
NMTAP	11	48	1
NMTAP	11	72	3
NMTAP	11	96	2
NMTAP	11	144	0
NMTAP	11	144	7
NMSTR	11	192	6
NMSI_	11	192	6	96	48	3
NMTAP	11	216	4
NMTAP	11	240	5
EXTAP	11	288	0
EXTAP	11	288	6
NMTAP	11	336	1
NMTAP	12	0	2
NMTAP	12	0	7
NMTAP	12	48	6
NMTAP	12	72	4
NMTAP	12	96	5
EXSTR	12	144	1
NMSCL	12	144	1	96	96	2
EXHLD	12	144	7	192
EXTAP	13	0	7
NMTAP	13	24	0
NMTAP	13	48	0
NMTAP	13	72	6
NMTAP	13	96	1
NMTAP	13	120	1
NMTAP	13	144	5
NMTAP	13	168	2
NMTAP	13	192	2
NMTAP	13	216	4
NMTAP	13	240	3
NMTAP	13	264	3
BXHLD	13	288	5	96
EXTAP	14	0	0
NMTAP	14	24	7
NMTAP	14	48	7
NMTAP	14	72	1
NMTAP	14	96	6
NMTAP	14	120	6
NMTAP	14	144	2
NMTAP	14	168	5
NMTAP	14	192	5
NMTAP	14	216	3
NMTAP	14	240	4
NMTAP	14	264	4
BXHLD	14	288	2	96
EXTAP	15	0	6
NMTAP	15	24	4
NMTAP	15	48	5
NMTAP	15	72	1
NMTAP	15	96	3
NMTAP	15	120	2
NMTAP	15	144	6
NMTAP	15	168	4
NMTAP	15	192	5
NMTAP	15	216	1
NMTAP	15	240	3
NMTAP	15	264	2
BXHLD	15	288	7	96
EXTAP	16	0	1
NMTAP	16	24	0
NMTAP	16	48	2
NMTAP	16	72	6
NMTAP	16	96	7
NMTAP	16	120	5
NMHLD	16	144	3	144
NMTTP	16	240	1	A	0	M1
NMTTP	16	248	1	D	0	M1
NMTTP	16	256	0	A	0	M1
NMTTP	16	264	0	D	0	M1
NMTTP	16	272	7	A	0	M1
NMTTP	16	280	7	D	0	M1
NMTTP	16	288	6	A	0	M1
EXTAP	17	0	1
NMTAP	17	16	2
NMTAP	17	32	3
NMTAP	17	48	5
NMTAP	17	64	6
NMTAP	17	80	7
NMTAP	17	96	1
NMTAP	17	112	2
NMTAP	17	128	3
NMTAP	17	144	5
NMTAP	17	160	6
NMTAP	17	176	7
NMHLD	17	192	1	48
NMHLD	17	240	2	48
NMHLD	17	288	3	48
NMTAP	17	336	4
NMTAP	18	0	4
NMTAP	18	0	5
NMTAP	18	72	4
NMTAP	18	72	7
NMTAP	18	144	2
NMTAP	18	144	3
NMTAP	18	216	0
NMTAP	18	216	3
NMTAP	18	288	2
NMTAP	18	288	4
NMTAP	18	336	3
NMTAP	18	336	4
EXTAP	19	0	6
NMTAP	19	16	5
NMTAP	19	32	4
NMTAP	19	48	2
NMTAP	19	64	1
NMTAP	19	80	0
NMTAP	19	96	6
NMTAP	19	112	5
NMTAP	19	128	4
NMTAP	19	144	2
NMTAP	19	160	1
NMTAP	19	176	0
NMHLD	19	192	6	48
NMHLD	19	240	5	48
NMHLD	19	288	4	48
NMTAP	19	336	3
NMTAP	20	0	2
NMTAP	20	0	3
NMTAP	20	72	0
NMTAP	20	72	3
NMTAP	20	144	2
NMTAP	20	144	5
EXTAP	20	240	3
EXTAP	20	240	4
EXTAP	20	288	3
EXTAP	20	288	4
EXTAP	20	336	3
EXTAP	20	336	4
EXTAP	21	0	6
NMTAP	21	16	5
NMTAP	21	32	4
NMTAP	21	48	2
NMTAP	21	64	1
NMTAP	21	80	0
NMTAP	21	96	6
NMTAP	21	112	5
NMTAP	21	128	4
NMTAP	21	144	2
NMTAP	21	160	1
NMTAP	21	176	0
NMHLD	21	192	6	48
NMHLD	21	240	5	48
NMHLD	21	288	4	48
NMTAP	21	336	3
NMTAP	22	0	2
NMTAP	22	0	3
NMTAP	22	72	0
NMTAP	22	72	3
NMTAP	22	144	4
NMTAP	22	144	5
NMTAP	22	216	4
NMTAP	22	216	7
NMTAP	22	288	3
NMTAP	22	288	5
NMTAP	22	336	3
NMTAP	22	336	4
EXTAP	23	0	1
NMTAP	23	16	2
NMTAP	23	32	3
NMTAP	23	48	5
NMTAP	23	64	6
NMTAP	23	80	7
NMTAP	23	96	1
NMTAP	23	112	2
NMTAP	23	128	3
NMTAP	23	144	5
NMTAP	23	160	6
NMTAP	23	176	7
NMHLD	23	192	1	48
NMHLD	23	240	2	48
NMHLD	23	288	3	48
NMTAP	23	336	4
NMTAP	24	0	4
NMTAP	24	0	5
NMTAP	24	72	4
NMTAP	24	72	7
BRTAP	24	144	0
BRTAP	24	144	7
NMTTP	24	216	1	B	0	M1
NMTTP	24	288	0	E	0	M1
NMTTP	24	336	6	B	0	M1
NMTAP	25	0	4
NMTAP	25	48	4
NMTAP	25	96	5
NMTAP	25	144	5
NMSTR	25	192	4
NMSV_	25	192	4	96	48	7
NMHLD	25	192	6	96
NMTAP	26	0	6
NMTAP	26	48	6
NMTAP	26	96	5
NMTAP	26	144	5
NMSTR	26	192	4
NMSV_	26	192	4	96	48	2
NMHLD	26	192	6	96
NMTAP	27	0	2
NMTAP	27	24	3
NMTAP	27	48	2
NMTAP	27	72	3
NMTAP	27	96	2
NMTAP	27	144	5
NMTAP	27	168	4
NMTAP	27	192	5
NMTAP	27	216	4
NMTAP	27	240	5
NMTAP	27	288	2
NMTAP	27	312	3
NMTAP	27	336	2
NMTAP	27	360	3
NMTAP	28	0	1
NMTAP	28	48	5
NMTAP	28	72	4
NMSTR	28	96	5
NMSCR	28	96	5	96	96	1
NMTAP	28	120	4
NMHLD	28	144	6	144
NMTAP	29	0	0
NMTAP	29	48	0
NMTAP	29	96	1
NMTAP	29	144	1
NMSTR	29	192	0
NMSV_	29	192	0	96	48	3
NMHLD	29	192	2	96
NMTAP	30	0	1
NMTAP	30	48	1
NMTAP	30	96	2
NMTAP	30	144	2
NMHLD	30	192	1	96
NMSTR	30	192	3
NMSV_	30	192	3	96	48	5
NMTAP	31	0	5
NMTAP	31	24	4
NMTAP	31	48	5
NMTAP	31	72	4
NMTAP	31	96	5
NMTAP	31	144	2
NMTAP	31	168	3
NMTAP	31	192	2
NMTAP	31	216	3
NMTAP	31	240	2
NMTAP	31	288	5
NMTAP	31	312	4
NMTAP	31	336	5
NMTAP	31	360	4
NMSTR	32	0	6
NMSI_	32	0	6	96	48	4
NMTAP	32	48	3
NMTAP	32	96	2
NMTAP	32	144	1
CNSI_	32	144	4	0	48	7
NMSTR	32	192	0
NMSCL	32	192	0	96	48	5
NMSCR	32	192	0	96	48	3
CNSI_	32	192	7	0	48	3
EXTAP	32	288	0
EXTAP	33	0	3
EXHLD	33	0	4	96
NMHLD	33	96	1	48
NMTTP	33	144	4	E	0	M1
NMHLD	33	192	0	48
NMTTP	33	240	3	E	0	M1
NMHLD	33	288	7	48
NMTTP	33	336	2	E	0	M1
NMHLD	34	0	6	48
NMTTP	34	48	1	E	0	M1
NMHLD	34	96	5	48
NMTTP	34	144	0	E	0	M1
NMHLD	34	192	4	48
NMTTP	34	240	7	E	0	M1
NMTAP	34	288	3
NMHLD	34	336	2	336
NMTAP	34	336	7
NMTTP	35	96	1	E	0	M1
NMTTP	35	108	1	B	0	M1
NMTTP	35	120	2	E	0	M1
NMTTP	35	192	7	E	0	M1
NMTTP	35	204	6	B	0	M1
NMTTP	35	216	6	E	0	M1
NMTTP	35	288	1	B	0	M1
NMTTP	35	288	2	B	0	M1
NMTTP	35	288	2	E	0	M1
NMTTP	35	336	0	C	0	M1
NMTTP	36	0	5	B	0	M1
NMTTP	36	0	6	B	0	M1
NMTTP	36	0	6	E	0	M1
NMSTR	36	96	0
NMSI_	36	96	0	96	48	6
NMHLD	36	96	7	96
CNSI_	36	240	6	0	48	1
CNSI_	36	288	1	0	48	5
EXHLD	37	0	3	96
EXTAP	37	0	4
NMHLD	37	96	6	48
NMTTP	37	144	4	E	0	M1
NMHLD	37	192	7	48
NMTTP	37	240	5	E	0	M1
NMHLD	37	288	0	48
NMTTP	37	336	6	E	0	M1
NMHLD	38	0	1	48
NMTTP	38	48	7	E	0	M1
NMHLD	38	96	2	48
NMTTP	38	144	0	E	0	M1
NMHLD	38	192	3	48
NMTTP	38	240	1	E	0	M1
NMTAP	38	288	4
NMTAP	38	336	0
NMTAP	38	336	5
EXHLD	39	0	0	96
EXHLD	39	0	5	96
EXHLD	39	192	2	96
EXHLD	39	192	7	96
NMTAP	40	0	4
NMTAP	40	0	6
NMTAP	40	72	1
NMTAP	40	72	3
NMTAP	40	144	3
NMTAP	40	144	4
BRSTR	40	192	0
BRSCL	40	192	0	96	48	4
BRHLD	40	192	6	96
EXTAP	40	288	0
EXTAP	41	0	0
EXSTR	41	0	7
NMSI_	41	0	7	96	48	3
NMTAP	41	96	6
NMTAP	41	96	7
NMSTR	41	144	5
NMSI_	41	144	5	96	48	1
NMTAP	41	240	5
NMTAP	41	240	6
NMTAP	41	288	7
NMTAP	41	336	0
EXTAP	42	0	1
EXSTR	42	0	3
NMSI_	42	0	3	96	48	0
NMTAP	42	96	3
NMTAP	42	96	6
NMSTR	42	144	7
NMSI_	42	144	7	96	48	3
NMSI_	42	144	7	96	48	5
NMTAP	42	240	7
NMTAP	43	0	1
NMSTR	43	0	4
NMSI_	43	0	4	96	48	0
NMTAP	43	48	3
NMTAP	43	48	6
NMTAP	43	96	0
NMTAP	43	192	1
NMTAP	43	192	7
NMTAP	43	240	1
NMSTR	43	240	7
NMSCL	43	240	7	96	48	4
NMTAP	43	336	2
NMSTR	43	336	7
NMSCR	43	336	7	96	48	2
NMTAP	44	48	4
NMSTR	44	48	7
NMSI_	44	48	7	96	48	3
NMTAP	44	144	3
NMSTR	44	144	7
NMSF_	44	144	7	96	96	3
NMTAP	45	0	6
NMTAP	45	48	7
NMTAP	45	96	0
NMHLD	45	144	1	96
NMTAP	45	144	3
NMTAP	45	240	0
NMTAP	45	288	1
NMTAP	45	288	7
NMTAP	45	336	2
NMTAP	45	336	6
NMTAP	46	0	3
NMHLD	46	0	5	144
NMTAP	46	96	6
NMTAP	46	144	6
NMTAP	46	240	5
NMTAP	46	240	7
NMTAP	46	288	0
NMTAP	46	288	4
NMTAP	46	336	1
NMTAP	46	336	3
NMTAP	47	0	2
NMTAP	47	24	3
NMTAP	47	48	2
NMTAP	47	72	3
NMTAP	47	96	2
NMTAP	47	144	7
NMTAP	47	168	0
NMTAP	47	192	7
NMTAP	47	216	0
NMTAP	47	240	7
NMTAP	47	288	6
NMTAP	47	288	7
NMTAP	47	336	4
NMTAP	47	336	5
NMTAP	48	0	1
NMTAP	48	0	3
NMTAP	48	48	2
NMTAP	48	72	3
NMTAP	48	120	3
NMTAP	48	144	1
NMSTR	48	192	0
BRSI_	48	192	0	96	48	3
NMSTR	48	192	7
BRSI_	48	192	7	96	48	4
EXTAP	48	288	0
NMTTP	48	288	1	E	0	M1
EXTAP	48	288	7
NMTTP	48	288	7	E	0	M1
NMTTP	48	304	1	B	0	M1
NMTTP	48	304	6	B	0	M1
NMTTP	48	320	2	B	0	M1
NMTTP	48	320	5	B	0	M1
NMTTP	48	336	3	E	0	M1
NMTTP	48	336	5	E	0	M1
EXSTR	49	0	0
NMSI_	49	0	0	96	48	4
EXTAP	49	0	6
NMTAP	49	96	0
NMTAP	49	96	1
NMSTR	49	144	2
NMSUL	49	144	2	96	96	0
NMTAP	49	240	2
NMTAP	49	240	3
NMTAP	49	288	4
NMTAP	49	336	5
NMSTR	50	0	0
NMSI_	50	0	0	96	48	4
NMTAP	50	0	6
NMTAP	50	48	1
NMTAP	50	96	0
NMSTR	50	96	6
NMSI_	50	96	6	96	48	2
NMTAP	50	144	5
NMTAP	50	192	1
NMTAP	50	192	6
NMHLD	50	240	0	144
CNSI_	50	240	2	0	48	5
NMSTR	51	0	3
NMSI_	51	0	3	96	48	7
NMTAP	51	48	3
NMSTR	51	96	1
NMSI_	51	96	1	96	48	4
NMTAP	51	96	3
NMTAP	51	192	0
NMTAP	51	240	7
NMTAP	51	288	6
NMTAP	51	336	5
NMSTR	51	336	7
BRSI_	51	336	7	96	48	1
BRSI_	51	336	7	96	48	2
BXSTR	52	48	7
BRSI_	52	48	7	96	48	4
BRSI_	52	48	7	96	48	5
BXSTR	52	144	7
BRSF_	52	144	7	96	48	3
BXTAP	52	240	7
NMTAP	53	0	1
NMTAP	53	48	2
NMTAP	53	96	3
NMSTR	53	144	4
NMSCL	53	144	4	96	48	1
NMSTR	53	240	4
NMSCR	53	240	4	96	48	7
NMTAP	53	336	4
NMSTR	54	96	1
NMSI_	54	96	1	96	48	6
NMSI_	54	96	1	96	48	7
NMSTR	54	192	1
NMSI_	54	192	1	96	48	4
NMSI_	54	192	1	96	48	5
NMTAP	54	288	1
NMHLD	55	0	3	144
NMTAP	55	0	6
NMSTR	55	96	2
NMSCL	55	96	2	96	96	5
NMTAP	55	144	2
NMTAP	55	240	4
NMTAP	55	288	3
NMTAP	55	336	2
NMTAP	56	0	1
NMHLD	56	48	1	96
NMHLD	56	144	7	96
NMTAP	56	240	4
BRTAP	56	288	0
BRTAP	56	288	6
EXTAP	57	0	1
NMTAP	57	48	1
NMTAP	57	96	0
NMTAP	57	96	2
NMTAP	57	144	0
NMTAP	57	144	2
NMTAP	57	192	3
NMTAP	57	192	7
NMTAP	57	240	3
NMTAP	57	240	7
NMTAP	57	288	4
NMTAP	57	288	6
NMTAP	57	336	4
NMTAP	57	336	6
NMTAP	58	0	0
NMTAP	58	0	7
NMSTR	58	48	0
BRSI_	58	48	0	96	48	5
NMSTR	58	48	7
BRSI_	58	48	7	96	48	5
EXSTR	58	144	0
BRSI_	58	144	0	96	48	2
EXSTR	58	144	7
BRSI_	58	144	7	96	48	2
EXTAP	58	240	0
EXSTR	58	240	7
NMSCL	58	240	7	96	432	0
BXHLD	58	336	0	720
BXTAP	58	336	7
CNSXL	60	0	0	0	96	3
CNSXL	60	96	3	0	96	6
EXTAP	60	288	7
NMTAP	60	336	0
NMTAP	60	336	7
EXTAP	61	0	6
NMTAP	61	16	5
NMTAP	61	32	4
NMTAP	61	48	2
NMTAP	61	64	1
NMTAP	61	80	0
NMTAP	61	96	6
NMTAP	61	112	5
NMTAP	61	128	4
NMTAP	61	144	2
NMTAP	61	160	1
NMTAP	61	176	0
NMHLD	61	192	6	48
NMHLD	61	240	5	48
NMHLD	61	288	4	48
NMTAP	61	336	3
NMTAP	62	0	2
NMTAP	62	0	3
NMTAP	62	72	0
NMTAP	62	72	3
NMTAP	62	144	2
NMTAP	62	144	5
EXTAP	62	240	3
EXTAP	62	240	4
EXTAP	62	288	3
EXTAP	62	288	4
EXTAP	62	336	3
EXTAP	62	336	4
EXTAP	63	0	6
NMTAP	63	16	5
NMTAP	63	32	4
NMTAP	63	48	2
NMTAP	63	64	1
NMTAP	63	80	0
NMTAP	63	96	6
NMTAP	63	112	5
NMTAP	63	128	4
NMTAP	63	144	2
NMTAP	63	160	1
NMTAP	63	176	0
NMHLD	63	192	6	48
NMHLD	63	240	5	48
NMHLD	63	288	4	48
NMTAP	63	336	3
NMTAP	64	0	2
NMTAP	64	0	3
NMTAP	64	72	0
NMTAP	64	72	3
NMTAP	64	144	4
NMTAP	64	144	5
NMTAP	64	216	4
NMTAP	64	216	7
NMTAP	64	288	3
NMTAP	64	288	5
NMTAP	64	336	3
NMTAP	64	336	4
EXTAP	65	0	1
NMTAP	65	16	2
NMTAP	65	32	3
NMTAP	65	48	5
NMTAP	65	64	6
NMTAP	65	80	7
NMTAP	65	96	1
NMTAP	65	112	2
NMTAP	65	128	3
NMTAP	65	144	5
NMTAP	65	160	6
NMTAP	65	176	7
NMHLD	65	192	1	48
NMHLD	65	240	2	48
NMHLD	65	288	3	48
NMTAP	65	336	4
NMTAP	66	0	4
NMTAP	66	0	5
NMTAP	66	72	4
NMSTR	66	72	7
NMSI_	66	72	7	96	24	3
EXTAP	66	144	0
EXTAP	66	144	7
NMTTP	66	216	2	E	0	M1
NMTTP	66	288	0	B	0	M1
NMTTP	66	336	7	B	0	M1
NMTTP	67	0	6	E	0	M1

T_REC_TAP	382
T_REC_BRK	4
T_REC_XTP	43
T_REC_BXX	4
T_REC_HLD	52
T_REC_XHO	7
T_REC_BHO	1
T_REC_BXH	4
T_REC_STR	37
T_REC_BST	1
T_REC_XST	7
T_REC_XBS	2
T_REC_TTP	52
T_REC_THO	0
T_REC_SLD	41
T_REC_BSL	12
T_REC_ALL	649
T_NUM_TAP	521
T_NUM_BRK	28
T_NUM_HLD	59
T_NUM_SLD	41
T_NUM_ALL	649
T_JUDGE_TAP	532
T_JUDGE_HLD	135
T_JUDGE_SLD	53
T_JUDGE_ALL	720
TTM_EACHPAIRS	108
TTM_SCR_TAP	260500
TTM_SCR_BRK	72800
TTM_SCR_HLD	59000
TTM_SCR_SLD	61500
TTM_SCR_ALL	453800
TTM_SCR_S	437500
TTM_SCR_SS	451000
TTM_RAT_ACV	10062

