VERSION	0.00.00	1.04.00
FES_MODE	0
BPM_DEF	140.000	140.000	140.000	140.000
MET_DEF	4	4
RESOLUTION	384
CLK_DEF	384
COMPATIBLE_CODE	MA2

BPM	0	0	140.000
MET	0	0	4	4

NMTTP	8	0	0	C	1	M1
NMTTP	8	0	1	B	0	M1
NMTTP	8	0	2	B	0	M1
NMTTP	8	0	2	E	0	M1
NMTTP	8	0	5	B	0	M1
NMTTP	8	0	6	B	0	M1
NMTTP	8	0	6	E	0	M1
NMHLD	9	0	1	72
NMHLD	9	72	3	72
NMHLD	9	144	2	72
NMHLD	9	216	4	72
NMTAP	9	288	3
NMHLD	10	0	6	72
NMHLD	10	72	4	72
NMHLD	10	144	5	72
NMHLD	10	216	3	72
NMTAP	10	288	4
NMHLD	11	0	1	72
NMHLD	11	72	2	72
NMHLD	11	144	3	72
NMHLD	11	216	4	72
NMTAP	11	288	3
NMHLD	12	0	6	72
NMHLD	12	72	5	72
NMHLD	12	144	4	72
NMHLD	12	216	3	72
NMTAP	12	288	4
NMTAP	13	0	0
NMTAP	13	0	1
NMTAP	13	72	2
NMTAP	13	72	7
NMHLD	13	144	6	72
NMHLD	13	216	5	72
NMTAP	13	288	4
NMTAP	14	0	6
NMTAP	14	0	7
NMTAP	14	72	0
NMTAP	14	72	5
NMHLD	14	144	1	72
NMHLD	14	216	2	72
NMTAP	14	288	3
NMHLD	15	0	6	72
NMHLD	15	72	4	72
NMHLD	15	144	3	72
NMHLD	15	216	1	72
NMTAP	15	288	6
NMTAP	16	0	0
NMTAP	16	0	2
NMTAP	16	72	5
NMTAP	16	72	7
NMSTR	16	144	1
NMSI_	16	144	1	96	48	5
NMTAP	16	144	6
BXTAP	16	288	7
NMTAP	17	0	4
NMTAP	17	0	6
NMTAP	17	96	3
NMTAP	17	96	4
NMTAP	17	192	2
NMTAP	17	240	2
NMTAP	17	288	1
NMTAP	17	288	3
NMHLD	18	0	5	72
NMTAP	18	72	4
NMHLD	18	144	6	72
NMTAP	18	216	4
NMTAP	18	288	0
NMTAP	19	0	1
NMTAP	19	0	3
NMTAP	19	96	3
NMTAP	19	96	4
NMTAP	19	192	5
NMTAP	19	240	5
NMTAP	19	288	4
NMTAP	19	288	6
NMHLD	20	0	2	72
NMTAP	20	72	3
NMHLD	20	144	7	96
EXTAP	20	240	0
EXTAP	20	288	0
EXTAP	20	336	0
NMTAP	21	0	1
NMTAP	21	0	7
NMTAP	21	96	2
NMTAP	21	96	6
NMTAP	21	192	5
NMTAP	21	240	5
NMTAP	21	288	4
NMTAP	21	288	6
NMHLD	22	0	2	72
NMTAP	22	72	3
NMHLD	22	144	1	72
NMTAP	22	216	3
NMTAP	22	288	7
NMTAP	23	0	0
NMTAP	23	0	6
NMTAP	23	96	1
NMTAP	23	96	5
NMTAP	23	192	2
NMTAP	23	240	2
NMTAP	23	288	1
NMTAP	23	288	3
NMHLD	24	0	7	72
NMTAP	24	72	0
EXHLD	24	144	1	144
EXHLD	24	144	6	144
NMHLD	25	0	5	192
NMTAP	25	96	4
NMTAP	25	192	3
NMTAP	25	288	2
NMTAP	25	288	4
NMHLD	26	0	1	192
NMTAP	26	96	2
NMTAP	26	192	3
NMTAP	26	288	2
NMTAP	26	288	4
NMHLD	27	0	5	576
NMTAP	27	96	4
NMTAP	27	144	4
NMTAP	27	240	6
NMTAP	27	288	6
NMTAP	28	0	4
NMTAP	28	48	4
NMTAP	28	144	6
NMSTR	28	192	6
NMSCL	28	192	6	96	48	3
NMHLD	29	0	2	192
NMTAP	29	96	3
NMTAP	29	192	4
NMTAP	29	288	3
NMTAP	29	288	5
NMHLD	30	0	6	192
NMTAP	30	96	5
NMTAP	30	192	4
NMTAP	30	288	3
NMTAP	30	288	5
NMHLD	31	0	2	432
NMTAP	31	96	3
NMTAP	31	144	3
NMTAP	31	240	1
NMTAP	31	288	1
NMTAP	32	0	3
NMTAP	32	48	3
NMTAP	32	96	2
NMTAP	32	144	1
NMTAP	32	192	0
NMTAP	32	240	7
EXTAP	32	288	0
EXTAP	32	288	6
NMTAP	33	0	5
NMTAP	33	96	4
NMTAP	33	96	5
NMTAP	33	192	2
NMTAP	33	240	2
NMTAP	33	288	3
NMTAP	34	0	1
NMTAP	34	96	0
NMTAP	34	96	1
NMTAP	34	192	6
NMTAP	34	240	6
NMTAP	34	288	7
NMTAP	35	0	4
NMTAP	35	0	5
NMTAP	35	96	2
NMTAP	35	96	3
NMTAP	35	192	4
NMTAP	35	192	6
NMTAP	35	288	1
NMTAP	35	288	3
NMTAP	36	0	3
NMTAP	36	0	4
NMHLD	36	96	7	96
NMTAP	36	192	0
NMTAP	36	240	0
BRTAP	36	288	7
NMTAP	37	0	0
NMTAP	37	0	1
NMTAP	37	96	2
NMTAP	37	96	3
NMTAP	37	192	4
NMTAP	37	192	5
NMTAP	37	288	6
NMTAP	37	288	7
NMTAP	38	0	4
NMTAP	38	0	5
NMTAP	38	96	2
NMTAP	38	96	3
NMTAP	38	192	0
NMTAP	38	192	1
NMSTR	38	288	2
BRSI_	38	288	2	96	48	7
NMSTR	38	288	6
BRSI_	38	288	6	96	48	3
NMTAP	40	0	3
NMTAP	40	0	4
NMTAP	40	72	3
NMTAP	40	72	4
NMTAP	40	144	3
NMTAP	40	144	4
BXSTR	40	192	1
NMSCR	40	192	1	96	48	3
BXSTR	40	192	6
NMSCL	40	192	6	96	48	4
BRTAP	41	0	0
BRTAP	41	0	7
NMTAP	41	96	0
NMTAP	41	96	1
NMTAP	41	144	2
NMHLD	41	144	7	96
NMHLD	41	240	4	96
NMTAP	41	336	5
NMTAP	42	0	3
NMTAP	42	0	6
NMTAP	42	96	2
NMTAP	42	96	3
NMTAP	42	144	1
NMSTR	42	144	4
NMSI_	42	144	4	96	48	7
NMTAP	42	240	3
NMTAP	43	0	0
NMTAP	43	48	0
NMTAP	43	96	1
NMTAP	43	96	7
NMTAP	43	192	6
NMTAP	43	240	6
NMTAP	43	288	4
NMSTR	43	336	5
NMSI_	43	336	5	96	48	3
NMSTR	44	48	1
NMSI_	44	48	1	96	48	5
NMSTR	44	144	7
NMSCL	44	144	7	96	192	1
EXHLD	44	240	0	240
NMTAP	45	192	1
NMTAP	45	240	0
NMTAP	45	288	2
NMTAP	45	288	7
NMTAP	46	0	4
NMTAP	46	0	5
NMTAP	46	96	2
NMTAP	46	96	3
NMTAP	46	192	6
NMTAP	46	240	7
NMTAP	46	288	0
NMTAP	46	288	5
NMSTR	47	0	6
NMSI_	47	0	6	96	48	3
NMTAP	47	48	6
EXTAP	47	96	7
NMSTR	47	192	1
NMSI_	47	192	1	96	48	4
NMTAP	47	240	1
EXTAP	47	288	0
NMTAP	48	0	6
NMTAP	48	0	7
NMTAP	48	72	3
NMTAP	48	72	4
NMTAP	48	144	0
NMTAP	48	144	1
NMTAP	48	192	2
NMSTR	48	192	7
NMSI_	48	192	7	96	48	3
BRTAP	48	288	0
NMTAP	49	0	0
NMTAP	49	0	1
NMTAP	49	96	6
NMTAP	49	96	7
NMHLD	49	144	0	96
NMTAP	49	144	5
NMHLD	49	240	3	96
NMTAP	49	336	2
NMTAP	50	0	1
NMTAP	50	0	4
NMTAP	50	96	4
NMTAP	50	96	5
NMSTR	50	144	3
NMSI_	50	144	3	96	48	0
NMTAP	50	144	6
NMTAP	50	240	4
NMSTR	51	0	7
NMSI_	51	0	7	96	48	4
NMTAP	51	48	7
EXTAP	51	96	0
NMTAP	51	192	2
NMTAP	51	240	2
NMTAP	51	288	3
EXSTR	51	336	1
NMSI_	51	336	1	96	48	4
EXSTR	52	48	6
NMSI_	52	48	6	96	48	2
EXSTR	52	144	0
NMSCR	52	144	0	96	96	5
BRTAP	52	240	7
NMTAP	53	0	6
NMTAP	53	48	6
NMTAP	53	96	4
NMTAP	53	144	4
NMTAP	53	192	3
NMTAP	53	240	3
NMTAP	53	288	1
NMTAP	53	336	1
NMTAP	54	0	0
NMTAP	54	0	7
NMTAP	54	96	5
NMTAP	54	96	6
NMTAP	54	192	3
NMTAP	54	192	4
NMTAP	54	288	1
NMTAP	54	288	2
NMTAP	55	0	0
NMTAP	55	48	1
NMTAP	55	96	2
NMTAP	55	144	7
NMTAP	55	192	6
NMTAP	55	240	5
NMTAP	55	288	3
NMTAP	55	288	4
NMTAP	56	0	2
NMTAP	56	48	2
NMTAP	56	96	5
NMTAP	56	144	5
EXSTR	56	192	3
NMSI_	56	192	3	96	48	1
EXSTR	56	192	4
NMSI_	56	192	4	96	48	6
EXTAP	57	0	0
EXTAP	57	0	7
NMTAP	57	48	0
NMTAP	57	48	7
EXTAP	57	96	1
EXTAP	57	96	6
NMTAP	57	144	1
NMTAP	57	144	6
EXTAP	57	192	2
EXTAP	57	192	5
NMTAP	57	240	2
NMTAP	57	240	5
EXTAP	57	288	3
EXTAP	57	288	4
NMTAP	57	336	3
NMTAP	57	336	4
BXTAP	58	0	1
BXTAP	58	0	6
BRSTR	58	48	1
NMSI_	58	48	1	96	48	4
BRTAP	58	48	6
BRSTR	58	144	5
NMSI_	58	144	5	96	48	0
BRSTR	58	240	3
BRSCL	58	240	3	96	720	4
NMTHO	58	336	0	720	C	1	M1
EXTAP	61	96	0
EXTAP	61	96	7
NMTAP	61	192	1
NMTAP	61	240	1
EXTAP	61	288	2
EXTAP	61	288	3
NMTAP	62	0	4
NMHLD	62	0	5	72
NMHLD	62	72	6	72
NMTAP	62	144	7
EXTAP	62	240	0
EXTAP	62	240	7
EXTAP	62	288	0
EXTAP	62	288	7
EXTAP	62	336	0
EXTAP	62	336	7
NMTAP	63	0	1
NMTAP	63	0	6
NMTAP	63	96	2
NMTAP	63	96	3
NMTAP	63	192	6
NMTAP	63	240	6
NMTAP	63	288	4
NMTAP	63	288	5
NMHLD	64	0	1	72
NMTAP	64	72	3
NMHLD	64	144	5	72
NMTAP	64	216	4
NMTAP	64	288	7
NMTAP	64	336	0
NMTAP	65	0	1
NMTAP	65	0	6
NMTAP	65	96	4
NMTAP	65	96	5
NMTAP	65	192	1
NMTAP	65	240	1
NMTAP	65	288	2
NMTAP	65	288	3
NMTAP	66	0	6
NMTAP	66	0	7
NMTAP	66	72	0
NMTAP	66	72	1
NMHLD	66	144	0	72
NMHLD	66	144	7	72
NMTTP	66	288	0	E	0	M1
NMTTP	66	336	0	C	0	M1
NMTTP	67	0	4	E	0	M1

T_REC_TAP	258
T_REC_BRK	6
T_REC_XTP	26
T_REC_HLD	48
T_REC_XHO	3
T_REC_STR	13
T_REC_BST	5
T_REC_XST	5
T_REC_TTP	10
T_REC_THO	1
T_REC_SLD	23
T_REC_ALL	398
T_NUM_TAP	312
T_NUM_BRK	11
T_NUM_HLD	52
T_NUM_SLD	23
T_NUM_ALL	398
T_JUDGE_TAP	323
T_JUDGE_HLD	147
T_JUDGE_SLD	23
T_JUDGE_ALL	493
TTM_EACHPAIRS	96
TTM_SCR_TAP	156000
TTM_SCR_BRK	28600
TTM_SCR_HLD	52000
TTM_SCR_SLD	34500
TTM_SCR_ALL	271100
TTM_SCR_S	261900
TTM_SCR_SS	270000
TTM_RAT_ACV	10040

