VERSION	0.00.00	1.04.00
FES_MODE	0
BPM_DEF	199.000	199.000	199.000	199.000
MET_DEF	4	4
RESOLUTION	384
CLK_DEF	384
COMPATIBLE_CODE	MA2

BPM	0	0	199.000
MET	0	0	4	4

BRSTR	4	0	0
NMSLR	4	0	0	96	1056	4
BRTAP	4	0	7
NMTAP	4	12	1
NMTAP	4	12	6
NMTAP	4	24	2
NMTAP	4	24	5
NMTAP	4	36	3
NMTAP	4	36	4
NMHLD	5	0	0	0
NMHLD	6	0	1	0
NMHLD	7	0	2	0
CNSLR	7	0	4	0	1536	0
NMHLD	8	0	3	0
NMHLD	9	0	4	0
NMHLD	10	0	5	0
NMHLD	11	0	6	384
EXHLD	12	0	4	576
NMTAP	12	96	5
NMTAP	12	144	5
NMTAP	12	240	6
NMTAP	12	288	6
NMTAP	13	0	7
NMTAP	13	48	7
NMTAP	13	144	0
NMHLD	13	192	0	96
NMTAP	13	288	4
NMTAP	13	336	2
NMHLD	14	0	0	384
NMTAP	14	0	6
NMTAP	14	96	2
NMTAP	14	144	2
NMTAP	14	240	4
NMTAP	14	288	5
NMTAP	14	336	6
NMHLD	15	0	7	96
NMHLD	15	96	5	96
NMHLD	15	192	3	96
NMTAP	15	288	1
NMTAP	16	0	0
NMTAP	16	0	3
NMTAP	16	48	0
NMTAP	16	96	1
NMTAP	16	96	4
NMTAP	16	144	1
NMTAP	16	192	2
NMTAP	16	192	5
NMTAP	16	240	2
NMTAP	16	288	3
NMTAP	16	288	6
NMTAP	16	336	3
NMTAP	17	0	4
NMTAP	17	0	7
NMTAP	17	48	7
NMTAP	17	96	3
NMTAP	17	96	6
NMTAP	17	144	6
NMTAP	17	192	2
NMTAP	17	192	5
NMTAP	17	240	5
NMTAP	17	288	1
NMTAP	17	288	4
NMTAP	17	336	4
NMTAP	18	0	0
NMTAP	18	24	1
NMTAP	18	48	2
NMTAP	18	72	3
NMTAP	18	96	7
NMTAP	18	120	6
NMTAP	18	144	5
NMTAP	18	168	4
NMTAP	18	192	0
NMTAP	18	204	1
NMTAP	18	216	2
NMTAP	18	228	3
NMTAP	18	240	4
NMTAP	18	252	5
NMTAP	18	264	6
NMTAP	18	276	7
NMTAP	18	288	0
NMTAP	18	300	1
NMTAP	18	312	2
NMTAP	18	324	3
NMTAP	18	336	4
NMTAP	18	348	5
NMSTR	18	360	6
NMSSL	18	360	6	96	216	2
NMTAP	18	372	7
NMSTR	19	0	0
NMSI_	19	0	0	96	96	4
CNSI_	19	192	4	0	96	0
EXTAP	20	0	1
EXTAP	20	0	3
NMTAP	20	96	1
NMTAP	20	96	3
NMTAP	20	144	4
NMTAP	20	192	1
NMTAP	20	240	4
NMTAP	20	288	1
NMTAP	20	288	3
NMTAP	21	0	1
NMTAP	21	0	3
NMTAP	21	48	4
EXSTR	21	96	0
NMSI_	21	96	0	96	48	4
NMSTR	21	144	4
NMSI_	21	144	4	96	48	0
BRTAP	21	192	6
BRTAP	21	240	6
NMSTR	22	0	1
NMSCR	22	0	1	96	48	4
EXTAP	22	0	7
NMTAP	22	96	5
NMSTR	22	144	5
NMSCR	22	144	5	96	48	0
NMTAP	22	240	1
NMSTR	22	288	1
NMSI_	22	288	1	96	48	5
NMTAP	23	0	7
NMTAP	23	48	7
NMSTR	23	96	6
NMSI_	23	96	6	96	24	3
NMTAP	23	144	6
EXSTR	23	192	2
NMSI_	23	192	2	96	24	7
EXSTR	23	264	4
NMSI_	23	264	4	96	24	0
EXTAP	23	336	0
BRTAP	24	96	2
BRTAP	24	96	6
NMHLD	24	192	2	48
NMHLD	24	192	3	48
NMHLD	24	288	3	48
NMHLD	24	288	4	48
NMTAP	25	0	4
NMTAP	25	0	5
NMTAP	25	48	6
NMTAP	25	96	0
NMTAP	25	96	7
NMTAP	25	144	1
NMTAP	25	192	2
NMTAP	25	192	3
NMTAP	25	240	4
NMTAP	25	288	3
NMTAP	25	288	5
NMTAP	25	336	2
NMTAP	25	336	6
NMTAP	26	0	1
NMTAP	26	24	0
NMTAP	26	48	2
NMTAP	26	72	7
NMTAP	26	96	3
NMTAP	26	120	6
NMTAP	26	144	4
NMTAP	26	168	5
NMTAP	26	192	7
NMTAP	26	216	6
NMTAP	26	240	0
NMTAP	26	264	5
NMTAP	26	288	1
NMTAP	26	312	4
NMTAP	26	336	2
NMTAP	26	360	3
NMTHO	27	0	0	288	C	1	M1
NMSTR	27	192	6
NMSI_	27	192	6	96	48	2
BRTAP	28	0	1
BRTAP	28	0	7
NMTAP	28	96	0
NMTAP	28	96	6
NMTAP	28	144	0
NMTAP	28	144	6
NMTAP	28	192	1
NMTAP	28	240	2
NMTAP	28	240	3
NMTAP	28	288	2
NMTAP	28	288	3
NMTAP	28	336	4
NMTAP	29	0	3
NMTAP	29	0	5
NMTAP	29	48	3
NMTAP	29	48	5
NMTAP	29	96	6
NMTAP	29	144	1
NMTAP	29	144	7
NMSTR	29	192	1
NMSI_	29	192	1	96	48	5
NMTAP	29	192	7
NMTAP	29	264	0
NMTAP	29	288	1
NMTAP	29	336	7
NMTAP	30	0	4
NMTAP	30	0	6
NMTAP	30	48	5
NMTAP	30	96	3
NMHLD	30	144	2	48
NMHLD	30	144	4	48
NMHLD	30	216	2	48
NMHLD	30	216	4	48
NMTAP	30	288	2
NMTAP	30	288	4
NMTAP	30	336	1
NMHLD	31	0	2	48
NMHLD	31	0	3	48
NMHLD	31	72	3	48
NMHLD	31	72	4	48
NMTAP	31	144	4
NMTAP	31	144	5
NMTAP	31	240	4
NMTAP	31	240	5
NMTAP	31	264	3
NMTAP	31	288	2
NMTAP	31	312	1
NMTAP	31	336	7
NMTAP	31	360	6
NMSTR	32	0	5
BRSI_	32	0	5	96	48	0
NMTAP	32	96	0
NMSTR	32	144	1
NMSI_	32	144	1	96	48	5
NMTAP	32	240	1
NMSTR	32	240	6
NMSV_	32	240	6	96	48	3
NMTAP	32	336	6
NMTAP	32	336	7
NMTAP	33	48	0
NMTAP	33	96	0
NMTAP	33	144	1
NMTAP	33	144	7
NMHLD	33	192	2	72
NMTAP	33	192	6
NMHLD	33	264	3	72
NMTAP	33	336	4
NMSTR	34	0	4
NMSI_	34	0	4	96	24	2
NMTAP	34	72	4
NMTAP	34	72	5
NMSTR	34	144	6
NMSI_	34	144	6	96	24	4
NMTAP	34	216	6
NMTAP	34	216	7
NMTAP	34	288	0
NMTAP	34	336	0
NMHLD	35	0	1	48
NMTTP	35	0	4	A	0	M1
NMTTP	35	0	5	E	0	M1
NMTTP	35	72	3	E	0	M1
NMTTP	35	72	3	A	0	M1
NMHLD	35	72	6	48
NMHLD	35	144	0	48
NMTTP	35	144	4	B	0	M1
NMTTP	35	144	5	B	0	M1
NMTTP	35	216	2	B	0	M1
NMTTP	35	216	3	B	0	M1
NMTAP	35	216	7
NMTAP	35	288	6
NMTAP	35	312	0
NMTAP	35	336	6
NMTAP	35	360	0
BRHLD	36	0	7	216
NMTAP	36	240	0
NMTAP	36	240	6
NMTAP	36	264	1
NMTAP	36	264	5
NMTAP	36	288	2
NMTAP	36	288	4
BRTAP	36	336	0
BRTAP	36	336	6
NMTAP	37	48	4
NMTAP	37	96	3
NMTAP	37	144	6
EXTAP	37	192	5
EXTAP	37	192	6
EXTAP	37	264	3
EXTAP	37	264	4
EXTAP	37	336	1
EXTAP	37	336	2
NMSTR	38	0	1
NMSI_	38	0	1	96	48	5
EXTAP	38	96	0
EXTAP	38	96	1
NMSTR	38	144	7
NMSI_	38	144	7	96	48	3
EXTAP	38	240	6
EXTAP	38	240	7
NMSTR	38	288	5
NMSI_	38	288	5	96	48	1
EXTAP	39	0	4
EXTAP	39	0	5
NMSTR	39	48	3
BRSI_	39	48	3	96	48	7
EXTAP	39	144	4
NMTAP	39	168	5
NMHLD	39	192	6	72
NMHLD	39	264	0	72
NMTAP	39	336	7
NMTAP	40	0	0
EXTAP	40	0	6
NMTAP	40	48	0
NMTAP	40	96	1
EXTAP	40	96	3
NMTAP	40	144	1
NMTAP	40	192	2
EXTAP	40	192	7
NMTAP	40	240	2
NMTAP	40	288	3
EXTAP	40	288	5
NMTAP	40	336	3
EXTAP	41	0	2
NMTAP	41	0	4
NMTAP	41	48	4
EXTAP	41	96	0
NMTAP	41	96	5
NMTAP	41	144	5
EXTAP	41	192	4
NMTAP	41	192	6
NMTAP	41	240	6
EXTAP	41	288	1
NMTAP	41	288	7
NMTAP	41	336	7
NMTAP	42	0	1
NMTAP	42	24	0
NMTAP	42	48	1
NMTAP	42	72	0
NMHLD	42	96	2	48
NMTAP	42	144	6
NMTAP	42	168	7
NMTAP	42	192	6
NMTAP	42	216	7
NMHLD	42	240	4	48
NMTAP	42	288	3
NMTAP	42	312	5
NMTAP	42	336	2
NMTAP	42	360	6
NMSTR	43	0	0
NMSI_	43	0	0	96	48	4
NMSTR	43	96	0
NMSCL	43	96	0	96	48	5
NMSCR	43	96	0	96	48	3
NMTAP	43	192	0
BRTAP	43	288	1
BRTAP	43	288	7
NMTAP	44	0	4
NMTAP	44	0	5
NMTAP	44	48	2
NMTAP	44	72	3
NMTAP	44	96	1
NMSTR	44	144	4
NMSI_	44	144	4	96	48	7
NMSTR	44	192	6
NMSI_	44	192	6	96	48	3
EXTAP	44	240	4
EXTAP	44	288	6
EXSTR	44	336	0
BRSI_	44	336	0	96	48	5
NMTAP	45	48	3
NMHLD	45	96	3	192
CNSI_	45	96	5	0	48	2
CNSI_	45	144	2	0	48	7
CNSI_	45	192	7	0	48	4
CNSI_	45	240	4	0	48	1
NMTAP	46	0	0
NMTAP	46	0	4
NMTAP	46	48	5
NMTAP	46	72	4
NMTAP	46	96	6
NMSTR	46	144	3
NMSI_	46	144	3	96	48	0
NMSTR	46	192	1
NMSI_	46	192	1	96	48	4
EXTAP	46	240	3
EXTAP	46	288	1
EXSTR	46	336	7
BRSI_	46	336	7	96	48	2
NMTAP	47	48	4
CNSI_	47	96	2	0	48	5
NMHLD	47	96	4	192
CNSI_	47	144	5	0	48	0
CNSI_	47	192	0	0	48	3
CNSI_	47	240	3	0	48	6
NMTAP	48	0	3
NMTAP	48	0	7
NMTAP	48	48	1
NMTAP	48	72	0
NMTAP	48	96	1
NMTAP	48	120	0
NMTAP	48	144	3
NMTAP	48	192	6
NMTAP	48	216	7
NMTAP	48	240	6
NMTAP	48	264	7
NMTAP	48	288	4
NMTAP	48	336	2
NMTAP	48	360	3
NMTAP	49	0	1
NMTAP	49	24	4
NMTAP	49	48	0
NMTAP	49	72	5
NMTAP	49	96	7
NMTAP	49	120	6
NMTAP	49	144	0
NMTAP	49	168	7
NMTAP	49	192	1
NMTAP	49	216	0
NMTAP	49	240	2
NMTAP	49	264	7
NMTAP	49	288	3
NMTAP	49	312	6
NMTAP	49	336	4
NMTAP	49	360	5
EXTAP	50	0	1
NMTAP	50	24	2
NMTAP	50	48	3
NMTAP	50	72	4
EXTAP	50	72	7
NMTAP	50	96	6
NMTAP	50	120	5
EXTAP	50	144	2
NMTAP	50	144	4
NMTAP	50	168	1
NMTAP	50	192	0
EXTAP	50	216	6
NMTAP	50	216	7
NMTAP	50	240	5
NMTAP	50	264	4
EXTAP	50	288	1
NMTAP	50	312	2
NMTAP	50	336	3
NMTAP	50	360	4
NMTAP	51	0	5
NMHLD	51	0	7	72
NMHLD	51	72	6	72
NMTAP	51	144	5
NMHLD	51	192	3	72
NMHLD	51	264	2	72
NMTAP	51	336	1
NMSTR	52	0	0
NMTTP	52	0	0	C	1	M1
NMSI_	52	0	0	96	288	3
NMSI_	52	0	0	96	288	5
CNSI_	53	0	3	0	384	7
CNSI_	53	0	5	0	384	1
CNSI_	54	0	1	0	384	4
CNSI_	54	0	7	0	384	4
NMHLD	56	0	2	384
NMHLD	57	0	3	384
NMHLD	58	0	4	384
NMHLD	59	0	5	384
NMTHO	60	0	0	1056	C	0	M1
NMTAP	60	96	7
NMTAP	60	144	7
NMTAP	60	240	6
NMTAP	60	288	6
NMTAP	61	0	5
NMTAP	61	48	5
NMTAP	61	144	4
NMTAP	61	192	4
NMTAP	61	288	3
NMTAP	62	0	4
NMTTP	62	96	5	B	0	M1
NMTTP	62	144	4	B	0	M1
NMTTP	62	240	6	B	0	M1
NMTTP	62	288	7	B	0	M1
NMTTP	63	0	0	D	0	M1
NMTTP	63	96	1	A	0	M1
NMTTP	63	96	6	A	0	M1
NMTTP	63	192	3	E	0	M1
NMTTP	63	192	5	E	0	M1
NMTTP	63	288	4	E	0	M1
NMTTP	63	288	4	D	0	M1
EXTAP	64	0	5
NMTAP	64	48	5
NMTAP	64	96	5
NMTAP	64	144	5
NMTAP	64	192	3
NMTAP	64	192	5
NMTAP	64	240	3
NMTAP	64	288	3
NMTAP	64	336	3
EXTAP	65	0	1
NMTAP	65	0	3
NMTAP	65	48	1
NMTAP	65	96	1
NMTAP	65	144	1
NMTAP	65	192	1
NMTAP	65	192	7
NMTAP	65	240	7
NMTAP	65	288	7
NMTAP	65	336	7
NMTAP	66	0	6
NMTAP	66	24	0
NMTAP	66	48	6
NMTAP	66	72	0
NMTAP	66	96	5
NMTAP	66	120	0
NMTAP	66	144	5
NMTAP	66	168	0
NMTAP	66	192	4
NMTAP	66	216	0
NMTAP	66	240	4
NMTAP	66	264	0
NMTAP	66	288	3
NMTAP	66	300	2
NMTAP	66	312	1
NMTAP	66	324	0
NMTAP	66	336	7
NMTAP	66	348	6
NMTAP	66	360	5
NMTAP	66	372	4
NMHLD	67	0	3	144
NMHLD	67	0	7	144
EXTAP	67	192	1
EXTAP	67	192	5
BXSTR	67	288	0
NMSSL	67	288	0	96	48	4
EXSTR	67	289	7
BRSSR	67	289	7	96	47	3
NMTTP	68	0	0	E	1	M1
EXTAP	68	192	0
EXSTR	68	192	7
NMSI_	68	192	7	96	24	3
BRSTR	68	288	1
BRSI_	68	288	1	96	24	4
BRTAP	68	288	7
BRSTR	68	360	5
NMSI_	68	360	5	96	24	0
BRSTR	69	48	2
BRSI_	69	48	2	96	24	7
BRTAP	69	120	6
BXTAP	69	192	0
BXSTR	69	288	3
NMSUR	69	288	3	96	96	0
EXSTR	69	289	4
BRSUL	69	289	4	96	95	7
NMTTP	70	0	4	E	1	M1
EXSTR	70	192	0
NMSI_	70	192	0	96	24	4
EXTAP	70	192	7
BRTAP	70	288	0
BRSTR	70	288	6
BRSI_	70	288	6	96	24	3
BRSTR	70	360	2
NMSI_	70	360	2	96	24	7
BRSTR	71	48	5
BRSI_	71	48	5	96	24	0
BRSTR	71	120	1
NMSI_	71	120	1	96	24	4
BXTAP	71	192	7
NMSTR	71	288	6
BRSCR	71	288	6	96	144	4
NMTAP	71	312	5
NMTAP	71	336	4
NMTTP	72	0	6	A	1	M1
NMSTR	72	192	7
NMSI_	72	192	7	96	24	3
BRSTR	72	288	0
BRSI_	72	288	0	96	24	5
BRTAP	72	288	7
BRSTR	72	360	2
NMSI_	72	360	2	96	24	7
BRSTR	73	48	4
BRSI_	73	48	4	96	24	1
BRSTR	73	120	6
NMSI_	73	120	6	96	24	3
BXSTR	73	192	0
BRSI_	73	192	0	96	24	4
NMTAP	73	264	5
NMTAP	73	336	7
NMHLD	74	0	6	48
BXHLD	74	0	7	48
EXHLD	74	72	4	48
BXHLD	74	72	5	48
EXHLD	74	144	2	48
BXHLD	74	144	3	48
EXHLD	74	216	0	48
BXHLD	74	216	1	48
NMSTR	74	288	7
NMSSR	74	288	7	96	288	3
NMTAP	74	300	6
NMTAP	74	312	5
NMTAP	74	324	4
BRTAP	75	0	7
NMSTR	75	288	4
BRSCR	75	288	4	96	192	3
NMTTP	76	0	0	C	1	M1
NMTAP	76	288	0
NMHLD	76	336	0	48
NMTTP	76	336	5	B	1	M1
NMTTP	77	24	2	E	1	M1
NMHLD	77	24	6	48
NMHLD	77	96	2	48
NMTTP	77	96	7	E	1	M1
NMTTP	77	168	3	E	1	M1
NMHLD	77	168	4	48
EXTAP	77	240	1
EXTAP	77	288	0
EXTAP	77	288	1
EXTAP	77	304	2
EXTAP	77	320	3
EXTAP	77	336	4
NMTTP	78	0	4	B	1	M1
NMTTP	78	0	4	E	0	M1
NMHLD	78	0	7	48
NMHLD	78	72	1	48
NMTTP	78	72	6	B	0	M1
NMTTP	78	72	6	E	1	M1
NMTTP	78	144	0	B	0	M1
NMTTP	78	144	0	E	1	M1
NMTAP	78	144	5
EXTAP	78	192	2
EXTAP	78	216	4
EXTAP	78	240	2
EXTAP	78	264	4
BRSTR	78	288	3
NMSI_	78	288	3	96	24	7
BRSTR	78	360	5
BRSI_	78	360	5	96	24	2
BRSTR	79	48	1
NMSI_	79	48	1	96	24	6
BRSTR	79	120	4
BRSI_	79	120	4	96	24	0
NMSTR	79	192	0
NMSF_	79	192	0	96	48	4
EXTAP	80	0	2
EXTAP	80	0	6
NMTAP	80	48	2
NMTAP	80	48	6
NMTAP	80	96	4
NMTAP	80	96	5
NMTAP	80	144	4
NMTAP	80	144	5
NMTAP	80	192	2
NMTAP	80	192	3
NMTAP	80	240	2
NMTAP	80	240	3
NMTAP	80	288	1
NMTAP	80	288	5
NMTAP	80	336	1
NMTAP	80	336	5
EXTAP	81	0	6
EXTAP	81	0	7
NMTAP	81	48	0
NMTAP	81	48	5
NMTAP	81	96	1
NMTAP	81	96	4
NMTAP	81	144	2
NMTAP	81	144	3
NMTAP	81	192	4
NMTAP	81	192	5
NMTAP	81	240	3
NMTAP	81	240	6
NMTAP	81	288	2
NMTAP	81	288	7
NMTAP	81	336	0
NMTAP	81	336	1
EXTAP	82	0	2
NMTAP	82	24	3
NMTAP	82	48	1
NMTAP	82	72	4
NMTAP	82	96	0
NMTAP	82	120	5
NMTAP	82	144	7
NMTAP	82	168	6
EXTAP	82	192	4
NMTAP	82	216	5
NMTAP	82	240	3
NMTAP	82	264	6
NMTAP	82	288	2
NMTAP	82	312	7
NMTAP	82	336	1
NMTAP	82	360	0
NMSTR	83	0	3
NMSCL	83	0	3	96	96	0
NMSTR	83	96	0
NMSCL	83	96	0	96	96	5
EXSTR	83	192	5
NMSCL	83	192	5	96	64	3
NMSTR	83	288	0
NMSF_	83	288	0	96	48	4
BRTAP	84	0	0
NMTTP	84	0	0	B	0	M1
NMTTP	84	0	0	C	1	M1
NMTTP	84	0	3	B	0	M1
NMTTP	84	0	4	B	0	M1
NMTTP	84	0	5	B	0	M1
NMTAP	86	0	0
NMHLD	86	0	7	144
NMTAP	86	144	2
NMTAP	86	168	1
NMTAP	86	192	0
NMTAP	86	216	7
NMTAP	86	240	6
NMTAP	86	264	5
NMTAP	86	288	4
NMTAP	86	312	3
NMTAP	86	336	2
NMTAP	86	360	1
NMSTR	87	0	0
BRSI_	87	0	0	96	48	3
NMSTR	87	0	7
BRSI_	87	0	7	96	48	4
NMTAP	87	96	0
NMTTP	87	96	0	C	1	M1
NMTTP	87	96	2	B	0	M1
NMTTP	87	96	2	E	0	M1
NMTTP	87	96	2	D	0	M1
NMTTP	87	96	5	B	0	M1
NMTTP	87	96	6	E	0	M1
NMTTP	87	96	6	D	0	M1
NMTAP	87	96	7
NMTAP	87	192	0
NMTAP	87	192	7
NMSTR	87	240	1
NMSI_	87	240	1	96	48	4
NMSTR	87	240	6
NMSI_	87	240	6	96	48	3
BRTAP	87	336	1
BRTAP	87	336	6
NMTAP	88	96	3
NMTAP	88	96	4
NMSTR	88	144	1
BRSI_	88	144	1	96	48	5
NMTAP	88	144	6
NMTAP	88	192	0
NMSTR	88	240	6
NMSI_	88	240	6	96	48	2
NMTAP	88	288	7
BRHLD	88	336	0	96
NMTAP	89	60	1
NMTAP	89	60	7
NMTAP	89	72	2
NMTAP	89	72	6
NMTAP	89	84	3
NMTAP	89	84	5
BRTAP	89	96	4
EXSTR	89	144	3
NMSCL	89	144	3	96	48	0
EXSTR	89	144	5
NMSCR	89	144	5	96	48	0
NMTAP	89	240	3
NMSTR	89	240	5
NMSI_	89	240	5	96	48	3
EXTAP	89	336	3
NMTAP	89	336	5
NMTAP	90	48	1
NMTAP	90	72	0
NMTAP	90	96	2
NMTAP	90	144	3
EXSTR	90	144	7
NMSCL	90	144	7	96	48	4
NMTAP	90	240	7
NMTAP	90	288	1
NMTAP	90	312	3
NMTAP	90	336	1
NMTAP	90	360	3
BRHLD	91	0	2	48
BRHLD	91	72	0	48
BRHLD	91	72	7	48
BRHLD	91	144	4	48
BRHLD	91	144	5	48
BRTAP	91	216	1
BRTAP	91	216	3
NMTAP	91	264	0
NMSTR	91	288	7
BRSCL	91	288	7	96	144	1
NMTAP	91	312	1
NMTAP	91	336	7
NMTAP	91	360	1
BRTAP	92	0	7
NMTAP	92	240	0
NMTAP	92	264	7
BRTAP	92	288	1
BRTAP	92	288	6
NMSTR	92	336	1
NMSCR	92	336	1	96	48	4
NMTAP	92	336	6
NMTAP	93	48	4
NMTAP	93	64	5
NMTAP	93	80	6
BRTAP	93	96	7
EXTAP	93	192	1
EXTAP	93	192	7
NMTAP	93	240	5
NMTAP	93	264	4
NMTAP	93	312	1
NMTAP	93	336	3
NMTAP	94	0	0
NMTAP	94	0	4
NMTAP	94	48	1
NMTAP	94	72	5
NMTAP	94	96	2
NMTAP	94	120	6
NMTAP	94	144	3
NMTAP	94	168	7
NMSTR	94	192	4
NMSI_	94	192	4	96	48	0
NMTAP	94	216	6
NMTAP	94	264	3
NMTAP	94	288	3
NMTAP	94	288	4
NMTAP	94	336	2
NMTAP	95	0	1
NMHLD	95	24	1	48
NMTAP	95	72	0
NMTAP	95	96	1
NMTAP	95	120	7
NMTAP	95	144	2
NMTAP	95	168	6
NMTAP	95	192	3
NMTAP	95	216	5
NMTAP	95	240	4
NMTAP	95	264	5
NMTAP	95	288	3
NMTAP	95	312	4
NMTAP	95	336	2
NMTAP	95	360	3
BRTAP	96	0	2
NMTAP	96	48	0
NMTAP	96	72	7
NMSTR	96	96	1
NMSI_	96	96	1	96	48	4
NMTAP	96	120	6
NMTAP	96	144	2
NMTAP	96	168	5
NMSTR	96	192	1
NMSI_	96	192	1	96	48	7
NMTAP	96	240	7
NMTAP	96	288	1
NMTAP	96	336	5
NMTAP	97	0	6
NMTAP	97	24	0
NMTAP	97	48	6
NMTAP	97	72	0
NMSTR	97	96	5
NMSI_	97	96	5	96	48	1
NMTAP	97	144	2
NMTAP	97	192	5
NMTAP	97	240	0
NMTAP	97	288	7
NMTAP	97	336	2
NMTAP	97	336	6
NMTAP	98	0	4
NMHLD	98	0	5	96
NMTAP	98	24	3
NMTAP	98	48	2
NMTAP	98	72	1
NMTAP	98	96	0
NMHLD	98	144	0	96
NMTAP	98	144	7
NMTAP	98	168	6
NMTAP	98	192	5
NMTAP	98	216	4
NMTAP	98	240	3
NMHLD	98	288	2	96
NMTAP	98	288	3
NMTAP	98	312	4
NMTAP	98	336	5
NMTAP	98	360	6
NMSTR	99	0	7
NMSI_	99	0	7	96	48	3
NMSTR	99	96	2
NMSCL	99	96	2	96	48	7
NMSTR	99	96	7
NMSCL	99	96	7	96	48	4
NMTAP	99	192	2
NMSTR	99	192	7
BRSF_	99	192	7	96	48	3
EXTAP	99	288	7
BRTAP	100	0	0
BRTAP	100	0	6
NMTAP	100	48	2
NMTAP	100	72	3
NMTAP	100	96	2
EXSTR	100	144	1
NMSI_	100	144	1	96	48	5
NMTAP	100	144	4
NMTAP	100	192	5
NMTAP	100	240	1
EXSTR	100	240	6
NMSCL	100	240	6	96	48	3
NMTAP	100	288	7
EXTAP	100	336	0
NMTAP	100	336	6
NMTAP	101	48	1
NMTAP	101	48	2
NMTAP	101	96	3
NMTAP	101	96	4
NMTAP	101	144	5
NMTAP	101	144	6
NMTAP	101	192	7
NMTAP	101	216	6
NMTAP	101	240	5
NMTAP	101	264	4
NMTAP	101	288	1
NMTAP	101	312	3
NMTAP	101	336	2
NMTAP	101	360	3
BRTAP	102	0	0
NMTAP	102	48	5
NMTAP	102	72	4
NMTAP	102	96	5
NMTAP	102	144	3
EXSTR	102	144	6
NMSI_	102	144	6	96	48	2
NMTAP	102	192	2
EXSTR	102	240	1
NMSCR	102	240	1	96	48	4
NMTAP	102	240	6
NMTAP	102	288	0
NMTAP	102	336	1
EXTAP	102	336	7
NMTAP	103	48	5
NMTAP	103	48	6
NMTAP	103	96	3
NMTAP	103	96	4
NMTAP	103	144	1
NMTAP	103	144	2
NMTAP	103	192	0
NMTAP	103	216	1
NMTAP	103	240	2
NMTAP	103	264	3
NMTAP	103	288	6
NMTAP	103	312	4
NMTAP	103	336	5
NMTAP	103	360	4
BRTAP	104	0	7
NMTAP	104	48	1
NMTAP	104	72	3
NMTAP	104	96	2
NMTAP	104	120	6
NMTAP	104	144	4
NMTAP	104	168	5
NMTAP	104	192	3
NMTAP	104	216	4
NMTAP	104	240	2
NMTAP	104	264	3
NMTAP	104	288	1
NMTAP	104	312	4
NMTAP	104	336	0
NMTAP	104	360	5
EXTAP	105	0	7
NMTAP	105	24	0
NMTAP	105	48	1
NMTAP	105	72	2
NMTAP	105	96	3
NMTAP	105	96	4
NMTAP	105	120	5
NMTAP	105	144	6
NMTAP	105	168	7
NMTAP	105	192	0
NMTAP	105	192	1
NMTAP	105	216	2
NMTAP	105	240	3
NMTAP	105	264	4
NMTAP	105	288	7
NMTAP	105	312	6
NMTAP	105	336	5
NMTAP	105	360	4
BRTAP	106	0	2
NMTAP	106	24	3
NMTAP	106	48	1
BRTAP	106	72	5
NMTAP	106	96	4
NMTAP	106	120	6
BRTAP	106	144	1
NMTAP	106	168	0
NMTAP	106	192	1
BRTAP	106	216	6
NMTAP	106	240	7
NMTAP	106	264	6
BRTAP	106	288	1
NMTAP	106	312	5
BRTAP	106	336	1
NMTAP	106	360	5
BXTAP	107	0	1
NMTAP	107	16	2
NMTAP	107	32	3
NMTAP	107	48	4
BXTAP	107	64	0
NMTAP	107	80	7
NMTAP	107	96	6
NMTAP	107	112	5
NMTAP	107	128	4
EXTAP	107	144	1
EXTAP	107	144	3
BXTAP	107	192	2
BXTAP	107	192	6
NMTAP	107	208	5
NMTAP	107	224	4
NMTAP	107	240	3
BXTAP	107	256	7
NMTAP	107	272	0
NMTAP	107	288	1
NMTAP	107	304	2
NMTAP	107	320	3
EXTAP	107	336	4
EXTAP	107	336	6
BXSTR	108	0	5
BRSXR	108	0	5	96	1248	2
BXSTR	108	1	1
NMSXR	108	1	1	96	1247	6
NMTHO	112	0	0	1536	C	0	M1
NMHLD	112	0	7	1536
NMTTP	113	0	0	B	0	M1
NMTTP	114	0	2	B	0	M1
NMTTP	114	0	3	B	0	M1
NMTTP	115	0	4	B	0	M1
NMTTP	115	0	5	B	0	M1
NMTTP	115	0	5	E	0	M1
NMTTP	116	0	0	E	0	M1
NMTTP	116	0	6	B	0	M1
NMTTP	116	0	7	B	0	M1
NMTTP	116	0	7	E	0	M1

T_REC_TAP	578
T_REC_BRK	37
T_REC_XTP	67
T_REC_BXX	7
T_REC_HLD	58
T_REC_XHO	4
T_REC_BHO	7
T_REC_BXH	4
T_REC_STR	50
T_REC_BST	16
T_REC_XST	17
T_REC_XBS	5
T_REC_TTP	56
T_REC_THO	3
T_REC_SLD	67
T_REC_BSL	23
T_REC_ALL	999
T_NUM_TAP	768
T_NUM_BRK	99
T_NUM_HLD	65
T_NUM_SLD	67
T_NUM_ALL	999
T_JUDGE_TAP	833
T_JUDGE_HLD	249
T_JUDGE_SLD	90
T_JUDGE_ALL	1172
TTM_EACHPAIRS	153
TTM_SCR_TAP	384000
TTM_SCR_BRK	257400
TTM_SCR_HLD	65000
TTM_SCR_SLD	100500
TTM_SCR_ALL	806900
TTM_SCR_S	773100
TTM_SCR_SS	797000
TTM_RAT_ACV	10124

