VERSION	0.00.00	1.04.00
FES_MODE	0
BPM_DEF	199.000	199.000	199.000	199.000
MET_DEF	4	4
RESOLUTION	384
CLK_DEF	384
COMPATIBLE_CODE	MA2

BPM	0	0	199.000
MET	0	0	4	4

BRSTR	4	0	0
NMSCR	4	0	0	96	480	3
NMSTR	6	0	4
NMSCR	6	0	4	96	480	7
NMHLD	8	0	1	384
NMHLD	9	0	3	384
NMHLD	10	0	4	384
NMHLD	11	0	6	384
NMTAP	12	0	0
NMTAP	12	96	1
NMHLD	12	144	1	96
NMTAP	12	240	2
NMHLD	12	288	2	96
NMTAP	13	0	3
NMHLD	13	48	3	96
NMTAP	13	144	4
NMTAP	13	192	4
NMTAP	13	288	3
NMTAP	13	288	5
NMTAP	14	0	4
NMTAP	14	0	5
NMTAP	14	96	6
NMHLD	14	144	6	96
NMTAP	14	240	5
NMHLD	14	288	5	96
NMTAP	15	0	4
NMTAP	15	96	4
NMTAP	15	96	5
NMTAP	15	192	3
NMTAP	15	192	4
NMTAP	15	288	2
NMTAP	15	288	3
NMTAP	16	0	1
NMTAP	16	48	1
NMTAP	16	96	3
NMTAP	16	144	3
NMTAP	16	192	2
NMTAP	16	240	2
NMTAP	16	288	6
NMTAP	16	336	6
NMTAP	17	0	4
NMTAP	17	48	4
NMTAP	17	96	5
NMTAP	17	144	5
NMTAP	17	192	1
NMTAP	17	240	1
NMTAP	17	288	6
NMTAP	17	336	6
EXTAP	18	0	0
NMTAP	18	24	7
NMTAP	18	48	0
NMTAP	18	72	7
NMTAP	18	96	0
NMTAP	18	120	7
NMTAP	18	144	0
NMTAP	18	168	7
NMTAP	18	192	1
NMTAP	18	216	6
NMTAP	18	240	1
NMTAP	18	264	6
NMTAP	18	288	1
NMTAP	18	312	6
NMTAP	18	336	1
NMTAP	18	360	6
NMSTR	19	0	0
BRSI_	19	0	0	96	192	4
BRSSL	19	0	0	96	192	4
BRTAP	20	0	2
BRTAP	20	0	5
NMTAP	20	96	0
NMTAP	20	144	1
NMTAP	20	144	3
NMTAP	20	240	7
NMTAP	20	288	4
NMTAP	20	288	6
NMTAP	21	0	1
NMTAP	21	48	2
NMTAP	21	48	4
NMTAP	21	144	6
NMTAP	21	192	3
NMTAP	21	192	5
NMHLD	21	240	3	96
NMHLD	21	240	5	96
NMTAP	22	0	4
NMTAP	22	0	5
NMTAP	22	96	7
NMTAP	22	144	4
NMTAP	22	144	6
NMTAP	22	240	0
NMTAP	22	288	1
NMTAP	22	288	3
NMTAP	23	0	6
NMTAP	23	48	3
NMTAP	23	48	5
NMTAP	23	96	3
NMTAP	23	96	5
NMTAP	23	192	4
NMTAP	23	192	5
NMTAP	23	264	3
NMTAP	23	264	4
NMHLD	23	336	2	96
NMHLD	23	336	3	96
BRTAP	24	96	1
BRTAP	24	96	4
BRTAP	24	144	1
BRTAP	24	144	4
NMTAP	24	240	0
NMTAP	24	288	1
NMTAP	24	288	3
NMTAP	25	0	4
NMTAP	25	48	4
NMTAP	25	96	2
NMTAP	25	144	2
NMTAP	25	192	5
NMTAP	25	240	5
NMTAP	25	288	3
NMTAP	25	336	3
NMTAP	26	0	6
NMTAP	26	48	5
NMTAP	26	96	4
NMTAP	26	144	3
NMTAP	26	192	2
NMTAP	26	240	1
NMSTR	26	288	0
NMSI_	26	288	0	96	48	4
NMSTR	27	0	7
NMSI_	27	0	7	96	48	5
NMSTR	27	96	1
NMSI_	27	96	1	96	48	3
NMTAP	27	192	4
BRTAP	27	288	2
BRTAP	27	288	5
NMTAP	28	0	3
NMTAP	28	0	4
NMTAP	28	96	1
NMTAP	28	144	1
NMTAP	28	192	1
NMTAP	28	192	3
NMTAP	28	240	1
NMTAP	28	288	1
NMTAP	28	288	3
NMTAP	28	336	1
NMTAP	29	0	0
NMTAP	29	0	1
NMTAP	29	48	1
NMTAP	29	96	0
NMTAP	29	96	1
NMTAP	29	144	1
NMTAP	29	192	1
NMTAP	29	192	3
NMTAP	29	264	2
NMTAP	29	264	4
NMTAP	29	336	3
NMTAP	29	336	5
NMTAP	30	0	3
NMTAP	30	0	5
NMTAP	30	96	6
NMTAP	30	144	6
NMTAP	30	192	4
NMTAP	30	192	6
NMTAP	30	240	6
NMTAP	30	288	4
NMTAP	30	288	6
NMTAP	30	336	6
NMTAP	31	0	6
NMTAP	31	0	7
NMTAP	31	48	6
NMTAP	31	96	6
NMTAP	31	96	7
NMTAP	31	144	6
NMTAP	31	192	4
NMTAP	31	192	6
NMTAP	31	264	3
NMTAP	31	264	5
NMHLD	31	336	2	96
NMHLD	31	336	4	96
NMTAP	32	96	2
NMTAP	32	96	3
NMTAP	32	144	2
NMTAP	32	144	3
NMTAP	32	240	0
NMTAP	32	240	1
NMTAP	32	336	6
NMTAP	32	336	7
NMTAP	33	48	5
NMTAP	33	72	4
NMTAP	33	96	5
NMTAP	33	144	3
NMTAP	33	144	6
NMTAP	33	240	1
NMTAP	33	240	4
NMTAP	33	336	1
NMTAP	33	336	4
NMTAP	34	48	2
NMTAP	34	72	3
NMTAP	34	96	2
NMTAP	34	144	1
NMTAP	34	144	4
NMTAP	34	240	3
NMTAP	34	240	6
NMTAP	34	336	7
EXHLD	35	0	7	72
EXHLD	35	72	6	72
EXHLD	35	144	5	72
EXTAP	35	216	4
BXSTR	35	288	3
NMSUR	35	288	3	96	168	0
BXSTR	35	288	4
NMSUL	35	288	4	96	168	7
CNSI_	36	168	0	0	120	2
CNSI_	36	168	7	0	120	5
NMTAP	37	0	1
NMTAP	37	48	1
NMTAP	37	96	1
NMTAP	37	96	3
NMTAP	37	144	1
EXTAP	37	192	1
EXTAP	37	192	3
EXTAP	37	264	0
EXTAP	37	264	1
EXTAP	37	336	0
EXTAP	37	336	7
EXHLD	38	0	6	96
EXHLD	38	0	7	96
NMHLD	38	144	4	96
NMHLD	38	144	5	96
NMTAP	38	288	2
NMTAP	38	288	3
NMTAP	39	0	3
NMTAP	39	48	4
NMTAP	39	96	5
NMTAP	39	144	6
NMTAP	39	192	7
NMTAP	39	240	0
NMTAP	39	288	1
NMTAP	39	336	2
NMTAP	40	0	3
NMTAP	40	96	5
NMTAP	40	144	5
NMTAP	40	192	7
NMTAP	40	240	7
NMTAP	40	288	6
NMTAP	40	336	6
NMTAP	41	0	2
NMTAP	41	48	2
NMTAP	41	96	0
NMTAP	41	144	0
NMTAP	41	192	1
NMTAP	41	240	1
NMTAP	41	288	3
NMTAP	42	0	5
NMTAP	42	24	4
NMTAP	42	48	5
NMTAP	42	72	4
NMTAP	42	96	5
NMTAP	42	144	2
NMTAP	42	168	3
NMTAP	42	192	2
NMTAP	42	216	3
NMTAP	42	240	2
NMTAP	42	288	7
NMTAP	42	312	0
NMTAP	42	336	7
NMTAP	42	360	0
NMSTR	43	0	7
NMSI_	43	0	7	96	48	3
NMSTR	43	96	1
NMSI_	43	96	1	96	48	6
NMSTR	43	192	5
NMSI_	43	192	5	96	48	2
NMSTR	43	288	0
NMSI_	43	288	0	96	48	3
BRTAP	44	0	7
EXTAP	44	96	4
EXTAP	44	96	5
EXSTR	44	144	4
BRSI_	44	144	4	96	48	0
EXTAP	44	144	5
NMTAP	44	336	1
NMTAP	44	336	7
NMTAP	45	48	4
NMTAP	45	48	6
NMTAP	45	96	4
NMTAP	45	96	6
NMTAP	45	144	3
NMTAP	45	192	2
NMTAP	45	240	0
NMTAP	45	240	1
NMTAP	45	288	0
NMTAP	45	288	1
BRTAP	46	0	1
BRTAP	46	0	4
NMTAP	46	96	2
NMTAP	46	96	3
NMTAP	46	144	2
NMSTR	46	144	3
BRSI_	46	144	3	96	48	7
NMTAP	46	336	0
NMTAP	46	336	6
NMTAP	47	48	1
NMTAP	47	48	3
NMTAP	47	96	1
NMTAP	47	96	3
NMTAP	47	144	4
NMTAP	47	192	5
NMTAP	47	240	6
NMTAP	47	240	7
NMTAP	47	288	6
NMTAP	47	288	7
NMTAP	48	0	0
NMTAP	48	0	7
NMTAP	48	48	0
NMTAP	48	48	7
NMTAP	48	96	6
NMTAP	48	144	5
NMTAP	48	192	3
NMTAP	48	192	4
NMTAP	48	240	3
NMTAP	48	240	4
NMTAP	48	288	2
NMTAP	48	336	1
NMTAP	49	0	0
NMTAP	49	0	7
NMTAP	49	48	0
NMTAP	49	48	7
NMTAP	49	96	1
NMTAP	49	144	2
NMTAP	49	192	3
NMTAP	49	192	4
NMTAP	49	240	3
NMTAP	49	240	4
NMTAP	49	288	5
NMTAP	49	336	6
EXTAP	50	0	0
BXTAP	50	0	7
BXTAP	50	72	5
EXTAP	50	72	6
BXTAP	50	144	3
EXTAP	50	144	4
BXTAP	50	216	1
EXTAP	50	216	2
NMTAP	50	288	0
NMTAP	50	336	0
NMHLD	51	0	1	72
NMHLD	51	72	2	72
NMTAP	51	144	3
NMHLD	51	192	4	72
NMHLD	51	264	5	72
NMTAP	51	336	6
BRSTR	52	0	7
NMSCL	52	0	7	96	480	4
NMTTP	53	0	0	E	0	M1
NMSTR	54	0	3
NMSCL	54	0	3	96	480	0
NMTTP	55	0	4	E	0	M1
NMHLD	56	0	1	384
NMTAP	56	288	3
NMHLD	57	0	3	384
NMTAP	57	288	4
NMHLD	58	0	4	384
NMTAP	58	288	6
NMHLD	59	0	6	288
NMTAP	59	288	0
NMTAP	60	0	2
NMTAP	60	0	4
NMTAP	60	96	5
NMHLD	60	144	5	96
NMTAP	60	240	6
NMHLD	60	288	6	96
NMTAP	61	0	7
NMHLD	61	48	7	96
NMTAP	61	144	0
NMTAP	61	192	0
NMTAP	61	288	0
NMTAP	61	288	7
NMTAP	62	0	3
NMTAP	62	0	5
NMTAP	62	96	2
NMHLD	62	144	2	96
NMTAP	62	240	1
NMHLD	62	288	1	96
NMTAP	63	0	0
NMTAP	63	96	4
NMTAP	63	96	5
NMTAP	63	192	6
NMTAP	63	192	7
NMTAP	63	288	2
NMTAP	63	288	3
NMTAP	64	0	0
NMTAP	64	48	0
NMTAP	64	96	3
NMTAP	64	144	3
NMTAP	64	192	2
NMTAP	64	240	2
NMTAP	64	288	5
NMTAP	64	336	5
NMTAP	65	0	4
NMTAP	65	48	4
NMTAP	65	96	7
NMTAP	65	144	7
NMTAP	65	192	1
NMTAP	65	240	1
NMTAP	65	288	6
NMTAP	65	336	6
NMTAP	66	0	0
NMTAP	66	24	7
NMTAP	66	48	0
NMTAP	66	72	7
NMTAP	66	96	0
NMTAP	66	120	7
NMTAP	66	144	0
NMTAP	66	168	7
NMTAP	66	192	1
NMTAP	66	216	6
NMTAP	66	240	1
NMTAP	66	264	6
NMTAP	66	288	1
NMTAP	66	312	6
NMTAP	66	336	1
NMTAP	66	360	6
NMSTR	67	0	0
BRSCR	67	0	0	96	72	1
BRSLR	67	0	0	96	144	5
CNSI_	67	168	1	0	72	6
BXHLD	68	0	4	144
BXHLD	68	0	7	144
BRTAP	68	192	5
BRTAP	68	192	6
BRHLD	68	288	4	48
BRHLD	68	288	5	48
BRHLD	68	360	3	48
BRHLD	68	360	6	48
BRHLD	69	48	2	48
BRHLD	69	48	7	48
BRSTR	69	120	0
BRSI_	69	120	0	96	48	4
BRSTR	69	120	1
BRSI_	69	120	1	96	48	5
BRTAP	70	0	4
BRHLD	70	0	6	96
NMTTP	70	96	5	E	0	M1
NMTTP	70	120	4	E	0	M1
NMTTP	70	144	3	E	0	M1
NMTTP	70	168	2	E	0	M1
NMTTP	70	192	1	E	0	M1
BRHLD	70	288	2	48
BRHLD	70	288	3	48
BRHLD	70	360	1	48
BRHLD	70	360	4	48
BRHLD	71	48	0	48
BRHLD	71	48	5	48
BRTAP	71	120	6
BRTAP	71	120	7
BXSTR	71	192	6
BRSI_	71	192	6	96	96	3
BXSTR	71	192	7
BRSI_	71	192	7	96	96	2
CNSCL	72	0	2	0	96	0
CNSCR	72	0	3	0	96	5
BXTAP	72	192	6
BXTAP	72	192	7
BRHLD	72	288	6	48
BRHLD	72	288	7	48
BRHLD	72	360	0	48
BRHLD	72	360	5	48
BRHLD	73	48	1	48
BRHLD	73	48	4	48
BRHLD	73	120	2	48
BRHLD	73	120	3	48
BRHLD	73	192	1	48
BRHLD	73	192	4	48
BRTAP	73	264	0
BRTAP	73	264	5
BRHLD	74	0	0	48
BRHLD	74	0	1	48
BRHLD	74	72	2	48
BRHLD	74	72	7	48
BRHLD	74	144	3	48
BRHLD	74	144	6	48
BRHLD	74	216	4	48
BRHLD	74	216	5	48
BRTAP	74	288	3
BRTAP	74	288	6
BXSTR	74	336	3
BRSUL	74	336	3	96	240	0
BXSTR	74	336	6
BRSUR	74	336	6	96	240	0
BRHLD	76	0	0	96
BRTAP	76	0	6
NMTTP	76	96	0	E	0	M1
NMTTP	76	120	1	E	0	M1
NMTTP	76	144	2	E	0	M1
NMTTP	76	168	3	E	0	M1
NMTTP	76	192	4	E	0	M1
BXTAP	76	288	0
BXTAP	76	288	2
BXHLD	76	336	0	48
BXHLD	76	336	2	48
BRHLD	77	24	1	48
BRHLD	77	24	3	48
BRHLD	77	96	2	48
BRHLD	77	96	4	48
BRHLD	77	168	1	48
BRHLD	77	168	3	48
BRTAP	77	240	1
BRTAP	77	240	3
BRHLD	78	0	0	48
BRHLD	78	0	1	48
BRHLD	78	72	0	48
BRHLD	78	72	7	48
BRTAP	78	144	6
BRTAP	78	144	7
BXTAP	78	240	5
BXTAP	78	240	7
BXHLD	78	288	5	48
BXHLD	78	288	7	48
BRHLD	78	360	4	48
BRHLD	78	360	6	48
BRHLD	79	48	3	48
BRHLD	79	48	5	48
BRHLD	79	120	4	48
BRHLD	79	120	6	48
BRSTR	79	192	4
NMSUL	79	192	4	96	96	0
BRTAP	79	192	6
NMTAP	80	0	6
NMHLD	80	48	6	48
NMTAP	80	96	0
NMHLD	80	144	0	48
NMTAP	80	192	2
NMHLD	80	240	2	48
NMTAP	80	288	4
NMHLD	80	336	4	48
NMTAP	81	0	6
NMHLD	81	48	6	48
NMTAP	81	96	0
NMHLD	81	144	0	48
NMTAP	81	192	2
NMHLD	81	240	2	48
NMTAP	81	288	4
NMTAP	81	336	4
NMTAP	82	0	3
NMTAP	82	48	2
NMTAP	82	96	1
NMTAP	82	144	0
NMTAP	82	192	7
NMTAP	82	240	6
NMTAP	82	288	5
NMTAP	82	336	4
NMSTR	83	0	3
NMSI_	83	0	3	96	96	6
CNSI_	83	192	6	0	96	2
CNSI_	83	288	2	0	96	7
NMTHO	84	0	0	768	C	0	M1
NMTTP	84	0	3	B	0	M1
NMTTP	84	0	4	B	0	M1
NMTTP	84	0	4	E	1	M1
NMTAP	87	96	1
NMTAP	87	96	6
EXTAP	87	192	3
EXTAP	87	192	4
EXSTR	87	240	0
BRSI_	87	240	0	96	48	4
EXSTR	87	240	7
BRSI_	87	240	7	96	48	3
NMTAP	88	96	2
NMTAP	88	96	5
NMTAP	88	144	2
NMTAP	88	144	5
NMTAP	88	240	4
NMTAP	88	240	6
NMTAP	88	336	1
NMTAP	88	336	3
NMHLD	89	0	1	96
NMHLD	89	0	3	96
NMTAP	89	144	0
NMTAP	89	144	1
NMTAP	89	192	0
NMSTR	89	192	1
NMSI_	89	192	1	96	48	5
NMHLD	90	0	4	48
NMHLD	90	0	6	48
NMHLD	90	72	0	48
NMHLD	90	72	7	48
NMHLD	90	144	1	48
NMHLD	90	144	3	48
NMHLD	90	216	0	48
NMHLD	90	216	7	48
NMTAP	90	288	0
NMTAP	90	288	7
NMHLD	91	0	0	48
NMHLD	91	0	2	48
NMHLD	91	72	3	48
NMHLD	91	72	4	48
NMHLD	91	144	5	48
NMHLD	91	144	7	48
NMHLD	91	216	3	48
NMHLD	91	216	4	48
NMTAP	91	288	3
EXSTR	91	288	4
NMSI_	91	288	4	96	48	0
NMSI_	91	288	4	96	96	0
CNSCL	92	48	0	0	96	6
CNSCR	92	96	0	0	48	2
BRTAP	92	240	2
BRTAP	92	240	6
BRTAP	92	288	2
BRTAP	92	288	6
NMHLD	93	0	7	72
NMHLD	93	72	5	72
NMTAP	93	144	3
NMTAP	93	240	2
NMTAP	93	240	4
NMTAP	93	288	2
NMTAP	93	288	4
NMSTR	94	0	0
NMSI_	94	0	0	96	48	4
NMTAP	94	48	0
NMSTR	94	96	6
NMSI_	94	96	6	96	48	2
NMTAP	94	144	6
NMSTR	94	192	1
NMSI_	94	192	1	96	48	5
NMTAP	94	240	1
NMTAP	94	288	7
NMTAP	94	336	7
NMTAP	95	0	3
NMTAP	95	0	6
NMTAP	95	72	2
NMTAP	95	72	5
NMTAP	95	144	1
NMTAP	95	144	4
NMSTR	95	192	1
NMSI_	95	192	1	96	48	4
NMTAP	95	192	4
NMTAP	95	288	5
NMTAP	96	0	6
NMTAP	96	48	6
NMTAP	96	96	4
NMTAP	96	144	4
NMTTP	96	192	0	E	0	M1
NMTTP	96	216	1	E	0	M1
NMTTP	96	240	2	E	0	M1
NMTTP	96	264	3	E	0	M1
NMTTP	96	288	4	E	0	M1
NMTAP	97	0	1
NMTAP	97	48	1
NMTAP	97	96	3
NMTAP	97	144	3
NMTTP	97	192	0	E	0	M1
NMTTP	97	216	7	E	0	M1
NMTTP	97	240	6	E	0	M1
NMTTP	97	264	5	E	0	M1
NMTTP	97	288	4	E	0	M1
NMTAP	98	0	6
NMTAP	98	24	4
NMTAP	98	48	6
NMTAP	98	72	4
NMTAP	98	96	6
NMTAP	98	144	1
NMTAP	98	168	3
NMTAP	98	192	1
NMTAP	98	216	3
NMTAP	98	240	1
NMTAP	98	288	0
NMTAP	98	312	7
NMTAP	98	336	0
NMTAP	98	360	7
NMSTR	99	0	0
NMSI_	99	0	0	96	48	4
NMSTR	99	96	6
NMSI_	99	96	6	96	48	2
NMSTR	99	192	0
NMSF_	99	192	0	96	48	4
BRTAP	100	0	2
BRTAP	100	0	6
NMTAP	100	96	3
NMTAP	100	96	5
NMTAP	100	144	3
NMTAP	100	144	5
NMTAP	100	240	1
NMTAP	100	240	7
NMTAP	100	288	2
NMTAP	100	288	6
BRHLD	100	336	3	432
BRTAP	100	336	5
NMTAP	101	48	4
NMTAP	101	96	2
NMTAP	101	144	1
NMTAP	101	192	0
NMTAP	101	240	7
NMTAP	101	288	6
NMTAP	101	336	5
BRTAP	102	0	4
NMTAP	102	96	2
NMTAP	102	96	4
NMTAP	102	144	2
NMTAP	102	144	4
NMTAP	102	240	0
NMTAP	102	240	6
NMTAP	102	288	1
NMTAP	102	288	5
BRTAP	102	336	2
BRHLD	102	336	4	240
NMTAP	103	48	3
NMTAP	103	96	5
NMTAP	103	144	6
NMTAP	103	192	7
NMTAP	103	240	0
NMTAP	103	288	1
NMTAP	103	288	3
NMSTR	104	0	0
NMSI_	104	0	0	96	48	4
NMTAP	104	48	0
NMSTR	104	96	7
NMSI_	104	96	7	96	48	3
NMTAP	104	144	7
NMSTR	104	192	1
NMSI_	104	192	1	96	48	5
NMTAP	104	240	1
NMSTR	104	288	6
NMSI_	104	288	6	96	48	2
NMTAP	104	336	6
NMSTR	105	0	0
NMSCR	105	0	0	96	48	3
NMTAP	105	48	0
NMSTR	105	96	7
NMSCL	105	96	7	96	48	4
NMTAP	105	144	7
NMSTR	105	192	0
NMSI_	105	192	0	96	48	4
NMTAP	105	240	0
NMTAP	106	0	3
BRTAP	106	0	5
BRTAP	106	72	2
NMTAP	106	72	4
NMTAP	106	144	4
BRTAP	106	144	6
BRTAP	106	216	1
NMTAP	106	216	3
NMTAP	106	288	0
NMTAP	106	336	0
BRTAP	107	0	0
BRTAP	107	0	7
BRTAP	107	72	4
BRTAP	107	72	6
BRTAP	107	144	1
BRTAP	107	144	3
BRTAP	107	192	0
BRTAP	107	192	7
BRTAP	107	264	1
BRTAP	107	264	3
BRTAP	107	336	4
BRTAP	107	336	6
BRSTR	108	0	0
NMSCR	108	0	0	96	1248	7
BRTAP	108	0	7
NMTHO	112	0	0	1536	C	0	M1
NMTTP	113	0	0	E	0	M1
NMTTP	114	0	1	B	0	M1
NMTTP	114	0	6	B	0	M1
NMTTP	115	0	2	B	0	M1
NMTTP	115	0	5	B	0	M1
NMTTP	116	0	3	B	0	M1
NMTTP	116	0	3	A	0	M1
NMTTP	116	0	4	B	0	M1
NMTTP	116	0	4	E	0	M1
NMTTP	116	0	4	A	0	M1

T_REC_TAP	434
T_REC_BRK	52
T_REC_XTP	17
T_REC_BXX	10
T_REC_HLD	57
T_REC_XHO	5
T_REC_BHO	50
T_REC_BXH	6
T_REC_STR	28
T_REC_BST	6
T_REC_XST	4
T_REC_XBS	6
T_REC_TTP	35
T_REC_THO	2
T_REC_SLD	33
T_REC_BSL	14
T_REC_ALL	759
T_NUM_TAP	518
T_NUM_BRK	144
T_NUM_HLD	64
T_NUM_SLD	33
T_NUM_ALL	759
T_JUDGE_TAP	592
T_JUDGE_HLD	269
T_JUDGE_SLD	47
T_JUDGE_ALL	908
TTM_EACHPAIRS	181
TTM_SCR_TAP	259000
TTM_SCR_BRK	374400
TTM_SCR_HLD	64000
TTM_SCR_SLD	49500
TTM_SCR_ALL	746900
TTM_SCR_S	710550
TTM_SCR_SS	732500
TTM_RAT_ACV	10196

