VERSION	0.00.00	1.04.00
FES_MODE	0
BPM_DEF	150.000	150.000	150.000	150.000
MET_DEF	4	4
RESOLUTION	384
CLK_DEF	384
COMPATIBLE_CODE	MA2

BPM	0	0	150.000
MET	0	0	4	4

NMTAP	1	288	3
NMTAP	1	312	4
NMTAP	1	336	3
NMTAP	1	360	4
BXTAP	2	0	2
BXTAP	2	0	5
NMTAP	3	0	1
NMTAP	3	0	4
NMTAP	3	48	2
NMTAP	3	72	3
NMTAP	3	120	5
NMTAP	3	144	4
NMTAP	3	192	3
NMTAP	3	216	4
NMTAP	3	240	3
NMTAP	3	288	0
NMTAP	3	288	7
BRTAP	4	0	2
BRTAP	4	0	5
NMTAP	4	144	2
NMTAP	4	144	3
NMHLD	4	192	1	96
NMHLD	4	192	4	96
EXTAP	5	0	0
EXTAP	5	0	6
NMTAP	5	144	4
NMTAP	5	144	5
NMHLD	5	192	3	96
NMHLD	5	192	6	96
EXTAP	6	0	1
EXTAP	6	0	7
NMTAP	6	144	2
NMTAP	6	144	3
EXHLD	6	192	1	48
EXHLD	6	192	4	48
EXHLD	6	288	0	48
EXHLD	6	288	5	48
NMTAP	7	0	6
NMTAP	7	0	7
NMTAP	7	48	0
NMTAP	7	48	7
NMTAP	7	96	0
NMTAP	7	96	1
NMTAP	7	192	4
NMTAP	7	192	5
NMTAP	7	288	2
NMTAP	7	288	6
EXTAP	8	0	3
EXTAP	8	0	4
NMTAP	8	144	0
NMTAP	8	144	1
NMHLD	8	192	2	96
NMHLD	8	192	7	96
EXTAP	9	0	3
EXTAP	9	0	5
NMTAP	9	144	6
NMTAP	9	144	7
NMHLD	9	192	0	96
NMHLD	9	192	5	96
EXTAP	10	0	2
EXTAP	10	0	4
NMTAP	10	144	0
NMTAP	10	144	1
EXHLD	10	192	2	48
EXHLD	10	192	7	48
EXHLD	10	288	3	48
EXHLD	10	288	6	48
NMTAP	11	0	4
NMTAP	11	0	5
NMTAP	11	48	3
NMTAP	11	48	4
NMTAP	11	96	2
NMTAP	11	96	3
NMTAP	11	192	6
NMTAP	11	192	7
BRTAP	11	288	3
BRTAP	11	288	5
BRTAP	12	0	0
NMSTR	12	0	7
NMSCL	12	0	7	96	480	1
NMTAP	12	96	0
NMTAP	12	192	0
NMTAP	12	288	0
NMTAP	13	0	0
NMTAP	13	96	0
NMTAP	13	192	0
NMTAP	13	288	0
NMSTR	13	288	7
NMSCL	13	288	7	96	480	1
NMTAP	14	0	0
NMTAP	14	96	0
NMTAP	14	192	0
NMTAP	14	288	0
NMTAP	15	0	0
NMTAP	15	96	0
NMTAP	15	192	0
BRTAP	15	288	1
BRTAP	15	288	7
NMHLD	16	0	2	72
NMTAP	16	72	3
NMTAP	16	144	1
NMTAP	16	144	4
NMHLD	16	192	5	72
NMTAP	16	264	4
NMTAP	16	336	3
NMTAP	16	336	6
NMHLD	17	0	1	72
NMTAP	17	72	0
NMTAP	17	144	2
NMTAP	17	144	7
NMHLD	17	192	6	72
NMTAP	17	264	7
NMTAP	17	336	0
NMTAP	17	336	5
NMTAP	18	0	2
NMTAP	18	48	2
NMTAP	18	96	4
NMTAP	18	144	4
NMTAP	18	192	0
NMTAP	18	216	6
NMTAP	18	240	0
NMTAP	18	264	6
EXTAP	18	288	0
EXTAP	18	300	1
EXTAP	18	312	2
EXTAP	18	324	3
EXTAP	18	336	7
EXTAP	18	348	6
EXTAP	18	360	5
EXTAP	18	372	4
NMTTP	19	0	0	C	1	M1
EXTAP	19	0	3
NMTAP	20	0	2
NMTAP	20	0	5
NMTAP	20	48	1
NMTAP	20	72	0
NMTAP	20	120	6
NMTAP	20	144	7
NMTAP	20	192	0
NMTAP	20	216	7
NMTAP	20	240	0
NMTAP	20	288	2
NMTAP	20	288	5
NMHLD	21	0	4	48
NMTAP	21	48	3
NMHLD	21	96	4	48
NMTTP	21	144	7	B	0	M1
NMHLD	21	192	4	48
NMTAP	21	240	3
NMHLD	21	288	4	48
NMTTP	21	336	6	E	0	M1
NMHLD	22	0	4	48
NMTAP	22	48	3
EXHLD	22	96	4	48
NMTTP	22	144	4	B	0	M1
EXHLD	22	192	4	48
NMTAP	22	240	3
NMHLD	22	288	4	48
NMTTP	22	336	6	E	0	M1
NMHLD	23	0	4	48
NMTAP	23	48	3
NMHLD	23	96	4	48
NMTTP	23	144	7	B	0	M1
NMHLD	23	192	4	48
NMTAP	23	240	3
NMHLD	23	288	4	48
NMTTP	23	336	6	E	0	M1
NMHLD	24	0	4	48
NMTAP	24	48	3
NMHLD	24	96	4	48
NMTAP	24	144	5
NMSTR	24	192	4
NMSXL	24	192	4	96	48	6
NMTTP	24	264	0	B	0	M1
NMTTP	24	264	1	E	0	M1
NMTTP	24	312	2	E	0	M1
NMTTP	24	312	2	D	0	M1
NMHLD	25	0	3	48
NMTAP	25	48	4
NMHLD	25	96	3	48
NMTTP	25	144	0	B	0	M1
NMHLD	25	192	3	48
NMTAP	25	240	4
NMHLD	25	288	3	48
NMTTP	25	336	2	E	0	M1
NMHLD	26	0	3	48
NMTAP	26	48	4
EXHLD	26	96	3	48
NMTTP	26	144	3	B	0	M1
NMHLD	26	192	3	48
NMTAP	26	240	4
NMHLD	26	288	3	48
NMTTP	26	336	2	E	0	M1
NMSTR	27	0	3
NMSXR	27	0	3	96	48	1
NMTTP	27	72	7	B	0	M1
NMTTP	27	72	7	E	0	M1
NMTTP	27	144	6	E	0	M1
NMTTP	27	144	6	D	0	M1
EXHLD	27	192	3	48
NMTAP	27	240	5
NMHLD	27	288	3	48
NMTTP	27	336	0	B	0	M1
NMHLD	28	0	3	48
NMTAP	28	48	5
NMHLD	28	96	3	48
NMTTP	28	144	2	E	0	M1
NMTAP	28	192	3
NMTAP	28	240	0
NMTAP	28	240	7
BRTAP	28	288	1
BRTAP	28	288	6
NMTAP	29	0	0
EXHLD	29	0	6	0
NMTAP	29	72	3
EXHLD	29	96	6	0
NMTAP	29	144	3
EXHLD	29	192	6	0
NMTAP	29	216	4
NMTAP	29	264	4
EXHLD	29	288	6	0
NMTAP	29	336	5
NMTAP	29	360	5
EXHLD	30	0	6	0
NMTAP	30	24	4
NMTAP	30	72	4
EXHLD	30	96	6	0
NMTAP	30	144	3
EXHLD	30	192	6	0
NMTAP	30	216	4
NMTAP	30	264	4
EXHLD	30	288	6	0
EXTAP	30	336	5
NMTAP	30	360	5
EXHLD	31	0	6	0
NMTAP	31	72	2
EXTAP	31	72	7
EXTAP	31	144	0
EXTAP	31	144	5
EXHLD	31	192	6	0
EXTAP	31	216	3
NMTAP	31	264	3
EXHLD	31	288	6	0
NMTAP	31	336	4
EXHLD	32	0	6	0
NMTAP	32	48	5
NMTAP	32	72	5
EXHLD	32	96	6	0
NMTAP	32	144	4
NMSTR	32	192	3
NMSCL	32	192	3	96	48	0
NMTTP	32	264	4	B	0	M1
NMTTP	32	312	6	E	0	M1
NMTAP	33	0	6
NMTAP	33	0	7
NMTAP	33	48	6
NMTAP	33	48	7
BRTAP	33	96	0
BRTAP	33	96	5
EXHLD	33	192	1	0
NMTAP	33	216	3
NMTAP	33	264	3
EXHLD	33	288	1	0
NMTAP	33	336	2
NMTAP	33	360	2
EXHLD	34	0	1	0
NMTAP	34	24	3
NMTAP	34	72	3
EXHLD	34	96	1	0
NMTAP	34	144	2
NMTAP	34	168	2
EXHLD	34	192	1	0
NMTAP	34	216	3
NMTAP	34	264	3
EXHLD	34	288	1	0
EXTAP	34	336	0
EXHLD	35	0	1	0
EXTAP	35	72	0
EXTAP	35	72	5
NMTAP	35	144	2
NMTAP	35	144	7
EXHLD	35	192	1	0
EXTAP	35	216	4
NMTAP	35	264	4
EXHLD	35	288	1	0
NMTAP	35	336	0
EXHLD	36	0	1	0
NMTAP	36	48	2
NMTAP	36	72	2
EXHLD	36	96	1	0
NMTAP	36	144	3
NMTAP	36	192	1
NMTAP	36	192	4
NMTAP	36	216	1
NMTAP	36	216	4
NMTAP	36	264	0
NMTAP	36	264	6
NMTAP	36	312	2
NMTAP	36	312	4
NMTAP	36	360	1
NMTAP	36	360	6
BRSTR	37	0	1
NMSXR	37	0	1	96	624	4
BRSTR	37	0	6
NMSXL	37	0	6	96	624	3
NMTTP	39	144	0	C	1	M1
NMTTP	39	144	2	E	0	M1
NMTTP	39	144	2	D	0	M1
NMTTP	39	144	5	B	0	M1
NMTTP	39	144	6	B	0	M1
NMTTP	39	144	6	E	0	M1
NMTAP	40	0	0
NMTAP	40	0	1
NMTAP	40	96	0
NMTAP	40	96	6
NMTAP	40	144	0
NMTAP	40	144	6
NMHLD	40	192	7	72
NMHLD	40	264	6	72
NMTAP	40	336	5
NMTAP	41	0	4
NMTAP	41	0	5
NMTAP	41	96	2
NMTAP	41	96	3
NMTAP	41	144	2
NMTAP	41	144	3
NMTAP	41	192	2
NMTAP	41	192	3
NMTAP	41	288	1
NMTAP	41	288	7
NMTAP	41	336	1
NMTAP	41	336	7
NMSTR	42	0	6
NMSUL	42	0	6	96	192	3
NMTAP	42	72	0
NMTAP	42	144	1
NMHLD	42	192	1	96
NMSTR	43	0	2
NMSLR	43	0	2	96	192	0
NMTAP	43	72	7
NMTAP	43	144	6
NMHLD	43	192	6	96
NMTAP	44	0	6
NMTAP	44	0	7
NMTAP	44	96	1
NMTAP	44	96	7
NMTAP	44	144	1
NMTAP	44	144	7
NMHLD	44	192	0	72
NMHLD	44	264	1	72
NMTAP	44	336	2
NMTAP	45	0	2
NMTAP	45	0	3
NMTAP	45	96	4
NMTAP	45	96	5
NMTAP	45	144	4
NMTAP	45	144	5
NMTAP	45	192	4
NMTAP	45	192	5
NMTAP	45	288	0
NMTAP	45	288	6
NMTAP	45	336	0
NMTAP	45	336	6
NMSTR	46	0	1
NMSUR	46	0	1	96	192	4
NMTAP	46	72	7
NMTAP	46	144	6
NMHLD	46	192	6	96
NMSTR	47	0	5
NMSLL	47	0	5	96	192	7
NMTAP	47	72	0
NMTAP	47	144	1
NMHLD	47	192	1	96
NMTAP	48	0	1
NMTTP	48	0	5	B	0	M1
NMTTP	48	0	5	E	0	M1
NMTTP	48	96	0	E	0	M1
NMTAP	48	96	2
NMTAP	48	144	2
NMTAP	48	192	2
NMTTP	48	192	5	B	0	M1
NMTTP	48	192	5	E	0	M1
NMTAP	48	264	3
NMTTP	48	288	0	E	0	M1
NMTAP	48	336	3
NMTAP	49	0	3
NMTTP	49	0	5	B	0	M1
NMTTP	49	0	5	E	0	M1
NMTTP	49	96	0	E	0	M1
NMTAP	49	96	2
NMTAP	49	144	2
NMTAP	49	192	2
NMTTP	49	192	5	B	0	M1
NMTTP	49	192	5	E	0	M1
NMTTP	49	288	0	E	0	M1
NMTAP	49	288	1
NMTAP	49	336	1
NMHLD	50	0	2	48
NMTTP	50	0	5	B	0	M1
NMTTP	50	0	5	E	0	M1
NMTTP	50	96	0	E	0	M1
NMHLD	50	96	2	48
NMHLD	50	192	1	48
NMTTP	50	192	5	B	0	M1
NMTTP	50	192	5	E	0	M1
NMTTP	50	288	0	E	0	M1
NMHLD	50	288	1	48
NMHLD	51	0	2	48
NMTTP	51	0	5	B	0	M1
NMTTP	51	0	5	E	0	M1
NMTTP	51	96	0	E	0	M1
NMHLD	51	96	2	48
NMSTR	51	192	3
NMSUR	51	192	3	96	48	0
NMSTR	51	192	4
NMSUL	51	192	4	96	48	7
NMHLD	52	0	2	72
NMTAP	52	72	3
EXTAP	52	120	1
EXTAP	52	120	4
NMTAP	52	144	1
NMTAP	52	144	4
NMHLD	52	192	5	72
NMTAP	52	264	4
EXTAP	52	312	3
EXTAP	52	312	6
NMTAP	52	336	3
NMTAP	52	336	6
NMHLD	53	0	1	72
NMTAP	53	72	0
EXTAP	53	120	2
EXTAP	53	120	7
NMTAP	53	144	2
NMTAP	53	144	7
NMHLD	53	192	6	72
NMTAP	53	264	7
EXTAP	53	312	0
EXTAP	53	312	5
NMTAP	53	336	0
NMTAP	53	336	5
NMTTP	54	0	0	C	1	M1
NMTAP	55	0	2
NMTAP	55	0	5
NMTAP	55	48	1
NMTAP	55	72	3
NMTAP	55	120	6
NMTAP	55	144	4
NMTAP	55	192	3
NMTAP	55	216	4
NMTAP	55	240	3
NMTAP	55	288	0
EXSTR	55	288	7
NMSI_	55	288	7	96	48	5
NMTAP	56	0	0
NMSTR	56	0	7
NMSI_	56	0	7	96	48	3
NMTAP	56	96	1
NMSTR	56	96	7
NMSI_	56	96	7	96	48	5
NMTAP	56	144	1
NMTAP	56	192	1
NMSTR	56	192	7
NMSI_	56	192	7	96	48	3
EXTAP	56	264	2
NMSTR	56	288	7
NMSI_	56	288	7	96	48	5
NMTAP	56	336	2
NMTAP	57	0	2
NMSTR	57	0	7
NMSI_	57	0	7	96	48	3
NMTAP	57	96	4
NMSTR	57	96	7
NMSI_	57	96	7	96	48	5
NMTAP	57	144	4
NMTAP	57	192	4
NMSTR	57	192	7
NMSI_	57	192	7	96	48	3
NMTAP	57	288	2
NMSTR	57	288	7
NMSI_	57	288	7	96	48	5
NMTAP	57	336	2
NMTAP	58	0	2
NMSTR	58	0	7
NMSI_	58	0	7	96	48	3
NMTAP	58	72	0
NMSTR	58	96	7
NMSI_	58	96	7	96	48	5
NMTAP	58	144	0
NMTAP	58	192	1
NMSTR	58	192	7
NMSI_	58	192	7	96	48	3
NMTAP	58	288	2
NMTAP	58	288	7
BRTAP	59	0	1
BRTAP	59	0	7
BRTAP	59	72	3
BRTAP	59	72	5
BRTAP	59	144	5
BRTAP	59	144	7
BRTAP	59	192	1
BRTAP	59	192	3
EXSTR	59	288	0
NMSI_	59	288	0	96	48	2
NMTAP	59	288	7
NMSTR	60	0	0
NMSI_	60	0	0	96	48	4
NMTAP	60	0	7
NMSTR	60	96	0
NMSI_	60	96	0	96	48	2
NMTAP	60	96	6
NMTAP	60	144	6
NMSTR	60	192	0
NMSI_	60	192	0	96	48	4
NMTAP	60	192	6
EXTAP	60	264	5
NMSTR	60	288	0
NMSI_	60	288	0	96	48	2
NMTAP	60	336	5
NMSTR	61	0	0
NMSI_	61	0	0	96	48	4
NMTAP	61	0	5
NMSTR	61	96	0
NMSI_	61	96	0	96	48	2
NMTAP	61	96	3
NMTAP	61	144	3
NMSTR	61	192	0
NMSI_	61	192	0	96	48	4
NMTAP	61	192	3
NMTAP	61	288	0
NMTAP	61	288	4
BRSTR	62	0	1
NMSI_	62	0	1	96	48	4
NMSI_	62	0	1	96	48	6
BRSTR	62	192	5
NMSI_	62	192	5	96	48	0
NMSI_	62	192	5	96	48	2
BXTAP	63	0	0
BRTAP	63	0	6
BRTAP	63	72	2
BRTAP	63	72	4
BRTAP	63	144	0
BRTAP	63	144	2
BRTAP	63	192	4
BRTAP	63	192	6
NMTAP	63	288	3
NMTAP	63	288	4
NMTAP	64	0	2
NMTAP	64	0	5
NMTAP	64	96	1
NMTAP	64	96	2
NMTAP	64	144	1
NMTAP	64	144	2
NMHLD	64	192	0	72
NMHLD	64	264	2	72
NMTAP	64	336	4
NMTAP	65	0	3
NMTAP	65	0	5
NMTAP	65	96	5
NMTAP	65	96	6
NMTAP	65	144	6
NMTAP	65	168	6
NMTAP	65	192	5
NMHLD	65	264	7	72
NMTAP	65	336	2
EXTAP	66	0	1
EXTAP	66	0	4
EXTAP	66	48	2
NMTAP	66	72	3
NMTAP	66	120	1
NMTAP	66	144	0
NMTAP	66	192	3
NMTAP	66	192	6
NMTAP	66	240	5
NMTAP	66	264	4
EXTAP	66	312	6
EXTAP	66	336	7
EXTAP	66	348	0
EXTAP	66	360	1
EXTAP	66	372	2
BRTAP	67	0	3
BRTAP	67	0	7
BRTAP	67	72	1
BRTAP	67	72	5
BRTAP	67	144	0
BRTAP	67	144	4
BRTAP	67	192	2
BRTAP	67	192	6
NMTAP	67	288	0
NMTAP	67	288	7
NMTAP	68	0	1
NMTAP	68	0	6
NMTAP	68	96	5
NMTAP	68	96	6
NMTAP	68	144	5
NMTAP	68	144	6
NMHLD	68	192	7	72
NMHLD	68	264	5	72
NMTAP	68	336	3
NMTAP	69	0	2
NMTAP	69	0	4
NMTAP	69	96	1
NMTAP	69	96	2
NMTAP	69	144	1
NMTAP	69	168	1
NMTAP	69	192	2
NMHLD	69	264	3	72
NMTAP	69	336	7
EXTAP	70	0	0
EXTAP	70	0	5
NMTAP	70	48	6
NMTAP	70	72	7
NMTAP	70	120	5
NMTAP	70	144	4
NMTAP	70	192	2
NMTAP	70	192	7
NMTAP	70	240	1
NMTAP	70	264	0
NMTAP	70	312	2
NMTAP	70	336	3
BRTAP	71	0	0
BRTAP	71	0	4
BRTAP	71	72	2
BRTAP	71	72	6
BRTAP	71	144	3
BRTAP	71	144	7
BRTAP	71	192	1
BRTAP	71	192	5
NMTAP	71	288	2
NMTAP	71	288	7
EXSTR	72	0	1
NMSI_	72	0	1	96	48	3
NMTAP	72	0	7
NMTAP	72	96	0
NMSTR	72	96	1
NMSI_	72	96	1	96	48	5
NMTAP	72	144	7
NMSTR	72	192	1
NMSI_	72	192	1	96	48	3
NMHLD	72	192	6	144
NMSTR	72	288	1
NMSI_	72	288	1	96	48	5
NMTAP	73	0	1
NMSTR	73	0	7
NMSI_	73	0	7	96	48	3
NMTAP	73	96	0
NMSTR	73	96	7
NMSI_	73	96	7	96	48	5
NMTAP	73	144	2
NMHLD	73	192	4	144
NMSTR	73	192	7
NMSI_	73	192	7	96	48	3
NMSTR	73	288	7
NMSI_	73	288	7	96	48	5
EXSTR	74	0	1
NMSI_	74	0	1	96	48	3
NMTAP	74	0	7
NMTAP	74	96	0
NMSTR	74	96	1
NMSI_	74	96	1	96	48	5
NMTAP	74	144	6
NMSTR	74	192	1
NMSI_	74	192	1	96	48	3
NMSTR	74	192	4
NMSI_	74	192	4	96	48	0
NMTAP	74	288	1
NMTAP	74	288	4
BRTAP	75	0	2
BRTAP	75	0	7
BRTAP	75	48	1
BRTAP	75	48	4
BRTAP	75	96	3
BRTAP	75	96	6
BRSTR	75	192	0
NMSI_	75	192	0	96	48	4
BRSTR	75	192	5
NMSI_	75	192	5	96	48	7
NMTTP	75	288	0	C	0	M1
EXTAP	76	0	0
NMSTR	76	0	6
NMSI_	76	0	6	96	48	4
NMSTR	76	96	6
NMSI_	76	96	6	96	48	2
NMTAP	76	96	7
NMTAP	76	144	0
NMHLD	76	192	1	144
NMSTR	76	192	6
NMSI_	76	192	6	96	48	4
NMSTR	76	288	6
NMSV_	76	288	6	96	48	3
EXSTR	77	0	0
NMSCR	77	0	0	96	48	2
NMTAP	77	0	6
NMSTR	77	96	0
NMSV_	77	96	0	96	48	5
NMTAP	77	96	7
NMTAP	77	144	5
NMSTR	77	192	0
NMSCR	77	192	0	96	48	2
NMHLD	77	192	3	48
NMSTR	77	288	0
NMSI_	77	288	0	96	48	4
NMSTR	77	288	6
NMSI_	77	288	6	96	48	2
NMTAP	78	0	0
NMTAP	78	0	6
EXTAP	78	96	0
NMTAP	78	144	1
NMTAP	78	144	7
NMTAP	78	168	2
NMTAP	78	168	6
NMTAP	78	192	3
NMTAP	78	192	5
NMTAP	78	264	2
NMTAP	78	264	6
NMTAP	78	336	1
NMTAP	78	336	7
BRSTR	79	0	0
BRSI_	79	0	0	96	48	4
NMTAP	79	48	7
NMTAP	79	96	0
NMSTR	79	96	6
NMSI_	79	96	6	96	48	2
BRSTR	79	192	0
BRSF_	79	192	0	96	48	4
NMTAP	79	192	6
EXTAP	80	0	1
NMTAP	80	24	1
NMTAP	80	48	0
NMTAP	80	72	0
NMTAP	80	96	1
NMTAP	80	168	2
NMTAP	80	168	6
NMTAP	80	216	5
NMTAP	80	240	5
NMTAP	80	264	4
NMTAP	80	288	5
NMTAP	80	336	2
NMTAP	80	360	2
NMTAP	81	0	3
NMTAP	81	24	2
NMTAP	81	72	1
NMTAP	81	72	5
NMTAP	81	120	6
NMTAP	81	144	6
NMTAP	81	168	7
NMTAP	81	192	6
BRTAP	81	264	1
BRTAP	81	264	5
BRTAP	81	336	3
BRTAP	81	336	7
NMTAP	82	0	1
NMTAP	82	0	5
NMTAP	82	96	0
NMTAP	82	96	6
NMTAP	82	120	0
NMTAP	82	120	6
NMTAP	82	144	0
NMTAP	82	144	6
BRTAP	82	192	2
BRTAP	82	192	4
BRTAP	82	264	1
BRTAP	82	264	5
BRTAP	82	336	0
BRTAP	82	336	6
NMSTR	83	0	7
NMSCL	83	0	7	96	48	4
NMTAP	83	72	1
EXTAP	83	144	2
BRSTR	83	192	3
NMSCL	83	192	3	96	48	1
NMTAP	83	264	6
NMTAP	83	336	7
EXTAP	84	0	0
EXTAP	84	0	1
NMTAP	84	24	0
NMTAP	84	24	1
EXTAP	84	48	0
EXTAP	84	48	1
NMTAP	84	72	0
NMTAP	84	72	1
EXTAP	84	96	0
EXTAP	84	96	1
NMTAP	84	168	2
NMTAP	84	168	6
NMTAP	84	216	5
EXTAP	84	240	5
NMTAP	84	264	4
NMTAP	84	288	5
NMTAP	84	336	2
EXTAP	84	360	2
NMTAP	85	0	3
NMTAP	85	72	1
NMTAP	85	72	5
EXTAP	85	120	6
EXTAP	85	120	7
NMTAP	85	144	6
NMTAP	85	144	7
EXTAP	85	168	6
EXTAP	85	168	7
NMTAP	85	192	6
NMTAP	85	192	7
NMTAP	85	264	2
NMTAP	85	264	3
NMTAP	85	312	1
NMTAP	85	312	5
EXTAP	85	360	0
NMTAP	86	0	7
NMTAP	86	24	7
NMTAP	86	48	1
NMTAP	86	72	1
NMTAP	86	96	3
NMTAP	86	120	3
EXTAP	86	144	5
NMTAP	86	168	5
EXTAP	86	192	7
NMTAP	86	204	6
NMTAP	86	216	5
NMTAP	86	228	4
NMTAP	86	240	3
NMTAP	86	252	2
NMTAP	86	264	1
NMTAP	86	276	0
EXTAP	86	288	7
NMTAP	86	300	6
NMTAP	86	312	5
NMTAP	86	324	4
NMTAP	86	336	3
NMTAP	86	348	2
NMTAP	86	360	1
NMTAP	86	372	0
EXSTR	87	0	7
NMSI_	87	0	7	96	24	3
EXTAP	87	192	0
NMTAP	87	204	1
NMTAP	87	216	2
NMTAP	87	228	3
NMTAP	87	240	4
NMTAP	87	252	5
NMTAP	87	264	6
NMTAP	87	276	7
EXTAP	87	288	0
NMTAP	87	300	1
NMTAP	87	312	2
NMTAP	87	324	3
NMTAP	87	336	4
NMTAP	87	348	5
NMTAP	87	360	6
NMTAP	87	372	7
BXHLD	88	0	0	744
BXHLD	88	0	4	744
NMTTP	90	48	0	C	0	M1

T_REC_TAP	437
T_REC_BRK	58
T_REC_XTP	70
T_REC_BXX	3
T_REC_HLD	62
T_REC_XHO	36
T_REC_BHO	0
T_REC_BXH	2
T_REC_STR	49
T_REC_BST	9
T_REC_XST	6
T_REC_XBS	0
T_REC_TTP	53
T_REC_THO	0
T_REC_SLD	64
T_REC_BSL	2
T_REC_ALL	851
T_NUM_TAP	615
T_NUM_BRK	74
T_NUM_HLD	98
T_NUM_SLD	64
T_NUM_ALL	851
T_JUDGE_TAP	685
T_JUDGE_HLD	166
T_JUDGE_SLD	66
T_JUDGE_ALL	917
TTM_EACHPAIRS	192
TTM_SCR_TAP	307500
TTM_SCR_BRK	192400
TTM_SCR_HLD	98000
TTM_SCR_SLD	96000
TTM_SCR_ALL	693900
TTM_SCR_S	665950
TTM_SCR_SS	686500
TTM_RAT_ACV	10107

