VERSION	0.00.00	1.04.00
FES_MODE	0
BPM_DEF	150.000	150.000	150.000	150.000
MET_DEF	4	4
RESOLUTION	384
CLK_DEF	384
COMPATIBLE_CODE	MA2

BPM	0	0	150.000
MET	0	0	4	4

NMTAP	1	288	3
NMTAP	1	288	4
NMTAP	1	336	3
NMTAP	1	336	4
BXHLD	2	0	2	288
BXHLD	2	0	5	288
NMTAP	3	0	2
NMTAP	3	0	3
NMTAP	3	96	0
NMTAP	3	96	1
NMTAP	3	192	6
NMTAP	3	192	7
NMTAP	3	288	4
NMTAP	3	288	5
BRTAP	4	0	2
BRTAP	4	0	6
NMTAP	4	144	1
NMTAP	4	144	3
NMHLD	4	192	1	192
NMTAP	4	192	3
BRTAP	5	0	0
NMTAP	5	144	4
NMTAP	5	144	6
NMTAP	5	192	4
NMHLD	5	192	6	192
BRTAP	6	0	7
NMTAP	6	144	0
NMTAP	6	144	6
NMTAP	6	192	0
NMTAP	6	192	6
NMTAP	6	288	1
NMTAP	6	288	5
NMTAP	7	0	2
NMTAP	7	48	2
NMTAP	7	96	3
NMTAP	7	192	1
NMTAP	7	192	4
NMTAP	7	288	3
NMTAP	7	288	6
EXTAP	8	0	0
EXTAP	8	0	7
NMTAP	8	144	6
NMTAP	8	144	7
NMHLD	8	192	6	192
NMTAP	8	192	7
BRTAP	9	0	4
NMTAP	9	144	0
NMTAP	9	144	1
NMTAP	9	192	0
NMHLD	9	192	1	192
BRTAP	10	0	3
NMTAP	10	144	1
NMTAP	10	144	7
NMTAP	10	192	1
NMTAP	10	192	7
NMTAP	10	288	2
NMTAP	10	288	6
NMTAP	11	0	5
NMTAP	11	48	5
NMTAP	11	96	3
NMTAP	11	192	2
NMTAP	11	192	4
NMTAP	11	288	1
NMTAP	11	288	5
BRTAP	12	0	0
NMHLD	12	0	6	384
NMTAP	12	96	0
NMTAP	12	192	0
NMTAP	12	288	0
NMTAP	13	0	0
NMTAP	13	96	0
NMTAP	13	192	0
NMTAP	13	192	6
NMTAP	13	288	0
NMTAP	13	288	6
NMTAP	14	0	0
NMTAP	14	0	5
NMTAP	14	96	0
NMTAP	14	96	5
NMTAP	14	192	0
NMTAP	14	192	4
NMTAP	14	288	0
NMTAP	14	288	4
NMTAP	15	0	0
NMTAP	15	0	3
NMTAP	15	96	0
NMTAP	15	96	3
NMTAP	15	192	1
NMTAP	15	192	2
BRTAP	15	288	0
BRTAP	15	288	3
NMHLD	16	0	1	72
NMHLD	16	72	3	72
NMTAP	16	144	2
NMHLD	16	192	5	72
NMHLD	16	264	4	72
NMTAP	16	336	6
NMHLD	17	0	2	72
NMHLD	17	72	3	72
NMTAP	17	144	1
NMHLD	17	192	6	72
NMHLD	17	264	4	72
NMTAP	17	336	5
NMTAP	18	0	3
NMTAP	18	48	3
NMTAP	18	96	4
NMTAP	18	144	4
NMTAP	18	192	3
NMTAP	18	216	4
NMTAP	18	240	3
NMTAP	18	264	4
NMTAP	18	288	3
NMTAP	18	312	4
NMTAP	18	336	3
BXHLD	19	0	2	288
BXHLD	19	0	5	288
NMTAP	20	0	4
NMTAP	20	0	6
NMTAP	20	96	1
NMTAP	20	96	3
BRTAP	20	192	2
BRTAP	20	192	7
NMTAP	21	0	1
NMTAP	21	48	1
NMTAP	21	96	3
NMTAP	21	144	2
NMTAP	21	192	5
NMTAP	21	240	5
NMTAP	21	288	3
NMTAP	21	336	3
NMTAP	22	0	6
NMTAP	22	48	6
NMTAP	22	96	4
NMTAP	22	144	5
NMTAP	22	192	2
NMTAP	22	240	2
NMTAP	22	288	4
NMTAP	22	336	4
NMTAP	23	0	1
NMTAP	23	48	1
NMTAP	23	96	3
NMTAP	23	144	2
NMTAP	23	192	5
NMTAP	23	240	5
NMTAP	23	288	4
NMTAP	23	336	6
NMTAP	24	0	2
NMTAP	24	48	2
NMTAP	24	96	3
NMTAP	24	144	1
NMHLD	24	192	0	120
NMHLD	24	192	5	72
EXTAP	25	0	1
EXTAP	25	48	1
NMTAP	25	96	7
EXTAP	25	144	6
NMTAP	25	192	0
NMTAP	25	240	0
NMTAP	25	288	5
NMTAP	25	336	5
NMTAP	26	0	0
NMTAP	26	48	1
NMTAP	26	96	7
NMTAP	26	144	6
NMTAP	26	192	2
NMTAP	26	240	3
NMTAP	26	288	5
NMTAP	26	336	5
EXHLD	27	0	4	144
EXHLD	27	0	6	72
EXTAP	27	192	5
EXTAP	27	240	5
NMTAP	27	288	3
NMTAP	27	336	4
NMTAP	28	0	1
NMTAP	28	48	1
NMTAP	28	96	3
NMTAP	28	144	2
NMTAP	28	192	4
EXTAP	28	240	0
EXTAP	28	288	0
BRTAP	29	0	2
BRTAP	29	0	4
NMTAP	29	96	0
NMTAP	29	96	1
NMTAP	29	192	3
NMTAP	29	192	4
NMTAP	29	288	6
NMTAP	29	288	7
NMTAP	30	0	4
NMTAP	30	0	5
NMTAP	30	96	2
NMTAP	30	96	3
NMTAP	30	192	0
NMTAP	30	192	1
NMTAP	30	288	2
EXTAP	30	288	7
EXTAP	30	336	2
NMTAP	30	336	7
NMHLD	31	0	2	144
EXHLD	31	0	7	72
EXTAP	31	192	2
EXTAP	31	192	7
NMTAP	31	288	4
NMTAP	31	288	5
NMTAP	32	0	3
NMTAP	32	0	6
NMTAP	32	96	1
NMTAP	32	96	4
BRTAP	32	192	2
BRTAP	32	192	6
NMTAP	33	0	2
EXTAP	33	0	4
EXTAP	33	48	2
NMTAP	33	48	4
NMTAP	33	96	2
EXTAP	33	96	4
NMTAP	33	192	6
NMTAP	33	192	7
NMTAP	33	288	3
NMTAP	33	288	4
NMTAP	34	0	0
NMTAP	34	0	1
NMTAP	34	96	2
NMTAP	34	96	4
NMTAP	34	192	6
NMTAP	34	192	7
NMTAP	34	288	0
NMTAP	34	288	5
NMTAP	34	336	0
NMTAP	34	336	5
NMHLD	35	0	0	72
NMHLD	35	0	5	144
EXTAP	35	192	0
EXTAP	35	192	5
NMTAP	35	288	2
NMTAP	35	288	7
NMTAP	36	0	1
NMTAP	36	0	4
NMTAP	36	96	3
NMTAP	36	96	6
NMTAP	36	192	0
NMTAP	36	192	7
NMTAP	36	240	0
NMTAP	36	240	7
NMTAP	36	288	1
NMTAP	36	288	6
BRSTR	37	0	2
NMSUR	37	0	2	96	432	4
BRSTR	37	0	5
NMSUL	37	0	5	96	432	3
NMTHO	39	24	0	120	C	1	M1
NMTTP	39	24	1	B	0	M1
NMTTP	39	24	2	B	0	M1
NMTTP	39	24	2	E	0	M1
NMSTR	40	0	0
NMSI_	40	0	0	96	288	3
NMSTR	41	0	7
NMSI_	41	0	7	96	288	4
NMSTR	42	0	0
NMSI_	42	0	0	96	288	3
NMHLD	43	0	4	384
NMTAP	43	192	2
BRTAP	43	288	1
NMSTR	44	0	3
NMSI_	44	0	3	96	288	0
NMTTP	44	192	6	B	0	M1
NMTTP	44	288	5	B	0	M1
NMSTR	45	0	4
NMSI_	45	0	4	96	288	7
NMTTP	45	192	1	B	0	M1
NMTTP	45	288	2	B	0	M1
NMHLD	46	0	3	576
NMTTP	46	192	6	B	0	M1
NMTTP	46	288	5	B	0	M1
NMHLD	47	0	4	384
NMTAP	47	288	3
NMTAP	48	0	3
NMTAP	48	96	3
NMTAP	48	96	4
NMTAP	48	192	2
NMTAP	48	192	3
NMTAP	48	288	2
NMTAP	48	288	3
NMTAP	49	0	4
NMTAP	49	0	5
NMTAP	49	96	4
NMTAP	49	96	5
NMTAP	49	192	3
NMTAP	49	192	4
NMTAP	49	288	3
NMTAP	49	288	4
NMHLD	50	0	2	96
NMTAP	50	0	3
NMTAP	50	96	3
NMTAP	50	192	3
NMHLD	50	192	4	96
NMTAP	50	288	3
NMHLD	51	0	4	96
NMTAP	51	0	5
NMTAP	51	96	5
NMTAP	51	192	3
NMTAP	51	192	4
BRTAP	51	288	2
BRTAP	51	288	5
NMHLD	52	0	1	72
NMHLD	52	72	0	72
NMTAP	52	144	2
NMHLD	52	192	6	72
NMHLD	52	264	7	72
NMTAP	52	336	5
NMTAP	53	0	1
NMTAP	53	48	1
NMTAP	53	96	6
NMTAP	53	144	6
NMTAP	53	192	0
NMTAP	53	216	7
NMTAP	53	240	0
NMTAP	53	264	7
NMTAP	53	288	0
NMTAP	53	312	7
NMTAP	53	336	0
BRTAP	54	0	1
BRTAP	54	0	6
NMSTR	55	0	0
NMSI_	55	0	0	96	48	3
NMSTR	55	0	7
NMSI_	55	0	7	96	48	4
EXTAP	55	192	2
EXTAP	55	192	5
NMTAP	55	288	0
NMTAP	55	288	7
BRTAP	56	0	3
BRTAP	56	0	5
EXTAP	56	96	0
NMTAP	56	96	2
EXTAP	56	192	3
NMTAP	56	192	4
NMTAP	56	288	5
EXTAP	56	288	7
NMTAP	57	0	2
EXTAP	57	0	4
EXTAP	57	96	0
NMTAP	57	96	1
NMTAP	57	192	6
EXTAP	57	192	7
NMTAP	57	288	1
EXTAP	57	288	3
EXTAP	58	0	4
NMTAP	58	0	6
NMTAP	58	96	1
EXTAP	58	96	2
NMTAP	58	192	5
EXTAP	58	192	7
EXTAP	58	288	0
NMTAP	58	288	2
EXHLD	59	0	6	72
NMTAP	59	0	7
NMHLD	59	72	5	72
NMTAP	59	144	4
NMTAP	59	192	4
BRTAP	59	288	1
BRTAP	59	288	7
EXTAP	60	0	2
NMTAP	60	0	3
EXTAP	60	96	5
NMTAP	60	96	7
EXTAP	60	192	0
NMTAP	60	192	2
EXTAP	60	288	4
NMTAP	60	288	5
NMTAP	61	0	0
EXTAP	61	0	6
EXTAP	61	96	2
NMTAP	61	96	4
NMTAP	61	144	2
EXTAP	61	192	1
NMTAP	61	192	3
NMTAP	61	288	0
EXTAP	61	288	7
NMSTR	62	0	6
NMSI_	62	0	6	96	48	3
NMSTR	62	0	7
NMSI_	62	0	7	96	48	3
NMSTR	62	192	0
NMSI_	62	192	0	96	48	4
NMSTR	62	192	1
NMSI_	62	192	1	96	48	4
BXTAP	63	0	6
BXTAP	63	0	7
BXTAP	63	72	1
BXTAP	63	72	7
BXTAP	63	144	2
BXTAP	63	144	6
BXTAP	63	192	2
BXTAP	63	192	6
NMTAP	63	288	3
NMTAP	63	288	4
BRTAP	64	0	1
BRTAP	64	0	6
NMTAP	64	96	2
NMTAP	64	96	4
NMTAP	64	144	3
NMTAP	64	144	5
EXTAP	64	192	4
EXTAP	64	192	6
EXTAP	64	264	6
EXTAP	64	264	7
NMTAP	64	336	0
NMTAP	64	336	5
EXTAP	65	0	0
EXTAP	65	0	5
NMTAP	65	96	0
NMTAP	65	96	1
NMTAP	65	144	0
NMTAP	65	144	1
NMHLD	65	192	2	48
NMHLD	65	192	7	48
NMHLD	65	264	4	48
NMHLD	65	264	5	48
NMTAP	65	336	4
NMTAP	65	336	5
NMHLD	66	0	6	72
NMHLD	66	72	4	72
NMTAP	66	144	2
NMHLD	66	192	1	72
NMHLD	66	264	3	72
NMTAP	66	336	5
EXTAP	67	0	5
EXTAP	67	72	0
EXTAP	67	72	7
EXTAP	67	144	1
EXTAP	67	144	3
EXTAP	67	192	1
EXSTR	67	192	3
BRSI_	67	192	3	96	48	7
NMTAP	68	0	0
NMTAP	68	0	6
NMTAP	68	96	2
NMTAP	68	96	4
NMTAP	68	144	3
NMTAP	68	144	5
NMHLD	68	192	4	48
NMHLD	68	192	6	48
NMHLD	68	264	0	48
NMHLD	68	264	1	48
NMTAP	68	336	2
NMTAP	68	336	7
EXTAP	69	0	2
EXTAP	69	0	7
NMTAP	69	96	0
NMTAP	69	96	6
NMTAP	69	144	1
NMTAP	69	144	5
NMHLD	69	192	2	48
NMHLD	69	192	4	48
NMHLD	69	264	4	48
NMHLD	69	264	5	48
NMTAP	69	336	3
NMTAP	69	336	6
EXTAP	70	0	3
EXSTR	70	0	6
NMSI_	70	0	6	96	48	1
NMTAP	70	192	0
NMSTR	70	192	2
NMSI_	70	192	2	96	48	5
NMHLD	71	0	6	48
NMHLD	71	0	7	48
NMHLD	71	72	4	48
NMHLD	71	72	5	48
NMTAP	71	144	3
NMTAP	71	144	6
NMTAP	71	192	2
NMTAP	71	192	7
BRTAP	71	240	0
BRTAP	71	288	0
NMSTR	72	0	6
NMSI_	72	0	6	96	48	4
NMSTR	72	96	7
NMSI_	72	96	7	96	48	3
NMSTR	72	192	6
NMSI_	72	192	6	96	48	2
NMTAP	72	288	7
NMSTR	73	0	1
NMSI_	73	0	1	96	48	6
NMSTR	73	96	5
NMSI_	73	96	5	96	48	2
NMSTR	73	192	1
NMSI_	73	192	1	96	48	4
NMTAP	73	288	7
NMSTR	74	0	6
NMSI_	74	0	6	96	48	2
NMSTR	74	96	7
NMSI_	74	96	7	96	48	3
NMSTR	74	192	6
NMSCL	74	192	6	96	48	3
NMTAP	74	288	0
EXTAP	75	0	0
EXTAP	75	0	1
EXTAP	75	48	2
EXTAP	75	48	7
EXTAP	75	96	3
EXTAP	75	96	6
NMSTR	75	192	1
NMSCR	75	192	1	96	48	4
NMTAP	75	192	4
BRTAP	75	288	7
NMSTR	76	0	6
NMSI_	76	0	6	96	48	4
NMSTR	76	96	7
NMSI_	76	96	7	96	48	3
NMSTR	76	192	6
NMSI_	76	192	6	96	48	2
NMTAP	76	288	7
NMSTR	77	0	1
NMSI_	77	0	1	96	48	6
NMSTR	77	96	5
NMSI_	77	96	5	96	48	2
NMSTR	77	192	1
NMSI_	77	192	1	96	48	4
NMTAP	77	288	7
NMSTR	78	0	6
NMSI_	78	0	6	96	48	2
NMSTR	78	96	7
NMSI_	78	96	7	96	48	3
NMTAP	78	192	6
NMTAP	78	288	1
NMTAP	78	288	4
EXTAP	79	0	4
EXTAP	79	0	5
EXTAP	79	48	3
EXTAP	79	48	6
EXTAP	79	96	2
EXSTR	79	96	7
NMSI_	79	96	7	96	48	3
NMTAP	79	192	0
BRTAP	79	288	1
BRTAP	79	288	4
EXTAP	80	0	2
EXTAP	80	24	3
EXTAP	80	48	2
EXTAP	80	72	3
EXTAP	80	96	2
NMHLD	80	168	1	48
NMHLD	80	168	7	48
NMTAP	80	240	1
NMTAP	80	240	7
EXTAP	80	288	4
EXTAP	80	288	5
EXTAP	80	336	3
EXTAP	80	336	4
NMHLD	81	0	2	48
NMHLD	81	0	3	48
NMHLD	81	72	0	48
NMHLD	81	72	1	48
EXTAP	81	144	2
EXTAP	81	144	7
NMHLD	81	192	4	48
NMHLD	81	192	5	48
NMHLD	81	264	6	48
NMHLD	81	264	7	48
EXTAP	81	336	0
EXTAP	81	336	5
BXTAP	82	0	2
BXTAP	82	0	3
NMTAP	82	96	5
NMTAP	82	120	4
NMTAP	82	144	5
BRTAP	82	192	6
BRTAP	82	192	7
BRTAP	82	264	3
BRTAP	82	264	4
BRTAP	82	336	0
BRTAP	82	336	1
BRTAP	83	0	0
BRSTR	83	0	1
NMSI_	83	0	1	96	48	5
NMHLD	83	192	6	48
NMHLD	83	192	7	48
EXTAP	83	264	6
EXTAP	83	264	7
EXTAP	83	312	1
EXTAP	83	312	5
EXTAP	84	0	2
EXTAP	84	24	3
EXTAP	84	48	2
EXTAP	84	72	3
EXTAP	84	96	2
NMHLD	84	168	1	48
NMHLD	84	168	4	48
NMTAP	84	240	1
NMTAP	84	240	4
EXTAP	84	288	6
EXTAP	84	288	7
EXTAP	84	336	6
EXTAP	84	336	7
NMHLD	85	0	4	48
NMHLD	85	0	5	48
NMHLD	85	72	2	48
NMHLD	85	72	3	48
EXTAP	85	144	0
EXTAP	85	144	1
NMHLD	85	192	6	48
NMHLD	85	192	7	48
EXTAP	85	264	0
EXTAP	85	264	5
EXTAP	85	336	1
EXTAP	85	336	6
NMTAP	86	0	0
NMTAP	86	24	7
NMTAP	86	48	0
NMTAP	86	72	7
NMTAP	86	96	0
NMTAP	86	120	7
NMTAP	86	144	0
NMTAP	86	168	7
NMTAP	86	192	1
NMTAP	86	216	6
NMTAP	86	240	1
NMTAP	86	264	6
NMTAP	86	288	2
NMTAP	86	312	5
NMTAP	86	336	2
NMTAP	86	360	5
BRSTR	87	0	3
NMSI_	87	0	3	96	48	7
EXSTR	87	96	4
NMSI_	87	96	4	96	48	0
NMSTR	87	192	1
BRSF_	87	192	1	96	48	5
BXHLD	88	0	3	744
BXHLD	88	0	7	816

T_REC_TAP	320
T_REC_BRK	38
T_REC_XTP	97
T_REC_BXX	10
T_REC_HLD	69
T_REC_XHO	4
T_REC_BHO	0
T_REC_BXH	6
T_REC_STR	31
T_REC_BST	4
T_REC_XST	4
T_REC_XBS	0
T_REC_TTP	9
T_REC_THO	1
T_REC_SLD	37
T_REC_BSL	2
T_REC_ALL	632
T_NUM_TAP	461
T_NUM_BRK	60
T_NUM_HLD	74
T_NUM_SLD	37
T_NUM_ALL	632
T_JUDGE_TAP	513
T_JUDGE_HLD	210
T_JUDGE_SLD	39
T_JUDGE_ALL	762
TTM_EACHPAIRS	194
TTM_SCR_TAP	230500
TTM_SCR_BRK	156000
TTM_SCR_HLD	74000
TTM_SCR_SLD	55500
TTM_SCR_ALL	516000
TTM_SCR_S	494700
TTM_SCR_SS	510000
TTM_RAT_ACV	10117

