VERSION	0.00.00	1.04.00
FES_MODE	0
BPM_DEF	186.000	186.000	186.000	186.000
MET_DEF	4	4
RESOLUTION	384
CLK_DEF	384
COMPATIBLE_CODE	MA2

BPM	0	0	186.000
MET	0	0	4	4

EXHLD	2	0	2	288
NMTAP	2	96	3
NMTAP	2	192	3
NMTAP	2	288	4
EXHLD	3	0	5	288
NMTAP	3	96	4
NMTAP	3	192	4
NMTAP	3	288	3
EXHLD	4	0	2	192
NMTAP	4	96	3
NMTAP	4	192	3
EXTAP	4	288	1
EXTAP	4	288	4
EXHLD	4	336	1	336
EXTAP	4	336	4
NMTTP	5	96	0	B	0	M1
NMTTP	5	96	1	B	0	M1
NMTTP	5	96	1	E	0	M1
NMTTP	5	96	1	D	0	M1
NMTTP	5	192	3	B	0	M1
NMTTP	5	192	4	B	0	M1
NMTTP	5	192	4	E	0	M1
NMTTP	5	192	4	D	0	M1
NMTTP	5	288	6	B	0	M1
NMTTP	5	288	7	B	0	M1
NMTTP	5	288	7	E	0	M1
NMTTP	5	288	7	D	0	M1
EXHLD	6	0	5	288
NMTAP	6	96	4
NMTAP	6	192	3
NMTAP	6	288	4
EXHLD	7	0	2	288
NMTAP	7	96	3
NMTAP	7	192	4
NMTAP	7	288	3
EXHLD	8	0	5	192
NMTAP	8	96	4
NMTAP	8	192	3
EXTAP	8	288	2
EXTAP	8	288	6
EXTAP	8	336	2
EXHLD	8	336	6	336
NMTTP	9	96	6	B	0	M1
NMTTP	9	96	7	B	0	M1
NMTTP	9	96	7	E	0	M1
NMTTP	9	96	7	D	0	M1
NMTTP	9	192	3	B	0	M1
NMTTP	9	192	4	B	0	M1
NMTTP	9	192	4	E	0	M1
NMTTP	9	192	4	D	0	M1
NMTTP	9	288	0	B	0	M1
NMTTP	9	288	1	B	0	M1
NMTTP	9	288	1	E	0	M1
NMTTP	9	288	1	D	0	M1
EXHLD	10	0	2	96
NMTAP	10	96	3
NMTAP	10	144	3
NMTAP	10	240	0
NMTAP	10	240	1
NMTAP	10	336	6
NMTAP	10	336	7
NMTAP	11	48	4
NMTAP	11	48	5
NMTAP	11	96	4
NMTAP	11	96	5
NMTAP	11	192	3
NMTAP	11	192	6
NMTAP	11	288	1
NMTAP	11	288	4
NMTAP	12	0	3
NMSTR	12	0	6
NMSI_	12	0	6	96	48	3
NMTAP	12	96	1
NMSTR	12	144	0
NMSI_	12	144	0	96	48	4
NMTAP	12	240	6
NMSTR	12	288	7
NMSI_	12	288	7	96	48	3
NMTAP	13	0	2
NMSTR	13	48	1
NMSI_	13	48	1	96	48	4
NMTAP	13	144	6
NMHLD	13	192	7	96
NMTAP	13	288	3
NMTAP	14	0	4
NMTAP	14	0	5
NMTAP	14	96	3
NMTAP	14	96	6
NMHLD	14	144	3	336
NMTAP	14	144	6
NMTAP	15	0	7
NMSTR	15	96	7
NMSF_	15	96	7	96	96	3
NMTAP	16	0	2
NMTAP	16	0	3
NMTAP	16	96	1
NMTAP	16	96	4
NMTAP	16	144	1
NMHLD	16	144	4	336
NMTAP	17	0	0
NMSTR	17	96	0
NMSSL	17	96	0	96	96	4
NMTAP	18	0	2
NMTAP	18	0	5
NMTAP	18	96	1
NMTAP	18	96	6
NMHLD	18	144	1	144
NMHLD	18	144	6	144
NMTAP	19	0	0
NMTAP	19	0	7
NMTAP	19	96	3
NMTAP	19	96	4
NMTTP	19	192	2	B	0	M1
NMTTP	19	192	2	E	0	M1
NMTTP	19	192	2	A	1	M1
NMTTP	19	192	2	D	0	M1
NMTTP	19	192	3	E	0	M1
NMTTP	19	192	3	D	0	M1
NMTTP	19	288	5	B	0	M1
NMTTP	19	288	5	E	0	M1
NMTTP	19	288	5	A	1	M1
NMTTP	19	288	5	D	0	M1
NMTTP	19	288	6	E	0	M1
NMTTP	19	288	6	D	0	M1
EXHLD	20	0	6	96
EXHLD	20	0	7	96
NMSTR	20	144	0
NMSI_	20	144	0	96	48	4
NMSTR	20	144	1
NMSI_	20	144	1	96	48	5
NMTAP	20	240	0
NMTAP	20	240	1
NMHLD	20	336	3	192
NMHLD	20	336	6	192
NMSTR	21	192	4
BRSI_	21	192	4	96	48	1
NMSTR	21	192	5
BRSI_	21	192	5	96	48	0
EXSTR	22	0	2
NMSI_	22	0	2	96	48	0
NMTAP	22	96	3
NMTAP	22	144	3
NMSTR	22	192	2
NMSI_	22	192	2	96	48	7
NMTAP	22	288	3
NMTAP	22	336	3
NMSTR	23	0	1
NMSI_	23	0	1	96	48	3
NMTAP	23	96	5
CNSV_	23	144	3	0	48	4
CNSI_	23	192	4	0	48	6
NMTAP	23	192	7
NMTAP	23	288	7
NMSTR	24	0	5
NMSI_	24	0	5	96	48	7
NMTAP	24	96	4
NMTAP	24	144	4
NMSTR	24	192	5
NMSI_	24	192	5	96	48	0
NMTAP	24	288	4
NMTAP	24	336	4
NMSTR	25	0	7
NMSCL	25	0	7	96	96	3
NMTAP	25	96	2
NMTAP	25	192	1
NMTAP	25	288	1
NMTAP	25	288	3
NMTAP	26	0	2
NMSTR	26	0	4
NMSI_	26	0	4	96	48	6
NMTAP	26	96	1
CNSI_	26	144	6	0	48	3
EXTAP	26	192	0
CNSI_	26	192	3	0	48	7
CNSI_	26	240	7	0	48	2
NMHLD	26	288	0	96
NMHLD	27	0	6	96
NMHLD	27	96	4	96
NMHLD	27	192	3	96
NMHLD	27	288	1	96
NMSTR	28	0	6
NMSCL	28	0	6	96	48	3
NMSTR	28	96	0
NMSCR	28	96	0	96	48	3
NMSTR	28	192	7
NMSI_	28	192	7	96	48	3
NMTAP	28	288	1
NMTAP	28	336	1
NMSTR	29	48	0
NMSV_	29	48	0	96	48	3
NMSTR	29	48	6
NMSV_	29	48	6	96	48	3
NMTAP	29	144	0
NMTAP	29	144	6
EXTAP	29	240	1
EXTAP	29	240	5
EXTAP	29	288	1
EXTAP	29	288	5
NMTAP	30	0	6
NMTAP	30	48	6
NMTAP	30	96	4
NMTAP	30	96	6
NMTAP	30	144	6
NMTAP	30	192	5
NMTAP	30	192	6
NMTAP	30	240	6
NMTAP	30	288	6
NMTAP	30	288	7
NMTAP	30	336	6
BXSTR	31	0	0
BRSI_	31	0	0	96	48	4
NMTAP	31	0	6
BXSTR	31	96	1
BRSI_	31	96	1	96	48	5
BXSTR	31	192	2
BRSI_	31	192	2	96	48	6
BXTAP	31	288	3
EXTAP	32	0	4
EXTAP	32	0	5
NMSTR	32	96	4
NMSI_	32	96	4	96	48	0
NMSTR	32	96	6
NMSI_	32	96	6	96	48	3
NMTAP	32	192	4
NMTAP	32	192	6
NMTAP	32	336	2
NMTAP	32	336	3
NMSTR	33	48	1
NMSI_	33	48	1	96	48	4
NMSTR	33	48	3
NMSI_	33	48	3	96	48	7
NMTAP	33	144	1
NMTAP	33	144	3
BXTAP	33	240	3
BXTAP	33	240	6
BXTAP	33	288	3
BXTAP	33	288	6
NMTAP	34	0	1
NMTAP	34	48	1
NMTAP	34	96	0
NMTAP	34	96	1
NMTAP	34	144	1
NMTAP	34	192	1
NMTAP	34	192	2
NMTAP	34	240	1
NMTAP	34	288	1
NMTAP	34	288	3
NMTAP	34	336	1
NMTAP	35	0	1
BXSTR	35	0	4
BRSI_	35	0	4	96	48	0
BXSTR	35	96	5
BRSI_	35	96	5	96	48	1
BXSTR	35	192	6
BRSI_	35	192	6	96	48	2
BXTAP	35	288	7
NMTAP	36	0	0
NMTAP	36	0	1
NMSTR	36	96	0
NMSUL	36	96	0	96	48	4
NMSTR	36	96	6
NMSI_	36	96	6	96	48	2
NMTAP	36	336	6
NMTAP	36	336	7
NMSTR	37	48	1
NMSI_	37	48	1	96	48	5
NMSTR	37	48	7
NMSUR	37	48	7	96	48	3
BXTAP	37	240	2
BXTAP	37	240	6
BXTAP	37	288	2
BXTAP	37	288	6
NMTAP	38	0	3
NMHLD	38	0	5	1056
NMSTR	38	96	2
NMSV_	38	96	2	96	96	3
NMTAP	39	0	2
NMSTR	39	96	3
NMSUR	39	96	3	96	96	2
NMTAP	40	0	3
NMSTR	40	96	2
NMSCL	40	96	2	96	192	3
NMTTP	41	0	0	E	1	M1
NMTTP	41	96	1	B	0	M1
NMTTP	41	96	6	B	0	M1
NMTTP	41	192	3	E	0	M1
NMTTP	41	192	4	E	1	M1
NMTTP	41	192	5	E	0	M1
NMHLD	42	0	3	192
NMTAP	42	0	4
NMTAP	42	96	1
NMHLD	42	192	4	192
NMTAP	42	288	6
NMTAP	43	0	3
NMSTR	43	96	0
NMSCR	43	96	0	96	48	3
NMSTR	43	96	7
NMSCL	43	96	7	96	48	4
EXSTR	43	288	3
NMSI_	43	288	3	96	48	1
NMSTR	44	0	4
NMSI_	44	0	4	96	48	0
NMSTR	44	96	3
NMSI_	44	96	3	96	48	7
NMSTR	44	192	4
NMSI_	44	192	4	96	48	6
NMSTR	44	288	3
NMSCL	44	288	3	96	48	0
NMSTR	45	0	4
NMSCR	45	0	4	96	48	7
NMSTR	45	96	3
NMSI_	45	96	3	96	48	7
NMSTR	45	192	4
NMSI_	45	192	4	96	48	0
NMSTR	45	288	3
BRSF_	45	288	3	96	96	7
NMTAP	46	288	4
NMTAP	46	288	5
NMTTP	47	0	2	B	0	M1
NMTTP	47	0	3	B	0	M1
NMTTP	47	0	3	E	1	M1
NMHLD	47	0	6	192
NMTAP	47	192	4
NMTAP	47	288	2
NMTAP	47	288	3
NMHLD	48	0	1	96
NMTTP	48	0	4	B	0	M1
NMTTP	48	0	5	B	0	M1
NMTTP	48	0	5	E	1	M1
NMTTP	48	192	2	B	0	M1
NMTTP	48	192	3	B	0	M1
NMTTP	48	192	3	E	1	M1
NMHLD	48	192	6	96
NMTTP	49	0	1	B	0	M1
NMTTP	49	0	1	E	0	M1
NMTTP	49	0	2	E	0	M1
NMTTP	49	0	5	B	0	M1
NMTTP	49	0	5	E	0	M1
NMTTP	49	0	6	E	0	M1
BXTAP	49	96	2
BXTAP	49	96	4
BXSTR	49	192	0
BRSV_	49	192	0	96	48	3
BXSTR	49	192	6
BRSV_	49	192	6	96	48	3
BXTAP	49	288	0
BXTAP	49	288	6
NMSTR	50	0	1
NMSI_	50	0	1	96	48	4
NMTAP	50	0	5
NMTAP	50	96	1
NMTAP	50	96	4
NMSTR	50	144	5
NMSI_	50	144	5	96	48	0
NMTAP	50	240	3
NMTAP	50	240	5
NMSTR	50	336	1
NMSI_	50	336	1	96	48	5
NMTAP	51	48	1
NMTAP	51	48	6
NMSTR	51	96	7
NMSI_	51	96	7	96	48	2
NMSI_	51	96	7	96	48	4
NMTAP	51	192	7
NMTAP	51	336	5
NMSTR	52	0	6
NMSI_	52	0	6	96	48	1
NMTAP	52	96	3
NMTAP	52	96	6
NMSTR	52	144	2
NMSI_	52	144	2	96	48	5
NMTAP	52	240	2
NMSTR	52	240	4
NMSI_	52	240	4	96	48	7
NMSTR	52	336	0
NMSI_	52	336	0	96	48	3
NMTAP	52	336	4
NMTAP	53	48	0
NMTAP	53	48	7
NMSTR	53	96	6
NMSCR	53	96	6	96	96	4
NMTAP	53	192	2
EXTAP	54	0	4
EXTAP	54	0	6
NMTAP	54	96	3
NMTAP	54	96	7
NMSTR	54	144	3
NMSI_	54	144	3	96	48	0
NMSTR	54	144	7
NMSI_	54	144	7	96	48	4
NMTAP	54	240	3
NMTAP	54	240	7
NMTAP	54	336	1
NMTAP	54	336	5
NMTAP	55	48	2
NMTAP	55	48	6
NMSTR	55	96	2
NMSI_	55	96	2	96	48	5
NMSTR	55	96	6
NMSI_	55	96	6	96	48	1
NMTAP	55	192	2
NMTAP	55	192	6
EXTAP	55	288	3
EXTAP	55	288	7
NMTAP	56	0	7
NMTAP	56	48	0
NMTAP	56	96	1
NMTAP	56	96	3
NMTAP	56	144	0
NMTAP	56	192	7
NMTAP	56	240	4
NMTAP	56	240	6
NMTAP	56	288	7
NMTAP	56	336	0
NMTAP	57	0	1
NMTAP	57	0	3
BXTAP	57	96	3
BXTAP	57	96	5
BXSTR	57	192	1
BRSV_	57	192	1	96	48	4
BXSTR	57	192	7
BRSV_	57	192	7	96	48	4
BXTAP	57	288	1
BXTAP	57	288	7
NMSTR	58	0	6
NMSI_	58	0	6	96	48	3
NMTAP	58	96	3
NMTAP	58	96	6
NMSTR	58	144	2
NMSI_	58	144	2	96	48	7
NMTAP	58	240	2
NMTAP	58	240	4
NMSTR	58	336	5
NMSI_	58	336	5	96	48	0
NMTAP	59	48	2
NMTAP	59	48	5
NMSTR	59	96	1
NMSLR	59	96	1	96	96	7
NMTAP	59	192	1
NMTAP	59	192	4
NMSTR	60	0	1
NMSI_	60	0	1	96	48	4
NMTAP	60	96	1
NMTAP	60	96	4
NMSTR	60	144	5
NMSI_	60	144	5	96	48	1
NMTAP	60	240	2
NMTAP	60	240	5
NMTAP	60	336	0
NMTAP	60	336	3
NMTAP	61	48	1
NMTAP	61	48	2
NMSTR	61	96	1
BRSI_	61	96	1	96	48	6
NMSTR	61	96	2
BRSI_	61	96	2	96	48	5
EXTAP	61	192	1
EXTAP	61	192	2
NMSTR	62	0	2
NMSI_	62	0	2	96	48	6
NMTAP	62	0	6
NMTAP	62	96	2
NMTAP	62	96	4
NMSTR	62	144	5
NMSI_	62	144	5	96	48	1
NMTAP	62	240	3
NMTAP	62	240	5
NMTAP	62	336	2
NMTAP	63	48	0
NMTAP	63	48	7
NMTAP	63	96	0
NMSTR	63	96	7
NMSCL	63	96	7	96	120	0
NMSUL	63	96	7	96	120	0
EXTAP	64	0	1
EXTAP	64	0	7
NMTAP	64	48	3
NMTAP	64	96	4
NMTAP	64	144	0
NMTAP	64	144	6
NMTAP	64	192	4
NMTAP	64	240	3
NMTAP	64	288	1
NMTAP	64	288	7
NMTAP	64	336	1
NMTAP	64	336	7
NMTAP	65	0	2
NMTAP	65	0	6
BXTAP	65	96	2
BXTAP	65	96	5
BXSTR	65	192	0
BRSI_	65	192	0	96	48	4
BXSTR	65	192	7
BRSV_	65	192	7	96	48	4
BXSTR	65	288	0
NMSCR	65	288	0	96	576	7
BXTAP	65	288	7
NMTAP	68	0	5
NMTAP	68	48	5
NMTAP	68	96	4
NMHLD	68	144	6	96
NMTAP	68	240	4
NMTAP	68	288	3
NMHLD	68	336	2	96
NMTAP	69	48	3
NMTAP	69	96	4
NMTAP	69	144	5
NMSTR	69	192	5
NMSCR	69	192	5	96	48	7
EXTAP	69	240	3
EXTAP	69	288	3
NMTAP	70	0	2
NMTAP	70	48	2
NMTAP	70	96	3
NMHLD	70	144	1	96
NMTAP	70	240	3
NMTAP	70	288	4
NMHLD	70	336	5	96
NMTAP	71	48	4
NMTAP	71	96	3
NMTAP	71	144	2
NMHLD	71	192	2	96
NMTAP	71	240	3
NMTAP	71	288	3
NMTAP	72	0	5
NMTAP	72	48	5
NMTAP	72	96	4
NMHLD	72	144	6	96
NMTAP	72	240	4
NMTAP	72	288	3
NMHLD	72	336	2	96
NMTAP	73	48	3
NMTAP	73	96	4
NMTAP	73	144	4
NMTAP	73	192	3
EXTAP	73	240	2
EXTAP	73	240	5
EXTAP	73	288	2
EXTAP	73	288	5
NMTAP	74	0	0
NMTAP	74	0	7
NMSTR	74	96	0
NMSI_	74	96	0	96	48	4
NMSTR	74	96	7
NMSV_	74	96	7	96	48	4
NMTAP	74	192	0
NMTAP	74	192	7
BXTAP	75	0	1
BXTAP	75	0	7
BXSTR	75	96	1
BRSV_	75	96	1	96	48	4
BXSTR	75	96	7
BRSV_	75	96	7	96	48	4
BXTAP	75	192	1
BXTAP	75	192	7
EXTAP	75	288	2
EXTAP	75	288	3
NMSTR	76	0	1
NMSUL	76	0	1	96	192	6
NMSTR	76	0	2
NMSUR	76	0	2	96	192	5
BXTAP	77	0	1
BXTAP	77	0	7
BXSTR	77	96	1
BRSV_	77	96	1	96	48	4
BXSTR	77	96	7
BRSV_	77	96	7	96	48	4
BXTAP	77	192	1
BXTAP	77	192	7
NMTAP	78	0	6
NMTAP	78	0	7
NMSTR	78	96	6
NMSV_	78	96	6	96	48	3
NMSTR	78	96	7
NMSI_	78	96	7	96	48	3
NMTAP	78	192	6
NMTAP	78	192	7
BXTAP	79	0	0
BXTAP	79	0	6
BXSTR	79	96	0
BRSV_	79	96	0	96	48	3
BXSTR	79	96	6
BRSV_	79	96	6	96	48	3
BXTAP	79	192	0
BXTAP	79	192	6
NMSTR	79	288	7
NMSI_	79	288	7	96	48	3
EXTAP	80	0	7
NMTTP	80	192	0	C	0	M1
NMTTP	80	192	0	E	0	M1
NMTTP	80	192	1	B	0	M1
NMTTP	80	192	2	E	0	M1
NMTTP	80	192	6	B	0	M1
NMTTP	80	192	7	B	0	M1
NMTTP	80	288	3	B	0	M1
NMTTP	80	288	3	A	0	M1
NMTTP	80	288	4	B	0	M1
NMTTP	80	288	4	A	0	M1
NMTTP	80	288	4	D	0	M1
BXTAP	81	0	0
BXTAP	81	0	6
BXSTR	81	96	0
BRSV_	81	96	0	96	48	3
BXSTR	81	96	6
BRSV_	81	96	6	96	48	3
BXTAP	81	192	0
BXTAP	81	192	6
NMTAP	82	0	0
NMTAP	82	0	1
NMSTR	82	96	0
NMSUR	82	96	0	96	48	4
NMSTR	82	96	1
NMSI_	82	96	1	96	48	4
NMTAP	82	192	0
NMTAP	82	192	1
BXTAP	83	0	1
BXTAP	83	0	7
BXSTR	83	96	1
BRSV_	83	96	1	96	48	4
BXSTR	83	96	7
BRSV_	83	96	7	96	48	4
BXTAP	83	192	1
BXTAP	83	192	7
EXSTR	83	288	2
NMSUL	83	288	2	96	48	5
EXTAP	83	288	6
NMTAP	84	0	7
EXSTR	84	96	7
NMSF_	84	96	7	96	48	3
EXTAP	84	192	7
EXTAP	84	288	1
EXTAP	84	288	5
BXTAP	85	0	0
BXTAP	85	0	6
BXSTR	85	96	0
BRSV_	85	96	0	96	48	3
BXSTR	85	96	6
BRSV_	85	96	6	96	48	3
BXTAP	85	192	0
BXTAP	85	192	6
BRSTR	86	0	1
BRSV_	86	0	1	96	48	4
BRSTR	86	0	7
BRSV_	86	0	7	96	48	4
BRTAP	86	48	1
BRTAP	86	48	7
BRTAP	86	96	1
BRTAP	86	96	7
BRSTR	86	192	0
BRSV_	86	192	0	96	48	3
BRSTR	86	192	6
BRSV_	86	192	6	96	48	3
BRTAP	86	240	0
BRTAP	86	240	6
BRTAP	86	288	0
BRTAP	86	288	6
BRSTR	87	0	1
BRSV_	87	0	1	96	48	4
BRSTR	87	0	7
BRSV_	87	0	7	96	48	4
BRTAP	87	48	1
BRTAP	87	48	7
BRTAP	87	96	1
BRTAP	87	96	7
BRSTR	87	192	0
BRSV_	87	192	0	96	48	3
BRSTR	87	192	6
BRSV_	87	192	6	96	48	3
BRTAP	87	240	0
BRTAP	87	240	6
BRTAP	87	288	0
BRTAP	87	288	6
NMTAP	88	0	2
NMTAP	88	0	4
NMTAP	88	48	2
NMTAP	88	48	4
NMTAP	88	96	3
NMTAP	88	96	5
NMTAP	88	144	3
NMTAP	88	144	5
NMTAP	88	192	1
NMTAP	88	192	6
NMTAP	88	240	1
NMTAP	88	240	6
EXTAP	88	288	0
EXTAP	88	288	7
EXTAP	88	336	0
EXTAP	88	336	7
NMTTP	89	0	0	A	0	M1
NMTTP	89	0	7	A	0	M1
NMTTP	89	6	0	B	0	M1
NMTTP	89	6	7	B	0	M1
NMTTP	89	12	0	C	1	M1
NMTTP	89	18	4	E	0	M1
NMTTP	89	24	4	D	0	M1
NMTTP	89	96	0	A	0	M1
NMTTP	89	96	7	A	0	M1
NMTTP	89	102	0	B	0	M1
NMTTP	89	102	7	B	0	M1
NMTTP	89	108	0	C	1	M1
NMTTP	89	114	4	E	0	M1
NMTTP	89	120	4	D	0	M1
NMTTP	89	192	0	A	0	M1
NMTTP	89	192	7	A	0	M1
NMTTP	89	198	0	B	0	M1
NMTTP	89	198	7	B	0	M1
NMTTP	89	204	0	C	1	M1
NMTTP	89	210	4	E	0	M1
NMTTP	89	216	4	D	0	M1
NMSTR	90	0	6
NMSCL	90	0	6	96	48	3
NMTAP	90	96	3
NMTAP	90	96	6
NMSTR	90	144	2
NMSCL	90	144	2	96	48	7
NMTAP	90	240	2
NMTAP	90	240	4
NMSTR	90	336	5
NMSLR	90	336	5	96	96	3
NMTAP	91	48	1
NMTAP	91	48	5
NMSTR	91	96	0
NMSCL	91	96	0	96	48	5
NMSCR	91	96	0	96	48	3
NMTAP	91	336	2
NMSTR	92	0	1
NMSCR	92	0	1	96	48	4
NMTAP	92	96	1
NMTAP	92	96	5
NMSTR	92	144	6
NMSI_	92	144	6	96	48	1
NMSTR	92	240	1
NMSI_	92	240	1	96	48	6
NMTAP	92	240	6
NMSTR	92	336	2
NMSLL	92	336	2	96	96	4
NMTAP	93	48	2
NMTAP	93	48	7
NMSTR	93	96	6
NMSCR	93	96	6	96	96	4
NMTAP	93	192	2
NMTAP	94	0	4
NMTAP	94	0	6
NMTAP	94	96	3
NMTAP	94	96	7
NMSTR	94	144	3
NMSI_	94	144	3	96	48	0
NMSTR	94	144	7
NMSI_	94	144	7	96	48	4
NMTAP	94	240	3
NMTAP	94	240	7
NMTAP	94	336	2
NMTAP	94	336	6
NMTAP	95	48	1
NMTAP	95	48	5
NMSTR	95	96	1
NMSI_	95	96	1	96	48	6
NMSTR	95	96	5
NMSI_	95	96	5	96	48	2
NMTAP	95	192	1
NMTAP	95	192	5
NMTAP	95	288	0
NMTAP	95	288	4
NMTAP	96	0	0
NMTAP	96	48	7
NMTAP	96	96	4
NMTAP	96	96	6
NMTAP	96	144	7
NMTAP	96	192	0
NMTAP	96	240	1
NMTAP	96	240	3
NMTAP	96	288	0
NMTAP	96	336	7
NMTAP	97	0	4
NMTAP	97	0	6
BRTAP	97	96	2
BRTAP	97	96	4
BRSTR	97	192	0
BRSV_	97	192	0	96	48	3
BRSTR	97	192	6
BRSV_	97	192	6	96	48	3
BRTAP	97	288	0
BRTAP	97	288	6
NMSTR	98	0	1
NMSCR	98	0	1	96	48	4
NMTAP	98	96	1
NMTAP	98	96	4
NMSTR	98	144	5
NMSCR	98	144	5	96	48	0
NMTAP	98	240	3
NMTAP	98	240	5
NMSTR	98	336	2
NMSLL	98	336	2	96	96	4
NMTAP	99	48	2
NMTAP	99	48	6
NMSTR	99	96	7
NMSCL	99	96	7	96	96	1
NMTAP	99	192	7
NMSTR	100	0	6
NMSI_	100	0	6	96	48	3
NMTAP	100	96	3
NMTAP	100	96	6
NMSTR	100	144	2
NMSI_	100	144	2	96	48	6
NMTAP	100	240	2
NMTAP	100	240	5
NMTAP	100	336	4
NMTAP	100	336	7
NMTAP	101	48	5
NMTAP	101	48	6
NMSTR	101	96	5
NMSI_	101	96	5	96	48	2
NMSTR	101	96	6
NMSI_	101	96	6	96	48	1
NMTTP	101	204	6	E	0	M1
NMTTP	101	216	0	C	1	M1
NMTTP	101	228	2	E	0	M1
NMTAP	102	0	1
NMSTR	102	0	5
NMSI_	102	0	5	96	48	1
NMTAP	102	96	3
NMTAP	102	96	5
NMSTR	102	144	2
NMSI_	102	144	2	96	48	6
NMTAP	102	240	2
NMTAP	102	240	6
NMTAP	102	336	5
NMTAP	103	48	0
NMTAP	103	48	7
NMSTR	103	96	0
NMSCR	103	96	0	96	96	7
NMSUR	103	96	0	96	96	7
NMTAP	103	96	7
NMTTP	103	192	1	E	0	M1
NMTTP	103	208	2	E	0	M1
NMTTP	103	224	3	E	0	M1
NMTTP	103	240	4	E	0	M1
NMTTP	103	256	5	E	0	M1
NMTTP	103	272	6	E	0	M1
NMTTP	103	288	7	E	0	M1
NMTAP	104	0	0
NMTAP	104	24	7
NMTAP	104	48	0
NMTAP	104	72	7
NMTAP	104	96	1
NMTAP	104	120	6
NMTAP	104	144	1
NMTAP	104	168	6
NMTAP	104	192	2
NMTAP	104	216	5
NMTAP	104	240	2
NMTAP	104	264	5
NMTAP	104	288	3
NMTAP	104	312	4
NMTAP	104	336	3
NMTAP	104	360	4
NMTAP	105	0	3
BRTAP	105	96	2
BRTAP	105	96	5
BRSTR	105	192	0
BRSI_	105	192	0	96	48	4
BRSTR	105	192	7
BRSV_	105	192	7	96	48	4
BRTAP	105	288	0
BRTAP	105	288	7
NMHLD	106	0	5	96
NMTAP	106	96	4
NMTAP	106	144	4
NMTAP	106	240	6
NMTAP	106	240	7
NMTAP	106	336	0
NMTAP	106	336	1
NMTAP	107	48	2
NMTAP	107	48	3
NMSTR	107	96	2
NMSI_	107	96	2	96	48	7
NMTAP	107	96	3
NMTAP	107	192	2
NMSTR	107	192	3
NMSI_	107	192	3	96	48	6
NMTAP	107	288	3
NMHLD	108	0	1	96
NMTAP	108	96	0
NMTAP	108	144	0
NMTAP	108	240	2
NMTAP	108	240	3
NMHLD	108	336	4	96
NMHLD	108	336	5	96
NMTTP	109	96	2	B	0	M1
NMTTP	109	96	3	B	0	M1
NMTTP	109	96	3	E	1	M1
NMTTP	109	96	3	D	0	M1
BRTAP	109	96	6
BRTAP	109	192	1
NMTTP	109	192	4	B	0	M1
NMTTP	109	192	5	B	0	M1
NMTTP	109	192	5	E	1	M1
NMTTP	109	192	5	D	0	M1
NMTTP	109	288	2	B	0	M1
NMTTP	109	288	3	B	0	M1
NMTTP	109	288	3	E	1	M1
NMTTP	109	288	3	D	0	M1
BRTAP	109	288	7
NMHLD	110	0	1	96
NMTAP	110	96	0
NMTAP	110	144	0
NMTAP	110	240	2
NMTAP	110	240	3
NMTAP	110	336	4
NMTAP	110	336	5
NMTAP	111	48	6
NMTAP	111	48	7
NMTAP	111	96	6
NMSTR	111	96	7
NMSI_	111	96	7	96	48	2
NMSTR	111	192	6
NMSI_	111	192	6	96	48	3
NMTAP	111	192	7
NMTAP	111	288	6
BRTAP	112	0	2
NMTAP	112	24	3
NMTAP	112	48	2
NMTAP	112	72	3
NMTAP	112	96	2
BRTAP	112	144	1
NMTAP	112	168	0
NMTAP	112	192	1
NMTAP	112	216	0
NMTAP	112	240	1
BRTAP	112	288	5
NMTAP	112	312	4
NMTAP	112	336	5
NMTAP	112	360	4
NMTAP	113	0	5
BRTAP	113	48	6
NMTAP	113	72	7
NMTAP	113	96	6
NMTAP	113	120	7
NMTAP	113	144	6
NMTAP	113	192	2
NMTAP	113	192	3
NMTAP	113	288	1
BRSTR	113	288	4
BRSV_	113	288	4	96	48	1
BRSV_	113	288	4	96	48	7
BRTAP	114	0	4
NMTAP	114	144	1
NMTAP	114	144	6
NMTAP	114	168	2
NMTAP	114	168	5
NMTAP	114	192	3
NMTAP	114	192	4

T_REC_TAP	383
T_REC_BRK	32
T_REC_XTP	38
T_REC_BXX	45
T_REC_HLD	30
T_REC_XHO	11
T_REC_BHO	0
T_REC_BXH	0
T_REC_STR	104
T_REC_BST	13
T_REC_XST	4
T_REC_XBS	25
T_REC_TTP	111
T_REC_THO	0
T_REC_SLD	108
T_REC_BSL	43
T_REC_ALL	947
T_NUM_TAP	640
T_NUM_BRK	158
T_NUM_HLD	41
T_NUM_SLD	108
T_NUM_ALL	947
T_JUDGE_TAP	755
T_JUDGE_HLD	154
T_JUDGE_SLD	151
T_JUDGE_ALL	1060
TTM_EACHPAIRS	216
TTM_SCR_TAP	320000
TTM_SCR_BRK	410800
TTM_SCR_HLD	41000
TTM_SCR_SLD	162000
TTM_SCR_ALL	933800
TTM_SCR_S	890500
TTM_SCR_SS	918000
TTM_RAT_ACV	10172

