VERSION	0.00.00	1.04.00
FES_MODE	0
BPM_DEF	186.000	186.000	186.000	186.000
MET_DEF	4	4
RESOLUTION	384
CLK_DEF	384
COMPATIBLE_CODE	MA2

BPM	0	0	186.000
MET	0	0	4	4

NMTAP	2	0	3
NMTAP	2	96	3
NMTAP	2	192	3
NMTAP	2	288	3
NMTAP	3	0	4
NMTAP	3	96	4
NMTAP	3	192	4
NMTAP	3	288	4
NMTAP	4	0	5
NMTAP	4	96	5
NMTAP	4	192	6
NMHLD	4	288	6	384
EXTAP	5	96	7
EXTAP	5	192	0
EXTAP	5	288	1
NMTAP	6	0	2
NMTAP	6	96	2
NMTAP	6	192	3
NMTAP	6	288	3
NMTAP	7	0	4
NMTAP	7	96	4
NMTAP	7	192	3
NMTAP	7	288	3
NMTAP	8	0	4
NMTAP	8	96	4
NMTAP	8	192	5
NMTAP	8	288	5
NMTAP	9	0	6
EXTAP	9	96	6
EXTAP	9	96	7
EXTAP	9	192	0
EXTAP	9	192	7
EXTAP	9	288	0
EXTAP	9	288	1
NMTAP	10	0	2
NMTAP	10	96	3
NMTAP	10	192	4
NMTAP	10	288	5
NMTAP	11	0	6
NMTAP	11	96	7
NMTAP	11	192	0
NMTAP	11	288	1
NMHLD	12	0	2	96
NMHLD	12	0	4	96
NMHLD	12	144	3	96
NMHLD	12	144	5	96
NMHLD	12	288	1	96
NMHLD	12	288	4	96
NMHLD	13	48	3	96
NMHLD	13	48	6	96
NMTAP	13	192	0
NMTAP	13	192	7
NMTAP	13	288	1
NMTAP	13	288	6
NMTAP	14	0	2
NMTAP	14	96	1
NMTAP	14	96	3
NMHLD	14	144	1	336
NMHLD	14	144	3	336
NMTAP	15	192	2
NMTAP	15	192	3
NMTAP	15	288	4
NMTAP	16	0	5
NMTAP	16	96	4
NMTAP	16	96	6
NMHLD	16	144	4	336
NMHLD	16	144	6	336
NMTAP	17	192	4
NMTAP	17	192	5
NMTAP	17	288	3
NMTAP	18	0	2
NMTAP	18	96	1
NMTAP	18	96	3
NMHLD	18	144	1	336
NMHLD	18	144	3	336
NMTAP	19	192	2
NMTAP	19	192	3
NMSTR	19	288	4
NMSLL	19	288	4	96	192	7
BXHLD	20	336	0	240
BXHLD	20	336	6	240
NMTAP	21	288	1
NMTAP	21	288	7
NMHLD	22	0	1	192
NMTAP	22	96	0
NMTAP	22	192	0
NMTAP	22	288	0
NMTAP	22	288	1
NMHLD	23	0	2	192
NMTAP	23	96	3
NMTAP	23	192	3
NMTAP	23	288	3
NMTAP	23	288	4
NMHLD	24	0	5	192
NMTAP	24	96	4
NMTAP	24	192	4
NMTAP	24	288	4
NMTAP	24	288	5
NMHLD	25	0	6	192
NMTAP	25	96	7
NMTAP	25	192	7
NMTAP	25	288	6
NMTAP	25	288	7
NMHLD	26	0	5	288
NMTAP	26	96	7
NMTAP	26	192	6
NMTAP	26	288	4
NMHLD	27	0	2	288
NMTAP	27	96	3
NMTAP	27	192	1
NMTAP	27	288	0
NMTAP	28	0	7
NMTAP	28	96	6
NMTAP	28	192	5
NMTAP	28	288	3
NMTAP	28	288	4
EXSTR	28	336	3
NMSXR	28	336	3	96	192	3
EXSTR	28	336	4
NMSXL	28	336	4	96	192	4
NMTAP	30	0	4
NMTAP	30	0	5
NMTAP	30	96	4
NMTAP	30	96	5
NMTAP	30	192	6
NMTAP	30	192	7
NMTAP	30	288	6
NMTAP	30	288	7
BRTAP	31	0	0
BRTAP	31	96	1
BRTAP	31	192	2
BRTAP	31	288	3
NMTAP	32	0	4
NMTAP	32	0	5
NMTAP	32	96	4
NMTAP	32	96	5
NMHLD	32	192	0	96
NMHLD	32	192	7	96
NMTAP	32	336	0
NMTAP	32	336	7
NMSTR	33	48	0
NMSI_	33	48	0	96	96	4
NMSTR	33	48	1
NMSI_	33	48	1	96	96	3
NMTAP	34	0	0
NMTAP	34	0	1
NMTAP	34	96	0
NMTAP	34	96	1
NMTAP	34	192	2
NMTAP	34	192	3
NMTAP	34	288	2
NMTAP	34	288	3
BRTAP	35	0	4
BRTAP	35	96	5
BRTAP	35	192	6
BRTAP	35	288	7
NMTAP	36	0	0
NMTAP	36	0	1
NMTAP	36	96	0
NMTAP	36	96	1
NMHLD	36	192	3	96
NMHLD	36	192	4	96
NMTAP	36	336	3
NMTAP	36	336	4
NMSTR	37	48	4
NMSI_	37	48	4	96	96	0
NMSTR	37	48	5
NMSI_	37	48	5	96	96	7
NMSTR	38	0	1
NMSCR	38	0	1	96	192	4
NMTAP	38	288	5
NMSTR	39	0	6
NMSCL	39	0	6	96	192	3
NMTAP	39	288	2
NMSTR	40	0	2
NMSCL	40	0	2	96	192	7
NMTAP	40	288	6
NMSTR	41	0	5
NMSCR	41	0	5	96	192	0
NMTAP	41	288	1
NMSTR	42	0	1
NMSI_	42	0	1	96	96	3
NMSTR	42	192	7
NMSI_	42	192	7	96	96	5
NMSTR	43	0	0
NMSI_	43	0	0	96	96	2
NMSTR	43	192	6
NMSI_	43	192	6	96	96	4
EXSTR	44	0	3
NMSI_	44	0	3	96	96	7
NMSTR	44	192	4
NMSI_	44	192	4	96	96	0
BXSTR	45	0	2
BRSI_	45	0	2	96	96	7
BXSTR	45	192	5
BRSI_	45	192	5	96	96	0
BRTAP	46	0	1
NMTAP	46	288	2
NMTAP	46	288	3
EXTAP	47	0	1
EXTAP	47	0	4
NMTAP	47	288	4
NMTAP	47	288	5
EXTAP	48	0	3
EXTAP	48	0	6
EXTAP	48	192	1
EXTAP	48	192	4
EXTAP	49	0	2
EXTAP	49	0	5
BXTAP	49	96	1
BXTAP	49	96	7
BXTAP	49	192	0
BXTAP	49	192	6
BXTAP	49	288	1
BXTAP	49	288	7
EXTAP	50	0	4
NMTAP	50	0	6
NMTAP	50	96	1
NMTAP	50	96	3
NMTAP	50	144	1
NMTAP	50	144	3
NMTAP	50	240	0
NMTAP	50	240	7
NMTAP	50	336	4
NMTAP	50	336	6
NMTAP	51	48	3
NMSTR	51	96	3
NMSI_	51	96	3	96	48	7
NMTAP	51	288	0
NMTAP	51	288	6
EXTAP	52	0	1
NMTAP	52	0	3
NMTAP	52	96	4
NMTAP	52	96	6
NMTAP	52	144	4
NMTAP	52	144	6
NMTAP	52	240	0
NMTAP	52	240	7
NMTAP	52	336	1
NMTAP	52	336	3
NMTAP	53	48	4
NMTAP	53	48	6
NMTAP	53	96	4
NMSTR	53	96	6
NMSCL	53	96	6	96	96	1
EXTAP	54	0	2
EXTAP	54	0	7
NMTAP	54	96	0
NMTAP	54	96	1
NMTAP	54	144	0
NMHLD	54	144	1	96
NMHLD	54	240	3	96
NMHLD	54	336	4	96
NMTAP	55	48	6
NMHLD	55	96	6	96
NMTAP	55	192	1
NMTAP	55	288	3
NMTAP	55	288	4
NMTAP	56	0	1
NMSTR	56	48	1
NMSI_	56	48	1	96	48	4
NMTAP	56	144	6
NMSTR	56	192	6
NMSI_	56	192	6	96	48	3
NMTAP	56	288	2
NMTAP	56	336	2
BRTAP	57	96	1
BRTAP	57	96	7
BRTAP	57	192	3
BRTAP	57	192	4
BRTAP	57	288	0
BRTAP	57	288	6
NMTAP	58	0	1
EXTAP	58	0	3
NMTAP	58	96	4
NMTAP	58	96	6
NMTAP	58	144	4
NMTAP	58	144	6
NMTAP	58	240	1
NMTAP	58	240	7
NMTAP	58	336	2
NMTAP	58	336	3
NMTAP	59	48	4
NMSTR	59	96	4
NMSI_	59	96	4	96	48	0
NMTAP	59	288	1
NMTAP	59	288	7
EXTAP	60	0	1
NMTAP	60	96	0
NMTAP	60	96	6
NMTAP	60	144	0
NMTAP	60	144	6
NMTAP	60	240	4
NMTAP	60	240	5
NMTAP	60	336	1
NMTAP	60	336	3
NMTAP	61	48	0
NMTAP	61	48	6
NMSTR	61	96	0
BRSI_	61	96	0	96	48	3
NMSTR	61	96	6
BRSI_	61	96	6	96	48	3
NMTAP	62	0	4
NMTAP	62	0	5
NMTAP	62	96	6
NMTAP	62	96	7
NMHLD	62	144	6	96
NMTAP	62	144	7
NMHLD	62	240	4	96
NMHLD	62	336	3	96
NMSTR	63	48	1
NMSCL	63	48	1	96	144	3
NMTAP	63	96	1
EXTAP	64	0	2
EXTAP	64	48	3
EXTAP	64	96	2
EXTAP	64	144	5
EXTAP	64	192	4
EXTAP	64	240	5
EXTAP	64	288	2
EXTAP	64	336	3
BXTAP	65	0	1
NMTAP	65	96	0
NMTAP	65	96	1
NMTAP	65	192	3
NMTAP	65	192	4
NMTAP	65	288	6
NMTAP	65	288	7
NMHLD	66	0	5	672
NMTTP	66	192	4	B	0	M1
NMTTP	66	288	5	B	0	M1
NMTTP	67	0	6	B	0	M1
NMTTP	67	96	6	E	0	M1
NMTTP	67	192	5	E	0	M1
NMTTP	67	288	4	E	0	M1
NMHLD	68	0	2	672
NMTTP	68	192	3	B	0	M1
NMTTP	68	288	2	B	0	M1
NMTTP	69	0	1	B	0	M1
NMTTP	69	96	2	E	0	M1
NMTTP	69	192	3	E	0	M1
NMTTP	69	288	4	E	0	M1
NMHLD	70	0	5	672
NMTTP	70	192	5	B	0	M1
NMTTP	70	288	6	B	0	M1
NMTTP	71	0	7	B	0	M1
NMTTP	71	96	7	E	0	M1
NMTTP	71	192	6	E	0	M1
NMTTP	71	288	5	E	0	M1
NMHLD	72	0	2	576
NMTTP	72	192	2	B	0	M1
NMTTP	72	288	3	B	0	M1
NMTTP	73	0	4	E	0	M1
NMTTP	73	96	4	B	0	M1
NMTTP	73	192	5	B	0	M1
NMTAP	74	0	3
NMTAP	74	96	3
NMTAP	74	192	3
NMTAP	75	0	0
NMTAP	75	0	6
NMTAP	75	96	0
NMTAP	75	96	6
NMTAP	75	192	0
NMTAP	75	192	6
NMSTR	76	0	2
NMSCL	76	0	2	96	192	7
NMTAP	76	0	4
NMTAP	77	0	0
NMTAP	77	0	6
NMTAP	77	96	0
NMTAP	77	96	6
NMTAP	77	192	0
NMTAP	77	192	6
NMTAP	78	0	4
NMTAP	78	96	4
NMTAP	78	192	4
NMTAP	79	0	1
NMTAP	79	0	7
NMTAP	79	96	1
NMTAP	79	96	7
NMTAP	79	192	1
NMTAP	79	192	7
NMSTR	80	0	4
NMSLL	80	0	4	96	192	0
NMSLR	80	0	4	96	192	0
NMTAP	81	0	1
NMTAP	81	0	7
NMTAP	81	96	1
NMTAP	81	96	7
NMTAP	81	192	1
NMTAP	81	192	7
NMTAP	82	0	3
NMTAP	82	96	3
NMTAP	82	192	3
NMTAP	83	0	0
NMTAP	83	0	6
NMTAP	83	96	0
NMTAP	83	96	6
NMTAP	83	192	0
NMTAP	83	192	6
NMSTR	84	0	3
NMSF_	84	0	3	96	192	7
NMTAP	85	0	0
NMTAP	85	0	6
NMTAP	85	96	0
NMTAP	85	96	6
NMTAP	85	192	0
NMTAP	85	192	6
NMTAP	86	0	2
NMTAP	86	0	4
NMTAP	86	48	2
NMTAP	86	48	4
NMTAP	86	96	2
NMTAP	86	96	4
NMTAP	86	192	0
NMTAP	86	192	6
NMTAP	86	240	0
NMTAP	86	240	6
NMTAP	86	288	0
NMTAP	86	288	6
NMTAP	87	0	3
NMTAP	87	0	5
NMTAP	87	48	3
NMTAP	87	48	5
NMTAP	87	96	3
NMTAP	87	96	5
NMTAP	87	192	1
NMTAP	87	192	7
NMTAP	87	240	1
NMTAP	87	240	7
NMTAP	87	288	1
NMTAP	87	288	7
EXTAP	88	0	0
EXTAP	88	48	7
EXTAP	88	96	6
EXTAP	88	144	5
EXTAP	88	192	4
EXTAP	88	240	3
EXTAP	88	288	2
EXTAP	88	336	1
BXTAP	89	0	0
BXTAP	89	0	7
BRTAP	89	96	2
BRTAP	89	96	4
BRTAP	89	192	0
BRTAP	89	192	6
EXTAP	90	0	4
NMTAP	90	0	6
NMTAP	90	96	2
NMTAP	90	96	3
NMTAP	90	144	2
NMTAP	90	144	3
NMTAP	90	240	1
NMTAP	90	240	7
NMTAP	90	336	4
NMTAP	90	336	6
NMTAP	91	48	2
NMTAP	91	48	3
NMSTR	91	96	2
NMSI_	91	96	2	96	48	7
NMTAP	91	96	3
NMTAP	91	288	0
NMTAP	91	288	6
NMTAP	92	0	1
EXTAP	92	0	3
NMTAP	92	96	4
NMTAP	92	96	5
NMTAP	92	144	4
NMTAP	92	144	5
NMTAP	92	240	0
NMTAP	92	240	6
NMTAP	92	336	1
NMTAP	92	336	3
NMTAP	93	48	4
NMTAP	93	48	5
NMTAP	93	96	4
NMSTR	93	96	5
NMSCR	93	96	5	96	96	2
EXTAP	94	0	0
EXTAP	94	0	1
NMTAP	94	96	2
NMTAP	94	96	3
NMHLD	94	144	2	96
NMTAP	94	144	3
NMHLD	94	240	0	96
NMHLD	94	336	7	96
NMTAP	95	48	5
NMHLD	95	96	5	96
NMTAP	95	192	2
NMTAP	95	288	3
NMTAP	95	288	4
NMTAP	96	0	2
NMSTR	96	48	2
NMSCR	96	48	2	96	48	5
NMTAP	96	144	6
NMSTR	96	192	6
NMSCR	96	192	6	96	48	1
NMTAP	96	288	2
NMTAP	96	336	2
BRTAP	97	96	0
BRTAP	97	96	2
BRTAP	97	192	3
BRTAP	97	192	4
BRTAP	97	288	5
BRTAP	97	288	7
EXTAP	98	0	0
NMTAP	98	0	6
NMTAP	98	96	4
NMTAP	98	96	5
NMTAP	98	144	4
NMTAP	98	144	5
NMTAP	98	240	1
NMTAP	98	240	3
NMTAP	98	336	0
NMTAP	98	336	6
NMTAP	99	48	4
NMTAP	99	48	5
NMTAP	99	96	4
NMSTR	99	96	5
NMSI_	99	96	5	96	48	0
NMTAP	99	288	1
NMTAP	99	288	7
NMTAP	100	0	1
NMTAP	100	0	3
NMTAP	100	96	2
NMTAP	100	96	5
NMTAP	100	144	2
NMTAP	100	144	5
NMTAP	100	240	4
NMTAP	100	240	6
NMTAP	100	336	0
NMTAP	100	336	7
EXTAP	101	48	1
EXTAP	101	48	2
BRSTR	101	96	1
BRSI_	101	96	1	96	48	6
BRSTR	101	96	2
BRSI_	101	96	2	96	48	5
NMTAP	102	0	5
NMTAP	102	0	7
NMTAP	102	96	3
NMTAP	102	96	4
NMTAP	102	144	3
NMHLD	102	144	4	96
NMHLD	102	240	2	96
NMTAP	102	336	0
NMTAP	103	48	3
NMTAP	103	48	7
NMSTR	103	96	3
NMSCL	103	96	3	96	96	0
NMSTR	103	96	7
NMSCL	103	96	7	96	96	4
NMTAP	104	0	1
NMTAP	104	48	3
NMTAP	104	96	1
NMTAP	104	144	6
NMTAP	104	192	4
NMTAP	104	240	6
NMTAP	104	288	2
NMTAP	104	336	4
BRTAP	105	0	0
NMTTP	105	96	6	B	0	M1
NMTTP	105	96	7	B	0	M1
NMTTP	105	96	7	E	1	M1
NMTTP	105	96	7	D	0	M1
NMTTP	105	192	0	B	0	M1
NMTTP	105	192	1	B	0	M1
NMTTP	105	192	1	E	1	M1
NMTTP	105	192	1	D	0	M1
NMTTP	105	288	3	B	0	M1
NMTTP	105	288	4	B	0	M1
NMTTP	105	288	4	E	0	M1
NMTTP	105	288	4	D	1	M1
NMTAP	106	0	7
NMTAP	106	96	6
NMTAP	106	192	5
NMTAP	106	288	4
NMTAP	107	0	3
NMTAP	107	96	2
NMTAP	107	192	1
NMTAP	107	288	0
NMTAP	107	288	7
NMTAP	108	0	1
NMTAP	108	96	2
NMTAP	108	192	3
NMTAP	108	288	4
NMTAP	109	0	5
NMTAP	109	96	4
NMTAP	109	96	6
NMTAP	109	192	0
NMTAP	109	192	7
NMTAP	109	288	1
NMTAP	109	288	3
NMTAP	110	0	2
NMTAP	110	96	1
NMTAP	110	192	0
NMTAP	110	288	6
NMTAP	110	288	7
NMTAP	111	0	5
NMTAP	111	96	4
NMTAP	111	192	3
NMTAP	111	288	2
EXTAP	112	0	1
EXTAP	112	0	3
EXTAP	112	48	1
EXTAP	112	48	3
NMTAP	112	144	4
NMTAP	112	144	6
NMTAP	112	192	4
NMTAP	112	192	6
NMTAP	112	288	0
NMTAP	112	288	1
NMTAP	112	336	0
NMTAP	112	336	1
NMTAP	113	48	6
NMTAP	113	48	7
NMTAP	113	96	6
NMTAP	113	96	7
NMTAP	113	192	1
NMTAP	113	192	7
NMTAP	113	288	3
NMTAP	113	288	4
BRSTR	114	0	0
NMSV_	114	0	0	96	48	3
BRSTR	114	0	6
NMSV_	114	0	6	96	48	3

T_REC_TAP	379
T_REC_BRK	26
T_REC_XTP	50
T_REC_BXX	9
T_REC_HLD	42
T_REC_XHO	0
T_REC_BHO	0
T_REC_BXH	2
T_REC_STR	32
T_REC_BST	4
T_REC_XST	3
T_REC_XBS	2
T_REC_TTP	35
T_REC_THO	0
T_REC_SLD	36
T_REC_BSL	6
T_REC_ALL	626
T_NUM_TAP	499
T_NUM_BRK	49
T_NUM_HLD	42
T_NUM_SLD	36
T_NUM_ALL	626
T_JUDGE_TAP	540
T_JUDGE_HLD	192
T_JUDGE_SLD	42
T_JUDGE_ALL	774
TTM_EACHPAIRS	183
TTM_SCR_TAP	249500
TTM_SCR_BRK	127400
TTM_SCR_HLD	42000
TTM_SCR_SLD	54000
TTM_SCR_ALL	472900
TTM_SCR_S	454000
TTM_SCR_SS	468000
TTM_RAT_ACV	10104

